osu file format v14

[General]
AudioFilename: CCTV - Believe in the power of brands.mp3
AudioLeadIn: 0
PreviewTime: 41426
Countdown: 0
SampleSet: Soft
StackLeniency: 0.7
Mode: 0
LetterboxInBreaks: 0
WidescreenStoryboard: 0

[Editor]
DistanceSpacing: 1
BeatDivisor: 8
GridSize: 32
TimelineZoom: 1.8

[Metadata]
Title:Believe in the power of the brand
TitleUnicode:相信品牌的力量
Artist:CCTV
ArtistUnicode:中国中央电视台
Creator:cmn_891127
Version:Insane
Source:
Tags:
BeatmapID:648176
BeatmapSetID:238992

[Difficulty]
HPDrainRate:7
CircleSize:4.5
OverallDifficulty:7
ApproachRate:8
SliderMultiplier:2.3
SliderTickRate:1

[Events]
//Background and Video events
Video,0,"CCTV - Believe in the power of brands.avi"
0,0,"CCTV - Believe in the power of brands.png",0,0
//Break Periods
//Storyboard Layer 0 (Background)
//Storyboard Layer 1 (Fail)
//Storyboard Layer 2 (Pass)
//Storyboard Layer 3 (Foreground)
//Storyboard Sound Samples

[TimingPoints]
910,800,4,2,1,40,1,0
1010,-100,4,2,1,5,0,0
1710,-100,4,2,1,40,0,0
20110,-100,4,2,1,15,0,0
20910,-100,4,2,1,40,0,0
26510,-100,4,2,1,15,0,0
27310,-100,4,2,1,40,0,0
32910,-100,4,2,1,20,0,0
34110,-100,4,2,1,40,0,0
35610,-100,4,2,1,5,0,0
35710,-100,4,2,1,40,0,0
36123,771.55532694657,4,2,1,40,1,0
37183,-100,4,2,1,5,0,0
37280,-100,4,2,1,40,0,0
39209,745.341614906832,4,2,1,40,1,0
40699,727.272727272727,4,2,1,40,1,0
41426,722.89156626506,4,2,1,50,1,1
43504,-100,4,2,1,5,0,1
43594,-100,4,2,1,50,0,1
44300,722.89156626506,4,2,1,50,1,1
45655,-100,4,2,1,5,0,1
45745,-100,4,2,1,50,0,1
47462,-100,4,2,1,5,0,1
47553,-100,4,2,1,50,0,1
50806,727.272727272727,4,2,1,50,1,1
52260,769.230769230769,4,2,1,50,1,1
53029,797.34219269103,4,2,1,50,1,1
55819,-100,4,2,1,5,0,1
56218,869.565217391304,4,2,1,40,1,0
57196,-100,4,2,1,20,0,0
57304,-100,4,2,1,40,0,0
57413,-100,4,2,1,20,0,0
57522,-100,4,2,1,40,0,0

[Colours]
Combo1 : 180,180,180
Combo2 : 151,62,62
Combo3 : 211,150,150
Combo4 : 106,106,106
SliderBorder : 50,50,50

[HitObjects]
256,136,910,38,0,L|256:171,1,28.75,2|2,0:0|0:0,0:0:0:0:
32,272,1710,5,0,0:0:0:0:
120,293,1910,2,0,P|173:287|190:297,1,57.5
242,233,2310,2,0,P|262:246|302:251,1,57.5
480,69,2910,1,0,0:0:0:0:
441,140,3110,1,0,0:0:0:0:
414,218,3310,2,0,B|401:267|442:288|419:331,2,115
63,206,5310,37,0,0:0:0:0:
135,169,5510,1,0,0:0:0:0:
213,192,5710,2,0,B|261:204|306:172|339:187,1,115,0|0,0:0|0:0,0:0:0:0:
401,222,6310,2,0,P|439:229|472:220,1,57.5
434,147,6710,1,0,0:0:0:0:
356,106,6910,2,0,B|336:95|291:127|243:115,1,115,0|2,0:0|0:0,0:0:0:0:
30,181,8510,6,0,P|59:179|85:167,1,57.5
158,209,8910,2,0,P|213:215|251:267,1,115
175,284,9510,1,0,0:0:0:0:
297,177,9710,2,0,P|337:188|363:181,1,57.5
452,101,10110,2,0,B|397:93|372:119|319:107,1,115
157,60,11710,37,0,0:0:0:0:
209,119,11910,1,0,0:0:0:0:
192,201,12110,2,0,B|174:242|217:271|193:320,1,115
124,288,12710,1,0,0:0:0:0:
276,223,12910,2,0,B|309:217|350:237|394:221,1,115
161,121,13710,5,2,0:0:0:0:
203,189,13910,2,0,P|165:201|135:196,1,57.5
276,223,14510,2,0,P|309:232|379:190,1,115
312,152,15110,1,0,0:0:0:0:
240,115,15310,37,2,0:0:0:0:
203,189,15510,1,0,0:0:0:0:
144,246,15710,2,0,P|105:267|36:255,1,115
33,130,16510,2,0,P|14:152|10:180,1,57.5
83,192,16910,5,2,0:0:0:0:
147,141,17110,1,0,0:0:0:0:
224,114,17310,2,0,B|270:103|296:134|341:126,1,115
469,158,18110,2,0,P|430:149|392:165,1,57.5
384,225,18510,37,2,0:0:0:0:
350,302,18710,1,0,0:0:0:0:
300,208,18910,1,0,0:0:0:0:
266,285,19110,1,0,0:0:0:0:
214,217,19310,2,0,B|177:212|148:240|83:227,1,115
252,122,20110,6,0,B|330:137|380:78|489:104,1,230,4|0,0:0|0:0,0:0:0:0:
276,205,21710,38,0,B|354:220|404:161|513:187,1,230
241,289,23310,6,0,B|195:278|173:309|127:300,1,115,0|0,0:0|0:0,0:0:0:0:
0,260,23910,2,0,P|28:258|56:267,1,57.5
17,332,24310,1,0,0:0:0:0:
97,198,24510,2,0,P|94:135|55:95,1,115
24,168,25110,1,0,0:0:0:0:
183,149,25310,2,0,B|233:140|249:170|298:161,1,115
452,283,26510,38,0,B|470:238|466:220|418:195|415:141|443:110|521:138|480:195,1,230,4|0,0:0|0:0,0:0:0:0:
320,231,28110,6,0,B|338:186|334:168|286:143|283:89|311:58|389:86|348:143,1,230
210,196,29710,38,0,P|169:212|132:204,1,57.5,0|0,0:0|0:0,0:0:0:0:
160,135,30110,1,0,0:0:0:0:
83,110,30310,1,0,0:0:0:0:
37,175,30510,2,0,B|10:188|10:188|66:189|90:238,1,115
114,303,31110,1,0,0:0:0:0:
182,342,31310,2,0,P|238:349|284:316,1,115
328,250,31910,1,0,0:0:0:0:
334,227,32010,1,0,0:0:0:0:
340,204,32110,1,0,0:0:0:0:
307,126,32510,5,0,0:0:0:0:
255,193,32910,37,4,0:0:0:0:
256,192,33010,12,0,34110,0:0:0:0:
128,111,34510,5,8,0:0:0:0:
130,123,35110,37,0,0:0:0:0:
109,202,35310,2,0,P|91:243|45:266,1,86.25
41,271,35710,2,0,B|88:268|125:302|165:287,1,115,0|8,0:0|0:0,0:0:0:0:
348,122,36701,5,0,0:0:0:0:
378,194,36894,2,0,P|386:229|361:288,1,86.25
418,273,37280,2,0,P|374:291|343:357,1,115,0|8,0:0|0:0,0:0:0:0:
84,268,38244,37,0,0:0:0:0:
156,297,38437,2,0,P|193:300|255:240,2,115,0|0|8,0:0|0:0|0:0,0:0:0:0:
184,220,39395,1,0,0:0:0:0:
109,193,39581,1,0,0:0:0:0:
3,218,39768,2,0,P|-9:186|1:147,1,57.5
71,265,40140,2,0,P|39:290|4:293,1,57.5
45,143,40699,6,0,B|110:159|139:115|195:114|249:131,1,201.25
229,97,41426,6,0,P|268:123|339:111,1,115,12|0,0:0|0:0,0:0:0:0:
406,86,41968,1,0,0:0:0:0:
290,47,42148,1,0,0:0:0:0:
310,191,42329,1,0,0:0:0:0:
333,115,42510,2,0,P|293:114|256:130,1,57.5
288,265,42871,2,0,P|327:265|364:249,1,57.5
219,316,43233,2,0,P|176:313|138:333,1,86.25
128,360,43594,2,0,P|156:289|137:237,1,115
61,165,44136,5,0,0:0:0:0:
92,172,44227,1,0,0:0:0:0:
117,178,44300,1,8,0:0:0:0:
254,92,44480,1,0,0:0:0:0:
180,69,44661,2,0,P|176:97|186:125,1,57.5
327,112,45022,2,0,P|331:84|322:57,1,57.5
300,193,45384,2,0,P|285:240|304:288,1,86.25
308,288,45745,1,0,0:0:0:0:
385,318,45926,2,0,P|388:266|372:244,1,57.5
321,206,46287,1,0,0:0:0:0:
239,246,46468,2,0,P|221:282|248:357,1,115
308,288,47010,1,0,0:0:0:0:
151,259,47191,38,0,B|111:267|96:249|50:257,1,86.25,8|0,0:0|0:0,0:0:0:0:
43,264,47553,2,0,P|85:240|93:212,1,57.5
19,183,47914,1,0,0:0:0:0:
89,130,48095,1,0,0:0:0:0:
167,174,48275,2,0,B|214:184|249:151|303:166,1,115
355,193,48818,1,0,0:0:0:0:
419,253,48998,1,0,0:0:0:0:
448,169,49179,1,0,0:0:0:0:
339,206,49360,1,0,0:0:0:0:
437,261,49540,1,0,0:0:0:0:
444,149,49721,1,0,0:0:0:0:
359,96,49902,5,0,0:0:0:0:
339,98,49992,1,0,0:0:0:0:
316,99,50083,1,8,0:0:0:0:
232,144,50263,2,0,P|199:154|159:146,1,57.5
196,64,50625,1,0,0:0:0:0:
248,231,50806,2,0,B|235:269|265:308|250:349,2,115,0|0|0,0:0|0:0|0:0,0:0:0:0:
172,316,51715,1,0,0:0:0:0:
322,249,51896,1,0,0:0:0:0:
163,234,52078,1,0,0:0:0:0:
343,167,52260,1,0,0:0:0:0:
155,154,52452,1,0,0:0:0:0:
361,86,52644,1,0,0:0:0:0:
259,191,53029,37,0,0:0:0:0:
256,192,53128,12,0,55819,0:0:0:0:
313,156,56218,22,0,B|355:166|390:133|443:142,1,115,2|0,0:0|0:0,0:0:0:0:
244,118,57087,2,0,P|204:109|164:116,1,57.5
207,185,57522,22,0,P|170:196|178:262,1,115
