osu file format v14

[General]
AudioFilename: CCTV - Believe in the power of brands.mp3
AudioLeadIn: 0
PreviewTime: 41426
Countdown: 0
SampleSet: Soft
StackLeniency: 0.7
Mode: 0
LetterboxInBreaks: 0
WidescreenStoryboard: 0

[Editor]
DistanceSpacing: 1
BeatDivisor: 8
GridSize: 4
TimelineZoom: 1.2

[Metadata]
Title:Believe in the power of the brand
TitleUnicode:相信品牌的力量
Artist:CCTV
ArtistUnicode:中国中央电视台
Creator:cmn_891127
Version:Hard
Source:
Tags:
BeatmapID:552660
BeatmapSetID:238992

[Difficulty]
HPDrainRate:5
CircleSize:4
OverallDifficulty:5
ApproachRate:6
SliderMultiplier:2.3
SliderTickRate:1

[Events]
//Background and Video events
0,0,"CCTV - Believe in the power of brands.png",0,0
Video,0,"CCTV - Believe in the power of brands.avi"
//Break Periods
//Storyboard Layer 0 (Background)
//Storyboard Layer 1 (Fail)
//Storyboard Layer 2 (Pass)
//Storyboard Layer 3 (Foreground)
//Storyboard Sound Samples

[TimingPoints]
910,800,4,2,1,40,1,0
1010,-100,4,2,1,5,0,0
1110,-100,4,2,1,40,0,0
20110,-100,4,2,1,15,0,0
20910,-100,4,2,1,40,0,0
26510,-100,4,2,1,15,0,0
27310,-100,4,2,1,40,0,0
32910,-100,4,2,1,20,0,0
34510,-100,4,2,1,40,0,0
36123,771.55532694657,4,2,1,40,1,0
39209,745.341614906832,4,2,1,40,1,0
40699,727.272727272727,4,2,1,40,1,0
41426,722.89156626506,4,2,1,50,1,1
44300,722.89156626506,4,2,1,50,1,1
50806,727.272727272727,4,2,1,50,1,1
52260,769.230769230769,4,2,1,50,1,1
53029,797.34219269103,4,2,1,50,1,1
55421,-100,4,2,1,5,0,1
56218,869.565217391304,4,2,1,40,1,0

[Colours]
Combo1 : 180,180,180
Combo2 : 151,62,62
Combo3 : 211,150,150
Combo4 : 106,106,106
SliderBorder : 50,50,50

[HitObjects]
257,78,910,38,0,L|257:120,1,28.75,2|2,0:0|0:0,0:0:0:0:
57,234,1710,6,0,B|95:245|139:217|171:226,1,115,0|0,0:0|0:0,0:0:0:0:
245,253,2309,1,0,0:0:0:0:
320,282,2510,2,0,P|360:282|408:210,2,115,0|0|0,0:0|0:0|0:0,0:0:0:0:
357,158,3710,2,0,P|317:158|269:230,1,115
147,120,5310,37,0,0:0:0:0:
147,120,5710,1,0,0:0:0:0:
147,120,6110,2,0,P|188:110|213:116,1,57.5,0|0,0:0|0:0,0:0:0:0:
186,191,6510,2,0,B|174:240|214:254|188:316,2,115,0|0|2,0:0|0:0|0:0,0:0:0:0:
438,268,8510,5,0,0:0:0:0:
438,268,8910,1,0,0:0:0:0:
438,268,9310,2,0,P|482:204|466:153,1,115
413,120,9910,1,0,0:0:0:0:
399,199,10110,2,0,B|359:212|326:186|284:197,1,115
147,120,11710,37,0,0:0:0:0:
147,120,12110,1,0,0:0:0:0:
455,67,12910,2,0,B|399:107|327:82|327:82|359:104,1,172.5
390,178,13710,6,0,P|396:210|377:245,1,57.5,2|0,0:0|0:0,0:0:0:0:
320,288,14110,2,0,B|264:302|251:266|185:284,2,115,0|0|0,0:0|0:0|0:0,0:0:0:0:
299,206,15110,1,0,0:0:0:0:
253,138,15310,38,0,P|228:120|192:118,1,57.5,2|0,0:0|0:0,0:0:0:0:
201,198,15710,2,0,B|145:212|132:176|66:194,2,115,0|0|0,0:0|0:0|0:0,0:0:0:0:
348,155,16910,6,0,P|375:167|408:166,1,57.5,2|0,0:0|0:0,0:0:0:0:
391,89,17310,2,0,P|348:74|279:108,2,115,0|0|0,0:0|0:0|0:0,0:0:0:0:
481,212,18510,38,0,P|496:251|483:283,1,57.5,2|0,0:0|0:0,0:0:0:0:
420,306,18910,2,0,P|390:259|403:193,2,115,0|0|0,0:0|0:0|0:0,0:0:0:0:
274,283,20110,6,0,B|193:275|170:346|45:323,1,230,4|0,0:0|0:0,0:0:0:0:
248,192,21710,38,0,B|167:184|144:255|19:232,1,230,0|0,0:0|0:0,0:0:0:0:
223,103,23310,6,0,B|142:95|119:166|-6:143,1,230,0|0,0:0|0:0,0:0:0:0:
25,65,24310,37,0,0:0:0:0:
83,124,24510,2,0,P|85:172|24:220,1,115,0|0,0:0|0:0,0:0:0:0:
0,144,25110,1,0,0:0:0:0:
25,65,25310,2,0,P|81:41|136:61,1,115,0|0,0:0|0:0,0:0:0:0:
348,308,26510,6,0,B|378:239|319:226|292:152|361:117|404:177|364:211,1,230,4|0,0:0|0:0,0:0:0:0:
225,270,28110,38,0,B|255:201|196:188|169:114|238:79|281:139|241:173,1,230,0|0,0:0|0:0,0:0:0:0:
99,227,29710,6,0,B|129:158|70:145|43:71|112:36|155:96|115:130,1,230,0|0,0:0|0:0,0:0:0:0:
233,30,30910,38,0,P|217:70|221:100,1,57.5
297,83,31310,2,0,B|340:95|374:61|414:71,1,115,0|0,0:0|0:0,0:0:0:0:
483,108,31910,2,0,L|507:123,2,28.75,0|0|0,0:0|0:0|0:0,0:0:0:0:
407,252,32510,5,0,0:0:0:0:
257,191,32910,37,4,0:0:0:0:
256,192,33010,12,0,34110,0:0:0:0:
32,90,34510,5,8,0:0:0:0:
32,90,34910,1,0,0:0:0:0:
110,112,35110,2,0,B|175:126|208:79|279:89,1,172.5,0|0,0:0|0:0,0:0:0:0:
154,185,36110,37,8,0:0:0:0:
154,185,36508,1,0,0:0:0:0:
232,207,36701,2,0,B|297:221|330:174|401:184,1,172.5,0|0,0:0|0:0,0:0:0:0:
266,283,37666,5,8,0:0:0:0:
266,283,38051,1,0,0:0:0:0:
344,305,38244,2,0,B|409:319|442:272|513:282,1,172.5,0|0,0:0|0:0,0:0:0:0:
512,129,39209,37,8,0:0:0:0:
512,129,39581,2,0,P|482:136|450:131,1,57.5
386,173,39954,2,0,B|337:184|314:155|267:164,1,115,0|0,0:0|0:0,0:0:0:0:
200,201,40513,1,0,0:0:0:0:
247,266,40699,6,0,P|283:190|225:121,1,172.5,0|0,0:0|0:0,0:0:0:0:
158,124,41426,6,0,B|230:152|262:94|325:102,1,172.5,12|0,0:0|0:0,0:0:0:0:
401,134,42148,1,0,0:0:0:0:
401,134,42510,1,0,0:0:0:0:
401,134,42871,2,0,P|451:141|504:104,1,115
435,62,43413,1,0,0:0:0:0:
362,30,43594,2,0,B|285:12|272:62|194:48,1,172.5
218,130,44300,6,0,P|139:151|122:232,1,172.5,8|0,0:0|0:0,0:0:0:0:
200,209,45022,1,0,0:0:0:0:
200,209,45384,1,0,0:0:0:0:
200,209,45745,2,0,P|252:214|274:231,1,57.5,0|0,0:0|0:0,0:0:0:0:
325,269,46107,2,0,P|370:281|396:268,1,57.5
449,217,46468,2,0,P|395:202|363:153,1,115
443,134,47010,1,0,0:0:0:0:
385,73,47191,38,0,B|340:66|325:101|254:85,1,115,8|0,0:0|0:0,0:0:0:0:
197,57,47734,1,0,0:0:0:0:
197,57,47914,2,0,P|159:51|133:58,1,57.5,0|0,0:0|0:0,0:0:0:0:
168,134,48275,1,0,0:0:0:0:
168,134,48456,2,0,P|131:138|104:150,1,57.5,0|0,0:0|0:0,0:0:0:0:
161,217,48818,1,0,0:0:0:0:
161,217,48998,2,0,P|128:249|128:276,1,57.5,0|0,0:0|0:0,0:0:0:0:
212,282,49360,2,0,B|262:290|289:256|342:264,1,115,0|0,0:0|0:0,0:0:0:0:
405,290,49902,6,0,L|434:309,2,28.75,0|0|8,0:0|0:0|0:0,0:0:0:0:
348,226,50263,2,0,P|333:189|360:120,1,115
435,158,50806,2,0,P|440:102|409:55,1,115
325,45,51351,2,0,P|292:54|254:45,1,57.5
202,111,51715,2,0,P|174:109|147:118,1,57.5
183,193,52078,1,0,0:0:0:0:
242,250,52260,2,0,P|191:274|136:262,2,115
256,192,53128,12,0,55421,0:0:0:0:
197,243,56218,22,0,P|247:272|308:252,1,115,2|0,0:0|0:0,0:0:0:0:
241,113,57087,2,0,P|282:116|313:133,2,57.5,0|0|0,0:0|0:0|0:0,0:0:0:0:
256,192,57957,5,0,0:0:0:0:
