osu file format v5

[General]
AudioFilename: All Your Base Are Belong To Us.mp3
AudioLeadIn: 0
PreviewTime: -1
Countdown: 1
SampleSet: Normal

[Metadata]
Title:All Your Base (Are Belong To Us)
Artist:CATS
Creator:MasterOfTheXP
Version:Breezin *

[Difficulty]
HPDrainRate:2
CircleSize:2
OverallDifficulty:6
SliderMultiplier:1.4
SliderTickRate:4

[Events]
//Background and Video events
//Break Periods
2,82784,106456
2,122973,130421
2,155049,166185
//Storyboard Layer 0 (Background)
//Storyboard Layer 1 (Failing)
//Storyboard Layer 2 (Passing)
//Storyboard Layer 3 (Foreground)
//Storyboard Sound Samples
//Background Colour Transformations
3,100,163,162,255

[TimingPoints]
-4,368.699999999999,4,1,0,100

[Colours]
Combo1 : 255,173,0
Combo2 : 0,248,37
Combo3 : 51,93,255
Combo4 : 248,40,0

[HitObjects]
256,192,48295,1,0
256,192,51245,5,0
256,192,54194,5,0
256,192,57144,5,0
160,192,60094,5,0
352,192,63043,1,0
160,192,65993,5,0
352,192,68942,1,0
160,192,71892,5,0
256,192,73367,1,0
352,192,74842,1,0
128,192,77791,1,0
256,192,79266,1,0
384,192,80741,1,0
160,192,107656,5,0
352,192,110605,1,0
160,192,113555,5,0
352,192,116505,1,0
160,192,119823,5,0
256,192,121298,1,0
352,192,122773,1,0
192,192,131621,5,0
320,192,132359,1,0
192,192,133096,1,0
320,192,133834,1,0
192,192,134571,1,0
320,192,135308,1,0
192,192,136046,1,0
320,192,136783,1,0
192,192,137521,5,0
320,192,138258,1,0
192,192,138995,1,0
320,192,139733,1,0
192,192,140470,1,0
320,192,141208,1,0
192,192,141945,1,0
320,192,142682,1,0
256,64,143420,6,0,L|256:352,3,280
160,192,146369,1,0
320,192,147844,1,0
256,64,149319,2,0,L|256:224,15,140
192,192,167385,5,0
320,192,168860,1,0
192,192,170335,1,0
320,192,171810,1,0
192,192,173284,5,0
320,192,174759,1,0
192,192,176234,1,0
320,192,177709,1,0
192,192,179184,5,0
320,192,180658,1,0
192,192,182133,1,0
256,192,182871,1,0
320,192,183608,1,0
160,192,185083,1,0
352,192,186558,1,0
192,192,188032,1,0
256,192,188770,1,0
320,192,189507,1,0
256,192,190982,5,0
256,192,192826,1,0
192,192,194300,1,0
352,192,194669,1,0
256,192,197250,5,0
256,192,198725,5,0
256,192,200200,5,0
256,192,200568,5,0
256,192,200937,5,0
160,192,203149,5,0
352,192,204624,1,0
256,192,206099,5,0
256,192,206467,5,0
128,192,211261,2,0,L|384:192,5,140
128,192,223428,1,0
352,192,224902,1,0
256,192,226746,1,0
256,192,230802,12,0,236332
