osu file format v9

[General]
AudioFilename: C418 - Droopy Likes Ricochet (AUDIO).mp3
AudioLeadIn: 0
PreviewTime: 41391
Countdown: 0
SampleSet: Normal
StackLeniency: 0.7
Mode: 0
LetterboxInBreaks: 1

[Editor]
Bookmarks: 8814,18952,21486,31623,41549,51898,62035,72172,82310,92447
DistanceSpacing: 0.9
BeatDivisor: 4
GridSize: 16

[Metadata]
Title:Droopy likes ricochet
Artist:C418
Creator:Hyguys
Version:Normal
Source:Minecraft
Tags:Daniel Rosenfeld Volume Alpha OST ambient electronica

[Difficulty]
HPDrainRate:4
CircleSize:4
OverallDifficulty:3
ApproachRate:5
SliderMultiplier:1.3
SliderTickRate:2

[Events]
//Background and Video events
Video,8814,"C418 - Droopy Likes Ricochet (VIDEO).AVI"
0,0,"MinecraftWallpaper01 (1).jpg"
//Break Periods
2,19093,20245
//Storyboard Layer 0 (Background)
//Storyboard Layer 1 (Fail)
//Storyboard Layer 2 (Pass)
//Storyboard Layer 3 (Foreground)
//Storyboard Sound Samples
//Background Colour Transformations
3,100,163,162,255

[TimingPoints]
8815,629.92125984252,4,2,0,10,1,0
19110,-100,4,2,0,20,0,0
21445,633.7470293108,4,2,0,10,1,0
31623,-100,4,2,0,50,0,0
41655,-100,4,1,0,15,0,0
51581,-100,4,1,0,15,0,0
51898,-100,4,1,0,15,0,0
61718,-100,4,1,0,15,0,0
62035,-100,4,1,0,15,0,0
72122,-100,4,2,0,40,0,0
82607,-100,4,2,0,30,0,0
82925,-100,4,2,0,25,0,0
83242,-100,4,2,0,20,0,0
83559,-100,4,2,0,15,0,0
83877,-100,4,2,0,10,0,0
84194,-100,4,2,0,5,0,0
84829,-100,4,2,0,40,0,0
85147,-100,4,2,0,30,0,0
85464,-100,4,2,0,25,0,0
85782,-100,4,2,0,20,0,0
86099,-100,4,2,0,15,0,0
86416,-100,4,2,0,10,0,0
86734,-100,4,2,0,5,0,0
87369,-100,4,2,0,15,0,0
88321,-100,4,2,0,10,0,0
88956,-100,4,2,0,6,0,0
89908,-100,4,2,0,5,0,0

[HitObjects]
208,32,8814,2,0,B|112:48|64:192|136:256,1,260
304,320,11334,2,0,B|400:304|448:160|376:96,1,260
256,192,13854,1,0
256,192,15114,1,0
256,192,16374,12,0,18893
67,49,21445,6,0,B|111:107|61:177,1,130,0|2
182,167,22712,2,0,B|164:308,1,130,0|2
67,290,23979,6,0,B|21:227|65:169,1,130,0|2
63,52,25247,2,0,B|121:32|133:66|200:36,1,130,0|2
306,54,26514,6,0,B|395:66|428:134|423:216|371:276,1,260
279,208,28416,2,0,B|236:260|246:336,1,130,2|0
153,257,29683,6,0,B|116:227|123:148|188:135,2,130,2|0|2
204,204,31268,1,0
239,136,31584,5,0
354,115,32218,2,0,B|420:152|406:236,1,130,2|0
301,273,33486,2,0,B|234:241|242:166,1,130,2|0
260,51,34753,6,0,B|117:63,2,130,2|0|2
371,87,36654,6,0,B|413:138|408:215|350:284|278:277,1,260
285,160,38556,1,2
199,79,39189,6,0,B|98:136|180:236|65:297,1,260
179,339,41091,2,2,B|329:314,1,130
344,238,42200,5,8
293,208,42517,2,0,B|260:161|270:104,1,97.5,8|2
194,68,43467,2,8,B|121:124,1,65
112,193,44259,5,2
190,233,44735,1,8
269,195,45210,2,0,B|306:180|352:207,1,65,0|2
400,141,46002,1,8
368,59,46478,1,0
321,94,46794,6,0,B|308:136|230:170|167:153|128:115,1,195,2|0
96,108,48062,2,0,B|99:310,1,195,0|0
155,287,49329,6,0,B|230:240|267:308|346:244,1,195,2|0
394,270,50597,2,0,B|403:125,1,130,0|12
306,79,51864,5,2
222,104,52340,1,8
153,159,52815,2,0,B|132:186|128:231,1,65,0|2
217,223,53607,1,8
281,282,54082,2,0,B|302:255|306:210,1,65,0|2
250,153,54875,6,0,B|293:39,1,97.5,8|0
341,48,55667,2,0,B|364:98|437:110,1,97.5,2|8
354,168,56617,1,0
304,136,56934,6,0,B|184:136,2,97.5,2|8|0
312,192,58202,2,0,B|285:231|219:231|195:189,1,130,2|8
217,79,59469,6,0,B|174:130|96:131,1,130,2|8
295,79,60737,2,2,B|338:130|416:131,1,130,8|8
301,175,62004,5,2
213,176,62480,1,8
255,252,62955,2,0,B|255:340,1,65,0|2
172,283,63747,2,0,B|135:242|138:188,1,97.5,8|0
156,138,64539,6,0,B|43:123,2,97.5,2|8|0
206,107,65807,2,0,B|235:72|305:77|324:120,1,130,2|8
416,48,67074,6,0,B|455:138|455:138|430:245,1,195,2|0
383,216,68342,2,0,B|358:320,2,97.5,2|8|0
336,176,69609,5,2
256,96,70085,1,8
176,176,70560,1,0
200,248,70877,2,0,B|219:288|288:288|312:248,1,130,2|8
374,152,72144,5,2
205,103,73095,2,0,B|174:59|108:56|70:85,1,130,8|2
135,139,74046,2,0,B|147:176|124:236|66:257,1,130
168,274,75155,5,2
247,236,75630,1,8
305,243,75947,2,0,B|379:238|425:301,1,130
374,232,77214,5,2
205,281,78482,2,0,B|174:325|108:328|70:299,1,130,8|0
135,245,79432,2,0,B|147:208|124:148|66:127,1,130,2|0
82,76,80383,5,8
198,88,81017,2,0,B|276:46|317:124|398:60,1,195,2|8
384,192,82601,2,0,B|365:257|281:281|217:262|201:251,1,195
279,152,84185,1,0
190,74,84819,6,0,B|140:106|83:76,2,97.5
248,67,86087,1,0
348,107,86720,1,2
405,209,87354,6,0,B|452:234|453:305|388:328,1,130,0|8
356,293,88305,2,0,B|295:270|288:302|218:273,1,130,2|0
200,225,89255,1,8
256,192,89889,12,0,92424
