osu file format v9

[General]
AudioFilename: C418 - Droopy Likes Ricochet (AUDIO).mp3
AudioLeadIn: 0
PreviewTime: 41391
Countdown: 0
SampleSet: Soft
StackLeniency: 0.7
Mode: 0
LetterboxInBreaks: 1

[Editor]
Bookmarks: 8814,18952,21486,31623,41549,51898,62035,72172,82310,92447
DistanceSpacing: 1.3
BeatDivisor: 4
GridSize: 8

[Metadata]
Title:Droopy likes ricochet
Artist:C418
Creator:Hyguys
Version:Insane
Source:Minecraft
Tags:Daniel Rosenfeld Volume Alpha OST ambient electronica

[Difficulty]
HPDrainRate:7
CircleSize:4
OverallDifficulty:7
ApproachRate:8
SliderMultiplier:2.4
SliderTickRate:1

[Events]
//Background and Video events
Video,8814,"C418 - Droopy Likes Ricochet (VIDEO).AVI"
0,0,"MinecraftWallpaper01 (1).jpg"
//Break Periods
2,19093,20695
//Storyboard Layer 0 (Background)
//Storyboard Layer 1 (Fail)
//Storyboard Layer 2 (Pass)
//Storyboard Layer 3 (Foreground)
//Storyboard Sound Samples
//Background Colour Transformations
3,100,163,162,255

[TimingPoints]
8815,629.92125984252,4,2,0,10,1,0
19110,-100,4,2,0,20,0,0
21445,633.7470293108,4,2,0,10,1,0
21445,-117.647058823529,4,2,0,10,0,0
31623,-105.263157894737,4,2,0,50,0,0
41655,-100,4,1,0,15,0,0
51581,-100,4,1,0,15,0,0
51898,-100,4,1,0,15,0,0
61718,-100,4,1,0,15,0,0
62035,-100,4,1,0,15,0,0
72122,-100,4,2,0,40,0,0
82607,-100,4,2,0,30,0,0
82925,-100,4,2,0,25,0,0
83242,-100,4,2,0,20,0,0
83559,-100,4,2,0,15,0,0
83877,-100,4,2,0,10,0,0
84194,-100,4,2,0,5,0,0
84829,-100,4,2,0,40,0,0
85147,-100,4,2,0,30,0,0
85464,-100,4,2,0,25,0,0
85782,-100,4,2,0,20,0,0
86099,-100,4,2,0,15,0,0
86416,-100,4,2,0,10,0,0
86734,-100,4,2,0,5,0,0
87369,-100,4,2,0,15,0,0
88321,-100,4,2,0,10,0,0
88956,-100,4,2,0,6,0,0
89908,-100,4,2,0,5,0,0

[HitObjects]
42,192,8814,2,0,B|138:288|258:320|402:288|482:184,1,480
472,188,11334,2,0,B|374:93|253:63|110:98|32:203,1,480
64,56,13854,2,0,B|312:120|200:258|467:343,1,480
256,192,16374,12,0,18893
74,69,21445,5,0
128,24,21761,2,0,B|151:46|152:101|122:120,1,101.999995744229,2|8
168,176,22395,2,0,B|216:192|216:192|273:177,1,101.999995744229,2|0
249,108,23029,2,0,B|308:95|346:154,2,101.999995744229,2|8|2
270,174,23979,6,0,B|240:274,1,101.999995744229,0|2
172,249,24613,2,0,B|151:267|105:273|69:250,1,101.999995744229,8|2
113,190,25247,2,0,B|60:160|8:203,1,101.999995744229,0|2
113,190,25881,2,0,B|143:143|217:123,1,101.999995744229,8|2
175,229,26514,6,0,B|208:181|332:179|381:246,1,203.999991488457,0|8
428,199,27465,2,0,B|407:85,1,101.999995744229,2|0
341,122,28099,2,0,B|281:30,1,101.999995744229,2|8
239,92,28733,2,0,B|124:29,1,101.999995744229,2|0
116,106,29366,6,0,B|214:160,1,101.999995744229,2|8
155,243,30000,2,0,B|215:139,1,101.999995744229,2|8
299,200,30634,2,0,B|199:151,1,101.999995744229,0|8
255,65,31268,2,0,B|205:165,1,101.999995744229,10|0
141,114,31901,6,0,B|108:89|53:94|33:131,1,113.999995923042,2|8
93,180,32535,2,0,B|182:264,1,113.999995923042,2|0
222,193,33169,2,0,B|364:231,1,113.999995923042,2|8
385,162,33803,1,2
346,92,34119,6,0,B|282:67|288:96|207:61,1,113.999995923042,0|2
175,18,34753,2,0,B|136:53|150:117|186:145,1,113.999995923042,8|2
92,154,35387,2,0,B|141:259,2,113.999995923042,0|2|8
167,126,36338,1,2
109,70,36654,6,0,B|154:26|238:40|267:116|231:175,1,227.999991846085,0|8
314,179,37605,2,0,B|288:211|295:262|339:286,1,113.999995923042,2|0
384,222,38239,2,0,B|421:245|424:301|390:345,2,113.999995923042,2|8|2
256,192,39189,12,4,41091
77,45,41724,6,2,B|113:72|105:138|60:154,1,120,2|0
137,190,42200,2,0,B|111:208|107:240,1,60,8|0
181,256,42517,2,0,B|198:325,2,60,8|0|0
435,45,42992,6,2,B|399:72|407:138|452:154,1,120,2|0
375,190,43467,2,0,B|401:208|405:240,1,60,8|0
331,256,43784,2,0,B|314:325,2,60,8|0|0
256,216,44259,6,2,B|234:147|278:169|247:62,1,120,2|0
182,107,44735,2,0,B|149:97|139:65,1,60,8|0
330,107,45052,2,0,B|360:93|373:65,2,60,8|0|0
256,168,45527,6,2,B|278:237|234:215|265:322,1,120,2|0
330,277,46002,2,0,B|363:287|373:319,1,60,8|0
182,277,46319,2,0,B|152:291|139:319,2,60,8|0|0
257,215,46794,6,2,B|210:213|181:139|219:103,1,120,2|2
153,68,47270,2,0,B|82:58|98:88|19:83,1,120,8|8
53,157,47745,1,0
256,169,48062,6,2,B|305:163|338:226|294:281,1,120,2|2
359,316,48537,2,0,B|430:326|414:296|493:301,1,120,8|8
459,227,49012,1,0
389,69,49329,1,4
256,192,49488,12,0,51231
101,52,51864,6,2,B|145:52|180:127|133:178,1,120,2|0
83,121,52340,2,0,B|51:188|106:172|47:270,1,120,8|8
139,262,52815,2,0,B|124:295|144:337,2,60,0|0|2
254,228,53449,1,0
313,175,53607,2,0,B|285:140|221:140|194:180,1,120,8|8
152,107,54082,2,0,B|116:91|108:45,1,60
66,148,54399,6,0,B|108:172|104:245|47:263,1,120,2|0
109,322,54875,2,0,B|172:305|160:345|252:316,1,120,8|8
307,317,55350,2,0,B|306:283|273:256,1,60
374,270,55667,6,0,B|402:143,1,120,2|0
319,88,56142,2,0,B|302:116|319:146,1,60,8|0
231,194,56459,2,0,B|248:166|231:136,2,60,8|0|0
156,164,56934,5,2
299,252,57251,1,2
353,315,57410,2,0,B|381:298|384:262,2,60,0|8|0
258,324,57885,2,0,B|225:298|159:299|123:346,1,120,0|2
89,172,58519,1,2
144,110,58677,1,8
236,12,58994,1,8
306,57,59152,2,0,B|369:40|360:80|433:56,1,120,0|2
423,212,59786,5,2
368,274,59945,1,8
276,372,60262,1,8
206,327,60420,2,0,B|143:344|152:304|79:328,1,120,0|2
97,121,61054,5,2
146,193,61212,2,0,B|187:172|243:224|208:280,1,120,8|8
366,193,61687,2,0,B|325:172|269:224|304:280,1,120,8|6
256,72,62321,5,0
256,72,62480,2,0,B|185:45|206:83|112:52,1,120,8|8
256,72,62955,2,0,B|327:45|306:83|400:52,1,120,0|2
299,156,63589,1,0
299,156,63747,2,0,B|276:190|278:244|327:284|383:270,1,180,8|0
256,336,64539,5,2
213,156,64856,1,0
213,156,65015,2,0,B|236:190|234:244|185:284|129:270,1,180,8|0
86,159,65807,2,0,B|96:96|96:96|60:39,1,120,2|0
152,42,66282,2,0,B|236:1|236:80|334:23,1,180,8|0
398,117,67074,6,2,B|351:115|308:162|322:207,1,120,2|2
386,256,67550,2,0,B|430:257|469:217|462:182,1,120,8|8
479,108,68025,1,0
114,267,68342,6,2,B|161:269|204:222|190:177,1,120,2|2
126,128,68817,2,0,B|81:126|44:164|49:201,1,120,8|8
33,276,69292,1,0
256,336,69609,5,4
256,192,69768,12,0,71511
36,35,72144,5,2
396,43,73095,2,0,B|469:79|480:205|388:260,1,240,8|0
344,144,74046,2,0,B|80:176,1,240
256,192,74838,12,0,76580
476,349,77214,5,2
116,341,78482,2,0,B|43:305|32:179|124:124,1,240,2|0
168,240,79432,2,0,B|432:208,1,240,8|0
432,96,80383,1,8
432,96,80541,1,0
432,96,80700,1,0
312,61,81017,6,0,B|245:43|256:76|192:61,1,120,2|0
77,24,81650,2,0,B|60:152,1,120,8|2
256,64,82284,5,0
128,192,82601,1,2
256,320,82918,1,8
384,192,83235,1,2
289,68,83552,5,0
132,158,83869,1,2
222,315,84186,1,8
379,225,84503,1,2
319,81,84819,5,0
145,128,85136,1,2
192,302,85453,1,8
366,255,85770,1,2
346,101,86087,5,0
165,101,86404,1,2
165,282,86721,1,2
346,282,87038,1,2
416,232,87354,6,0,B|432:176|360:136|360:136|296:104|288:32,1,240,0|8
208,64,88305,2,0,B|240:128|240:128|208:216,1,120
152,136,88780,1,0
96,192,88938,1,2
160,232,89096,1,0
104,288,89255,1,2
256,320,89572,1,2
256,192,89889,12,0,92424
