osu file format v9

[General]
AudioFilename: C418 - Droopy Likes Ricochet (AUDIO).mp3
AudioLeadIn: 0
PreviewTime: 41391
Countdown: 1
SampleSet: Soft
StackLeniency: 0.7
Mode: 0
LetterboxInBreaks: 1

[Editor]
Bookmarks: 8814,18952,21486,31623,41549,51898,62035,72172,82310,92447
DistanceSpacing: 1
BeatDivisor: 4
GridSize: 8

[Metadata]
Title:Droopy likes ricochet
Artist:C418
Creator:Hyguys
Version:Hard
Source:Minecraft
Tags:Daniel Rosenfeld Volume Alpha OST ambient electronica

[Difficulty]
HPDrainRate:5
CircleSize:4
OverallDifficulty:6
ApproachRate:6
SliderMultiplier:1.8
SliderTickRate:1

[Events]
//Background and Video events
Video,8814,"C418 - Droopy Likes Ricochet (VIDEO).AVI"
0,0,"MinecraftWallpaper01 (1).jpg"
//Break Periods
2,19093,20395
//Storyboard Layer 0 (Background)
//Storyboard Layer 1 (Fail)
//Storyboard Layer 2 (Pass)
//Storyboard Layer 3 (Foreground)
//Storyboard Sound Samples
//Background Colour Transformations
3,100,163,162,255

[TimingPoints]
8815,629.92125984252,4,2,0,10,1,0
19110,-100,4,2,0,20,0,0
21445,633.7470293108,4,2,0,10,1,0
31623,-100,4,2,0,50,0,0
41655,-100,4,1,0,15,0,0
51581,-100,4,1,0,15,0,0
51898,-100,4,1,0,15,0,0
61718,-100,4,1,0,15,0,0
62035,-100,4,1,0,15,0,0
72122,-100,4,2,0,40,0,0
82607,-100,4,2,0,30,0,0
82925,-100,4,2,0,25,0,0
83242,-100,4,2,0,20,0,0
83559,-100,4,2,0,15,0,0
83877,-100,4,2,0,10,0,0
84194,-100,4,2,0,5,0,0
84829,-100,4,2,0,40,0,0
85147,-100,4,2,0,30,0,0
85464,-100,4,2,0,25,0,0
85782,-100,4,2,0,20,0,0
86099,-100,4,2,0,15,0,0
86416,-100,4,2,0,10,0,0
86734,-100,4,2,0,5,0,0
87369,-100,4,2,0,15,0,0
88321,-100,4,2,0,10,0,0
88956,-100,4,2,0,6,0,0
89908,-100,4,2,0,5,0,0

[HitObjects]
109,127,8814,2,0,B|131:75|190:24|299:18|381:49|416:141,1,360
403,253,11334,2,0,B|380:304|321:355|212:361|130:330|95:238,1,360
118,82,13854,2,0,B|271:123|233:280|445:293,1,360
256,192,16374,12,0,18893
79,59,21445,5,0
165,84,21761,1,2
191,170,22078,2,0,B|184:224|134:260,1,90,8|2
56,240,22712,1,0
109,166,23029,6,0,B|116:122|166:84,1,90,2|8
243,68,23663,1,2
331,83,23979,6,0,B|298:188,1,90,0|2
394,167,24613,2,0,B|357:280,1,90,8|2
368,327,25247,6,0,B|312:337|274:286,1,90,0|2
210,337,25881,1,8
195,248,26198,1,2
121,196,26514,6,0,B|204:94|300:174|378:46,1,270,0|2
440,40,27782,2,0,B|472:89|435:146,1,90,0|2
383,184,28416,1,8
448,245,28733,1,2
359,263,29049,6,0,B|307:279|257:278|196:233|159:148|181:56|251:17,1,360
140,28,30634,2,0,B|84:51,1,45,2|0
72,82,30951,2,0,B|60:139,1,45,8|0
74,169,31268,1,2
114,249,31584,5,0
189,199,31901,2,0,B|222:164|201:102,1,90,2|8
287,78,32535,1,2
295,167,32852,2,0,B|329:258,1,90,0|2
391,189,33486,1,8
419,274,33803,1,2
474,203,34119,6,0,B|488:148|454:99,1,90,0|2
389,166,34753,2,0,B|365:116|388:62,1,90,8|2
293,60,35387,2,0,B|177:47,1,90,0|2
131,104,36021,1,8
212,141,36338,1,2
138,193,36654,6,0,B|153:256|250:281|304:216,1,180,0|8
356,288,37605,2,0,B|441:209,1,90,2|0
358,162,38239,1,2
326,77,38556,2,0,B|288:36|206:55,1,90,8|2
256,192,39189,12,4,41091
98,64,41724,6,2,B|100:115|179:149,1,90,2|0
148,133,42200,2,0,B|142:283,1,135,8|0
274,312,42992,2,2,B|272:261|193:227,1,90,2|0
224,242,43467,2,0,B|230:92,1,135,8|0
263,18,44259,6,2,B|265:69|344:103,1,90,2|0
313,88,44735,2,0,B|306:237,1,135,8|0
445,307,45527,2,2,B|443:256|364:222,1,90,2|0
395,237,46002,2,0,B|401:109,1,90,8|8
395,102,46478,1,0
314,64,46794,5,2
224,58,47111,2,0,B|157:77,1,45,2|0
151,105,47428,2,0,B|114:155,1,45,8|0
116,185,47745,1,4
198,320,48062,5,2
288,326,48379,2,0,B|355:307,1,45,2|0
361,279,48696,2,0,B|398:229,1,45,8|0
396,199,49012,1,4
256,192,49329,12,4,51231
169,49,51864,6,2,B|144:98|181:132|153:190,1,135,2|8
75,142,52657,2,0,B|46:212|92:287,1,135,8|2
213,312,53607,1,8
279,251,53924,1,8
278,252,54399,6,2,B|290:176|220:114,1,135,2|8
312,80,55192,2,0,B|360:45,1,45,8|0
399,127,55667,2,2,B|357:164|381:237|463:236,1,135,2|8
371,301,56459,1,8
371,301,56617,2,0,B|321:324|267:296,1,90,0|2
320,221,57251,6,0,B|261:212,2,45,2|0|8
367,144,57885,2,0,B|432:159,2,45,0|0|2
276,139,58519,1,2
276,139,58677,2,8,B|224:156|165:122,1,90
147,114,59152,2,0,B|136:223,1,90,0|2
216,247,59786,6,0,B|210:296,1,45,2|8
300,283,60262,2,0,B|296:337,1,45,8|0
386,323,60737,1,2
416,238,61054,1,2
416,238,61212,2,8,B|392:196|412:138,1,90
369,127,61687,1,0
290,83,62004,5,2
200,96,62321,1,0
200,96,62480,2,0,B|136:135|63:96,1,135,8|0
58,189,63272,2,0,B|77:241|48:307,1,90,2|0
77,318,63747,2,8,B|217:321,1,135,8|0
270,252,64539,5,2
345,203,64856,1,0
382,178,65015,1,8
318,114,65331,1,0
285,82,65490,1,0
195,83,65807,2,0,B|148:116|141:183,1,90,2|0
180,185,66282,2,0,B|36:209,1,135,8|0
88,286,67074,5,2
176,269,67391,1,2
176,269,67550,2,0,B|219:292|287:264,1,90,8|8
291,307,68025,1,0
247,228,68342,1,2
302,157,68659,2,2,B|264:115,1,45,2|8
336,60,69134,2,0,B|378:102,1,45,8|0
256,192,69609,12,4,71511
40,39,72144,5,2
183,267,73095,2,0,B|202:211|311:211|335:268,1,180,8|0
257,313,74046,2,0,B|257:111,1,180
256,192,74838,12,0,76580
472,345,77214,5,2
329,117,78482,2,0,B|310:173|201:173|177:116,1,180,8|0
255,71,79432,2,0,B|255:273,1,180,2|0
168,276,80383,1,8
112,104,81017,6,0,B|122:58|95:19,1,90,2|0
22,72,81650,2,0,B|12:126|47:168,1,90,8|2
121,193,82284,5,0
186,254,82601,1,0
186,254,82918,2,0,B|224:227|278:244,1,90
276,152,83552,1,0
276,152,83869,1,0
276,152,84185,1,0
391,191,84819,5,0
326,130,85136,1,0
326,130,85453,2,0,B|288:157|234:140,1,90
236,232,86087,1,0
236,232,86404,1,0
236,232,86720,1,2
330,78,87354,6,0,B|311:134|202:134|178:77,1,180,0|0
94,53,88305,2,0,B|125:160|75:254,1,180
162,278,89255,1,0
256,192,89889,12,0,92424
