osu file format v9

[General]
AudioFilename: C418 - Droopy Likes Ricochet (AUDIO).mp3
AudioLeadIn: 0
PreviewTime: -1
Countdown: 0
SampleSet: Normal
StackLeniency: 0.7
Mode: 0
LetterboxInBreaks: 0

[Editor]
DistanceSpacing: 1.4
BeatDivisor: 1
GridSize: 4

[Metadata]
Title:Droopy Likes Ricochet
Artist:C418
Creator:KeonJohnFarley
Version:Experienced
Source:Minecraft.net
Tags:minecraft lava charcter player tress axe land building buy download

[Difficulty]
HPDrainRate:5
CircleSize:4
OverallDifficulty:5
ApproachRate:9
SliderMultiplier:1.6
SliderTickRate:1

[Events]
//Background and Video events
0,0,"MinecraftWallpaper01 (1).jpg"
Video,10000,"C418 - Droopy Likes Ricochet (VIDEO) - Copy.AVI"
//Break Periods
2,6840,20803
//Storyboard Layer 0 (Background)
//Storyboard Layer 1 (Fail)
//Storyboard Layer 2 (Pass)
//Storyboard Layer 3 (Foreground)
//Storyboard Sound Samples
//Background Colour Transformations
3,100,163,162,255

[TimingPoints]
450,634.920634920635,4,1,0,5,1,0
21403,317.460317460317,4,1,0,5,1,0
31561,-100,4,1,0,25,0,0
41879,-100,4,1,0,25,0,1
51799,-100,4,1,0,25,0,0
51879,-100,4,1,0,25,0,1
57395,317.460317460317,4,1,0,25,1,1
61918,-100,4,1,0,25,0,0
61998,317.460317460317,4,1,0,25,1,1
72156,-100,4,1,0,25,0,0
84061,-50,4,1,0,25,0,0
87394,-100,4,1,0,25,0,0
91521,-100,4,1,0,25,0,1
91839,-100,4,1,0,25,0,0

[Colours]
Combo1 : 95,209,72
Combo2 : 149,193,116
Combo3 : 103,88,53
Combo4 : 216,210,174

[HitObjects]
420,52,1719,6,0,B|356:0|292:64,1,120
216,52,2513,2,0,B|170:100|106:48,2,120
164,132,3783,2,0,B|164:244,1,80
212,220,4259,2,0,B|280:284|360:240,1,160
268,128,5291,1,0
176,96,5450,1,0
236,40,5688,1,0
148,316,6640,1,0
256,196,21403,5,0
108,76,21720,1,0
104,268,22037,1,0
204,104,22355,1,0
256,288,22672,1,0
308,104,22990,1,0
408,268,23308,1,0
404,76,23625,1,0
256,196,23942,1,0
112,124,24260,6,0,B|56:192|104:276,1,160
248,344,24895,2,0,B|304:276|256:192,1,160
408,272,25529,2,0,B|361:191|417:123,1,160
256,108,26164,1,0
112,40,26482,1,0
144,196,26799,1,0
112,344,27117,1,0
256,276,27435,1,0
400,344,27752,1,0
368,196,28070,1,0
256,132,28387,5,0
172,36,28704,2,0,B|92:96|92:96|144:160,1,160
248,192,29339,1,0
129,241,29656,2,0,B|92:288|92:288|172:348,1,160
256,252,30291,2,0,B|428:252,1,160
304,188,30926,1,0
416,132,31244,2,0,B|256:132,1,160
76,64,31879,6,0,B|24:152|124:212,1,160
256,80,32514,1,0
164,108,32672,1,0
200,196,32831,2,0,B|264:256|356:192,1,160
156,164,33466,1,0
344,192,33783,1,0
200,64,34101,1,0
256,248,34418,2,0,B|256:80,1,160
68,132,35053,1,0
140,192,35212,1,0
68,252,35371,1,0
256,292,35688,6,0,B|348:260|392:160,1,160
184,192,36323,2,0,B|344:192,1,160
256,92,36958,2,0,B|348:124|375:192,1,160
280,192,37434,2,0,B|256:236|256:288,2,80
376,192,37910,1,0
476,28,38228,1,0
460,220,38545,1,0
356,60,38863,1,0
256,224,39180,1,0
156,60,39498,5,0
52,220,39816,1,0
36,28,40133,1,0
136,192,40451,1,0
260,340,40768,2,0,B|348:284|316:176,1,160
256,24,41402,2,0,B|256:188,1,160
308,108,41879,2,0,B|364:144|328:208,1,80
268,240,42196,1,0
364,232,42355,1,0
324,320,42514,1,0
400,300,42672,5,0
400,300,42831,1,0
460,224,42990,6,0,B|364:192|368:192,1,80
456,132,43307,1,0
364,104,43466,1,0
284,160,43625,1,0
256,68,43783,1,0
228,160,43942,1,0
148,104,44101,1,0
56,132,44260,1,0
136,192,44418,6,0,B|140:276,1,80
212,208,44736,2,0,B|236:272|272:280,1,80
300,176,45053,2,0,B|276:112|240:104,1,80
376,192,45371,2,0,B|372:276,1,80
456,224,45688,1,0
424,132,45847,1,0
336,92,46006,1,0
256,144,46164,1,0
176,92,46323,1,0
88,132,46482,1,0
56,224,46641,1,0
164,192,46799,6,0,B|208:256|260:220,1,80
256,344,47117,1,0
280,232,47276,1,0
384,192,47434,1,0
280,152,47593,1,0
256,40,47752,1,0
228,151,47912,2,0,B|208:128|164:192,1,80
136,64,48228,5,0
48,132,48387,1,0
156,112,48545,1,0
48,80,48704,1,0
132,156,48863,1,0
88,52,49022,1,0
84,164,49180,1,0
192,192,49339,1,0
84,220,49498,5,0
88,332,49656,1,0
132,228,49815,1,0
48,304,49974,1,0
156,272,50133,1,0
48,252,50291,1,0
136,320,50450,1,0
224,252,50609,2,0,B|260:168,1,80
272,276,50926,2,0,B|312:180,1,80
312,316,51244,2,0,B|356:208,1,80
256,172,51561,1,0
256,60,51720,1,0
176,116,51879,6,0,B|92:116,1,80
176,64,52196,2,0,B|224:64|224:116,1,80
320,120,52514,2,0,B|368:120|368:68,1,80
384,164,52831,2,0,B|384:268,1,80
288,244,53149,2,0,B|336:244|336:192,1,80
320,288,53466,6,0,B|400:288,1,80
320,340,53783,2,0,B|272:340|272:288,1,80
176,284,54101,2,0,B|128:284|128:336,1,80
112,240,54418,2,0,B|112:160,1,80
204,192,54736,1,0
160,108,54895,1,0
64,104,55053,1,0
144,52,55212,1,0
228,104,55371,1,0
256,196,55529,1,0
284,280,55688,5,0
368,332,55847,1,0
448,280,56006,1,0
352,276,56164,1,0
308,192,56323,1,0
404,204,56482,2,0,B|384:156|356:132,1,80
288,72,56799,2,0,B|392:72,1,80
272,16,57117,2,0,B|184:16,1,80
228,124,57395,1,0
120,152,57554,1,0
224,192,57713,1,0
120,232,57871,1,0
228,260,58030,1,0
320,196,58189,6,0,B|320:104,1,80
420,64,58506,2,0,B|420:168,1,80
360,48,58824,1,0
372,160,58983,1,0
480,192,59141,2,0,B|392:192,1,80
372,224,59459,5,0
360,336,59618,1,0
420,240,59778,2,0,B|420:320,1,80
320,268,60095,2,0,B|320:188,1,80
424,152,60410,2,0,B|344:108,1,80
236,112,60728,1,0
136,164,60887,1,0
136,52,61045,1,0
32,96,61204,1,0
88,192,61363,2,0,B|136:236|184:192,1,80
220,304,61680,1,0
256,192,61839,1,0
308,276,61998,6,0,B|364:240|328:176,1,80
268,144,62315,1,0
364,152,62474,1,0
324,64,62633,1,0
400,84,62791,5,0
400,84,62950,1,0
460,160,63109,6,0,B|364:192|368:192,1,80
456,252,63426,1,0
364,280,63585,1,0
284,224,63744,1,0
256,316,63902,1,0
228,224,64061,1,0
148,280,64220,1,0
56,252,64379,1,0
136,192,64537,6,0,B|140:108,1,80
212,176,64855,2,0,B|236:112|272:104,1,80
300,208,65172,2,0,B|276:272|240:280,1,80
376,192,65490,2,0,B|372:108,1,80
456,160,65807,1,0
424,252,65966,1,0
336,292,66125,1,0
256,240,66283,1,0
176,292,66442,1,0
88,252,66601,1,0
56,160,66760,1,0
164,192,66918,6,0,B|208:128|260:164,1,80
256,40,67236,1,0
280,152,67395,1,0
384,192,67553,1,0
280,232,67712,1,0
256,344,67871,1,0
228,232,68031,2,0,B|208:256|164:192,1,80
136,320,68347,5,0
48,252,68506,1,0
156,272,68664,1,0
48,304,68823,1,0
132,228,68982,1,0
88,332,69141,1,0
84,220,69299,1,0
192,192,69458,1,0
84,164,69617,5,0
88,52,69775,1,0
132,156,69934,1,0
48,80,70093,1,0
156,112,70252,1,0
48,132,70410,1,0
136,64,70569,1,0
224,132,70728,2,0,B|260:216,1,80
272,108,71045,2,0,B|312:204,1,80
312,68,71363,2,0,B|356:176,1,80
256,212,71680,1,0
256,324,71839,1,0
176,268,71998,6,0,B|92:268,1,80
176,320,72315,2,0,B|224:320|224:268,1,80
320,264,72633,2,0,B|368:264|368:316,1,80
384,220,72950,2,0,B|384:116,1,80
288,140,73268,2,0,B|336:140|336:192,1,80
320,96,73585,6,0,B|400:96,1,80
320,44,73902,2,0,B|272:44|272:96,1,80
176,100,74220,2,0,B|128:100|128:48,1,80
112,144,74537,2,0,B|112:224,1,80
204,192,74855,1,0
160,276,75014,1,0
64,280,75172,1,0
144,332,75331,1,0
228,280,75490,1,0
256,188,75648,1,0
284,104,75807,5,0
368,52,75966,1,0
448,104,76125,1,0
352,108,76283,1,0
308,192,76442,1,0
404,180,76601,2,0,B|384:228|356:252,1,80
288,312,76918,2,0,B|392:312,1,80
192,368,77236,1,0
40,96,78505,1,0
96,240,79458,1,0
32,160,80410,2,0,B|128:160|160:128|160:32,1,160
64,96,81045,2,0,B|64:32|0:0|160:0,1,160
192,96,81680,1,0
224,64,81839,1,0
256,96,81997,1,0
192,224,82315,1,0
320,256,82632,2,0,B|320:224|352:192|384:192|416:224,1,80
384,256,82950,2,0,B|384:288|416:320|480:320,1,80
448,256,83267,2,0,B|448:224|480:192|544:192,1,80
384,128,83744,1,0
320,128,83902,1,0
288,128,84061,2,0,B|288:64|448:64|416:192,1,160
352,224,84537,1,0
256,192,84855,2,0,B|256:320|224:352|32:352,1,320
32,288,85490,2,0,B|32:160|64:128|256:128,1,320
256,192,86124,2,0,B|256:320|288:352|480:352,1,320
480,288,86759,2,0,B|480:160|448:128|256:128,1,320
32,128,87394,2,0,B|32:96|64:64|96:64|128:64,1,80
96,128,87712,2,0,B|96:160|128:192|192:192,1,80
160,128,88029,2,0,B|160:96|192:64|256:64,1,80
224,128,88347,2,0,B|224:160|256:192|320:192,1,80
288,128,88664,1,0
416,128,88823,1,0
352,64,88982,1,0
352,192,89140,1,0
160,224,89299,2,0,B|96:224|128:320,1,80
192,288,89617,2,0,B|192:352|224:384|256:352,1,80
96,80,89934,1,0
96,96,90040,1,0
96,112,90146,1,0
96,128,90251,1,0
112,144,90357,1,0
128,144,90463,1,0
144,144,90569,1,0
160,144,90675,1,0
176,128,90781,1,0
176,112,90886,1,0
176,96,90992,1,0
192,80,91098,1,0
208,80,91204,1,0
224,80,91310,1,0
240,80,91415,1,0
256,96,91521,1,0
256,112,91627,1,0
256,128,91733,1,0
272,144,91839,1,0
