osu file format v14

[General]
AudioFilename: 0x10c_C418.mp3
AudioLeadIn: 0
PreviewTime: 51064
Countdown: 0
SampleSet: Normal
StackLeniency: 0.7
Mode: 2
LetterboxInBreaks: 1
WidescreenStoryboard: 1

[Editor]
Bookmarks: 2554,9575,19947,39575,60001,71488
DistanceSpacing: 1.2
BeatDivisor: 4
GridSize: 4
TimelineZoom: 1.3

[Metadata]
Title:0x10c
TitleUnicode:0x10c
Artist:C418
ArtistUnicode:C418
Creator:sxy62146214
Version:Salad
Source:0x10c
Tags:C418 Sadness resem last game Notch black Mojang sxy62146214 cyxw SkeletonXB MEGAtive
BeatmapID:1028116
BeatmapSetID:480034

[Difficulty]
HPDrainRate:5
CircleSize:4
OverallDifficulty:7
ApproachRate:7
SliderMultiplier:1.6
SliderTickRate:2

[Events]
//Background and Video events
0,0,"BG.png",0,0
//Break Periods
//Storyboard Layer 0 (Background)
//Storyboard Layer 1 (Fail)
//Storyboard Layer 2 (Pass)
//Storyboard Layer 3 (Foreground)
//Storyboard Sound Samples

[TimingPoints]
1,638.297872340426,4,1,0,10,1,0
2554,-100,4,1,0,20,0,0
5107,-100,4,1,0,30,0,0
7660,-100,4,1,0,40,0,0
39575,-100,4,1,0,45,0,0
51065,-100,4,1,0,50,0,0
61277,-95.2380952380952,4,1,0,55,0,0
71490,-90.9090909090909,4,1,0,60,0,1
80426,-100,4,1,0,40,0,0
81703,-76.9230769230769,4,1,0,65,0,1
91916,-76.9230769230769,4,1,0,60,0,1
97022,-76.9230769230769,4,1,0,50,0,1
97660,-76.9230769230769,4,1,0,45,0,1
98298,-76.9230769230769,4,1,0,40,0,1
98937,-76.9230769230769,4,1,0,35,0,1
99575,-83.3333333333333,4,1,0,30,0,1
100213,-83.3333333333333,4,1,0,25,0,1
100852,-83.3333333333333,4,1,0,20,0,1
101490,-83.3333333333333,4,1,0,15,0,1
102128,-133.333333333333,4,1,0,10,0,0

[Colours]
Combo1 : 255,255,255
Combo2 : 31,31,31
Combo3 : 63,63,63
Combo4 : 95,95,95
Combo5 : 127,127,127
Combo6 : 159,159,159
Combo7 : 191,191,191
Combo8 : 223,223,223

[HitObjects]
256,192,5107,12,0,10213,0:0:0:0:
72,280,10532,5,0,0:0:0:0:
148,256,10692,1,0,0:0:0:0:
184,180,10852,1,0,0:0:0:0:
400,64,11171,2,0,P|348:84|348:128,1,80,0|8,0:0|0:0,0:0:0:0:
168,68,11809,2,0,P|220:96|220:128,1,80
400,64,12447,1,0,0:0:0:0:
164,120,12766,6,0,L|72:120,2,80,2|0|0,0:0|0:0|0:0,0:0:0:0:
392,120,13724,1,8,0:0:0:0:
220,52,14043,1,0,0:0:0:0:
144,76,14203,1,0,0:0:0:0:
108,152,14363,1,0,0:0:0:0:
344,192,14681,2,0,L|436:192,1,80,0|8,0:0|0:0,0:0:0:0:
156,148,15320,6,0,B|204:148|204:148|244:116,2,80
284,152,16277,1,0,0:0:0:0:
160,152,16596,2,0,L|120:104,1,40
256,192,16915,1,8,0:0:0:0:
352,232,17075,2,0,L|392:280,1,40
256,192,17554,1,8,0:0:0:0:
68,192,17873,2,0,B|24:192|24:192|256:192|256:192|196:192,1,320
328,112,19469,5,0,0:0:0:0:
392,112,19628,1,0,0:0:0:0:
456,112,19788,1,8,0:0:0:0:
48,60,20426,6,0,L|144:60,1,80,2|0,0:0|0:0,0:0:0:0:
320,60,21065,1,0,0:0:0:0:
276,60,21224,1,0,0:0:0:0:
192,60,21383,1,2,0:0:0:0:
392,48,21703,2,0,B|428:68|428:68|428:128,1,80
300,112,22181,1,2,0:0:0:0:
208,160,22341,2,0,B|172:180|172:180|172:240,1,80
300,160,22979,6,0,L|212:160,1,80
48,160,23618,2,0,L|136:160,1,80
416,156,24256,1,0,0:0:0:0:
340,160,24415,1,0,0:0:0:0:
268,184,24575,1,0,0:0:0:0:
204,152,24735,2,0,L|160:120,1,40,0|8,0:0|0:0,0:0:0:0:
40,40,25213,6,0,L|40:108,2,40
292,104,25852,1,0,0:0:0:0:
268,104,26011,1,0,0:0:0:0:
216,104,26171,1,8,0:0:0:0:
176,104,26490,2,0,L|132:104,1,40,0|8,0:0|0:0,0:0:0:0:
292,228,26809,6,0,L|416:228,2,120
44,264,28086,2,0,L|100:168,1,80,0|2,0:0|0:0,0:0:0:0:
388,252,28724,2,0,L|340:168,1,80,0|8,0:0|0:0,0:0:0:0:
184,76,29362,2,0,L|268:76,2,80,0|0|4,0:0|0:0|0:0,0:0:0:0:
472,272,30639,6,0,L|376:272,1,80
196,292,31277,1,0,0:0:0:0:
136,228,31437,1,0,0:0:0:0:
56,180,31596,1,2,0:0:0:0:
256,192,31915,2,0,L|340:192,1,80
136,128,32554,2,0,L|36:128,2,80,8|0|0,0:0|0:0|0:0,0:0:0:0:
408,60,33511,5,0,0:0:0:0:
456,116,33671,1,0,0:0:0:0:
392,160,33830,1,0,0:0:0:0:
208,192,34149,2,0,L|168:148,1,40
120,112,34469,1,8,0:0:0:0:
44,64,34628,2,0,L|82:18,1,40
296,44,35107,6,0,B|368:48|400:60,1,80
172,52,35745,2,0,L|80:80,1,80,2|0,0:0|0:0,0:0:0:0:
300,124,36383,1,8,0:0:0:0:
380,164,36543,1,0,0:0:0:0:
444,220,36703,1,0,0:0:0:0:
200,88,37022,2,0,P|132:96|96:128,2,80
360,148,37979,1,8,0:0:0:0:
160,208,38298,6,0,L|208:120,1,80
412,72,38937,2,0,L|304:72,1,80,0|6,0:0|0:0,0:0:0:0:
68,192,40852,6,0,L|160:192,1,80,0|8,0:0|0:0,0:0:0:0:
444,192,41490,2,0,L|352:192,1,80
164,192,42128,1,0,0:0:0:0:
100,192,42287,1,0,0:0:0:0:
164,192,42447,1,8,0:0:0:0:
348,192,42766,1,0,0:0:0:0:
412,192,42925,1,0,0:0:0:0:
348,192,43085,1,0,0:0:0:0:
144,68,43405,6,0,L|80:136,1,80,0|8,0:0|0:0,0:0:0:0:
368,316,44043,2,0,L|432:248,1,80,0|2,0:0|0:0,0:0:0:0:
188,129,44681,1,0,0:0:0:0:
103,50,44840,1,0,0:0:0:0:
188,129,45000,1,8,0:0:0:0:
323,254,45320,1,0,0:0:0:0:
408,333,45479,1,0,0:0:0:0:
323,254,45639,1,2,0:0:0:0:
92,96,45958,6,0,P|156:112|176:140,1,80
464,124,46596,1,0,0:0:0:0:
384,132,46756,1,0,0:0:0:0:
320,184,46915,1,8,0:0:0:0:
464,192,47235,2,0,L|420:192,1,40
336,168,47554,1,8,0:0:0:0:
260,128,47713,2,0,L|288:100,1,40,0|8,0:0|0:0,0:0:0:0:
112,52,48192,5,0,0:0:0:0:
32,104,48352,1,0,0:0:0:0:
84,176,48511,2,0,L|184:192,1,80,8|0,0:0|0:0,0:0:0:0:
428,176,49149,2,0,L|328:192,1,80,0|8,0:0|0:0,0:0:0:0:
164,332,49788,5,0,0:0:0:0:
104,276,49947,1,0,0:0:0:0:
124,212,50107,1,0,0:0:0:0:
188,176,50266,1,2,0:0:0:0:
264,164,50426,1,0,0:0:0:0:
328,136,50586,1,0,0:0:0:0:
368,76,50745,1,0,0:0:0:0:
324,24,50905,1,8,0:0:0:0:
168,192,51064,6,0,B|196:156|196:156|260:144,1,80
344,192,51703,2,0,B|316:228|316:228|252:240,1,80,0|2,0:0|0:0,0:0:0:0:
164,192,52341,1,0,0:0:0:0:
96,192,52500,1,0,0:0:0:0:
212,192,52660,1,8,0:0:0:0:
348,192,52979,1,0,0:0:0:0:
416,192,53138,1,0,0:0:0:0:
300,192,53298,1,0,0:0:0:0:
84,60,53618,6,0,B|124:48|124:48|180:60,1,80,0|8,0:0|0:0,0:0:0:0:
428,324,54256,2,0,B|388:336|388:336|332:324,1,80,0|6,0:0|0:0,0:0:0:0:
92,312,54894,1,0,0:0:0:0:
160,208,55054,1,0,0:0:0:0:
228,108,55213,1,8,0:0:0:0:
420,72,55532,1,0,0:0:0:0:
352,176,55692,1,0,0:0:0:0:
276,288,55851,1,0,0:0:0:0:
464,192,56171,6,0,P|420:208|388:164,1,80
256,88,56809,1,8,0:0:0:0:
48,192,57128,2,0,P|92:208|124:164,1,80
396,136,57766,2,0,L|340:120,1,40,0|8,0:0|0:0,0:0:0:0:
152,248,58086,2,0,L|208:264,1,40
256,260,58405,1,2,0:0:0:0:
360,248,58564,2,0,L|304:264,1,40
136,136,58883,2,0,L|192:136,1,40
376,136,59203,2,0,L|320:136,1,40,0|8,0:0|0:0,0:0:0:0:
96,136,59681,5,0,0:0:0:0:
148,80,59841,1,0,0:0:0:0:
228,68,60001,2,0,B|324:68|324:68|200:68|200:68|304:68,1,320,0|8,0:0|0:0,0:0:0:0:
140,192,61437,5,0,0:0:0:0:
200,248,61596,1,0,0:0:0:0:
480,260,61915,1,0,0:0:0:0:
440,192,62075,1,0,0:0:0:0:
380,136,62234,1,8,0:0:0:0:
140,104,62554,2,0,L|56:104,1,83.9999974365235,0|8,0:0|0:0,0:0:0:0:
296,104,63192,2,0,L|380:104,1,83.9999974365235
72,84,63830,5,8,0:0:0:0:
136,156,63990,1,0,0:0:0:0:
216,200,64149,1,0,0:0:0:0:
408,196,64469,1,0,0:0:0:0:
344,268,64629,1,0,0:0:0:0:
264,312,64788,1,6,0:0:0:0:
448,192,65107,2,0,L|500:104,1,83.9999974365235,0|2,0:0|0:0,0:0:0:0:
216,128,65745,2,0,L|152:216,1,83.9999974365235
344,64,66383,6,0,B|364:120|400:144|436:152|480:152,1,167.999994873047
200,132,67341,1,8,0:0:0:0:
316,204,67660,1,2,0:0:0:0:
260,152,67820,1,2,0:0:0:0:
288,88,67979,1,2,0:0:0:0:
360,92,68139,1,2,0:0:0:0:
380,164,68298,1,8,0:0:0:0:
128,192,68618,2,0,L|72:192,1,41.9999987182618
232,132,68937,6,0,L|320:132,2,83.9999974365235,0|0|8,0:0|0:0|0:0,0:0:0:0:
460,240,69894,2,0,L|416:212,1,41.9999987182618,0|8,0:0|0:0,0:0:0:0:
276,192,70213,2,0,L|172:192,1,83.9999974365235
80,120,70692,2,0,L|128:120,1,41.9999987182618
376,96,71171,2,0,L|288:96,1,83.9999974365235,0|4,0:0|0:0,0:0:0:0:
116,284,71649,6,0,L|172:272,1,44.0000013427735
396,284,72128,6,0,L|340:272,2,44.0000013427735,8|0|0,0:0|0:0|0:0,0:0:0:0:
128,144,72766,1,0,0:0:0:0:
52,84,72926,1,0,0:0:0:0:
124,24,73086,1,8,0:0:0:0:
384,240,73405,1,0,0:0:0:0:
460,300,73565,1,0,0:0:0:0:
388,360,73725,1,8,0:0:0:0:
124,176,74043,6,0,L|100:120,2,44.0000013427735,8|0|0,0:0|0:0|0:0,0:0:0:0:
300,192,74681,2,0,L|344:152,2,44.0000013427735,0|0|4,0:0|0:0|0:0,0:0:0:0:
480,40,75320,1,0,0:0:0:0:
408,136,75479,1,0,0:0:0:0:
308,200,75639,1,10,0:0:0:0:
80,88,75958,1,0,0:0:0:0:
152,184,76117,1,0,0:0:0:0:
252,248,76277,1,0,0:0:0:0:
416,136,76596,5,0,0:0:0:0:
216,128,76915,2,8,L|168:128,4,44.0000013427735,8|8|2|0|8,0:0|0:0|0:0|0:0|0:0,0:0:0:0:
412,260,77873,1,0,0:0:0:0:
340,232,78032,1,0,0:0:0:0:
272,196,78192,1,8,0:0:0:0:
192,184,78352,1,0,0:0:0:0:
112,200,78511,1,8,0:0:0:0:
460,52,79149,2,0,L|336:84,2,88.000002685547
184,112,80107,1,0,0:0:0:0:
124,64,80266,1,0,0:0:0:0:
32,40,80426,5,4,0:0:0:0:
256,192,80905,1,4,0:0:0:0:
476,348,81383,1,4,0:0:0:0:
152,288,81703,5,0,0:0:0:0:
248,248,81862,1,0,0:0:0:0:
296,148,82022,1,2,0:0:0:0:
440,288,82341,1,0,0:0:0:0:
344,248,82500,1,0,0:0:0:0:
296,148,82660,1,8,0:0:0:0:
104,116,82979,2,0,L|48:116,2,51.999997619629
328,108,83618,2,0,L|272:108,2,51.999997619629
116,64,84256,5,0,0:0:0:0:
48,144,84415,1,0,0:0:0:0:
56,256,84575,1,2,0:0:0:0:
396,320,84894,1,0,0:0:0:0:
464,240,85053,1,0,0:0:0:0:
456,128,85213,1,12,0:0:0:0:
160,80,85532,2,0,L|88:64,2,51.999997619629,0|8|0,0:0|0:0|0:0,0:0:0:0:
360,292,86171,2,8,L|288:276,2,51.999997619629,8|0|8,0:0|0:0|0:0,0:0:0:0:
40,196,86809,6,0,P|84:132|120:120,1,103.999995239258,8|0,0:0|0:0,0:0:0:0:
336,100,87447,1,2,0:0:0:0:
128,192,87766,2,0,L|104:240,1,51.999997619629
216,252,88086,1,8,0:0:0:0:
312,192,88245,2,0,L|336:240,1,51.999997619629
80,60,88724,5,4,0:0:0:0:
480,184,89362,2,0,P|460:256|416:288,2,103.999995239258
176,192,90320,2,0,L|144:148,1,51.999997619629,0|8,0:0|0:0,0:0:0:0:
312,272,90639,2,0,B|408:272|408:272|284:272|284:272|392:272,1,311.999985717774,0|4,0:0|0:0,0:0:0:0:
144,72,91915,6,0,L|256:68,1,103.999995239258,0|8,0:0|0:0,0:0:0:0:
452,244,92554,2,0,L|320:236,1,103.999995239258,0|8,0:0|0:0,0:0:0:0:
108,192,93192,2,2,L|136:140,1,51.999997619629
224,124,93511,1,0,0:0:0:0:
320,84,93671,2,8,L|280:32,1,51.999997619629
436,192,94149,1,0,0:0:0:0:
120,112,94469,6,0,L|240:188,1,103.999995239258,0|8,0:0|0:0,0:0:0:0:
452,232,95107,2,0,L|360:288,1,103.999995239258,0|8,0:0|0:0,0:0:0:0:
128,104,95745,2,2,L|92:60,1,51.999997619629
224,108,96064,1,0,0:0:0:0:
328,104,96224,2,8,L|400:168,1,51.999997619629
104,184,96703,1,0,0:0:0:0:
440,56,97022,6,2,L|232:88,1,207.999990478516
48,168,97979,1,8,0:0:0:0:
268,200,98298,2,2,L|476:232,1,207.999990478516
236,280,99256,1,8,0:0:0:0:
36,188,99575,2,2,L|196:24,1,191.999994140625
404,96,100532,1,8,0:0:0:0:
272,172,100852,2,2,L|168:376,1,191.999994140625
48,56,101809,1,8,0:0:0:0:
256,192,102128,12,2,107235,0:0:0:0:
