osu file format v14

[General]
AudioFilename: 0x10c_C418.mp3
AudioLeadIn: 0
PreviewTime: 51064
Countdown: 0
SampleSet: Soft
StackLeniency: 0.7
Mode: 2
LetterboxInBreaks: 1
WidescreenStoryboard: 1

[Editor]
Bookmarks: 2554,9575,19947,39575,60001,71488,81703
DistanceSpacing: 1.5
BeatDivisor: 8
GridSize: 4
TimelineZoom: 2.4

[Metadata]
Title:0x10c
TitleUnicode:0x10c
Artist:C418
ArtistUnicode:C418
Creator:sxy62146214
Version:Rain
Source:0x10c
Tags:C418 Sadness resem last game Notch black Mojang sxy62146214 cyxw SkeletonXB MEGAtive
BeatmapID:1089602
BeatmapSetID:480034

[Difficulty]
HPDrainRate:6.5
CircleSize:3.5
OverallDifficulty:8.5
ApproachRate:8.5
SliderMultiplier:1.8
SliderTickRate:2

[Events]
//Background and Video events
0,0,"Insane BG.png",0,0
//Break Periods
//Storyboard Layer 0 (Background)
//Storyboard Layer 1 (Fail)
//Storyboard Layer 2 (Pass)
//Storyboard Layer 3 (Foreground)
//Storyboard Sound Samples

[TimingPoints]
1,638.297872340426,4,2,0,10,1,0
2554,-90.9090909090909,4,2,0,20,0,0
5107,-90.9090909090909,4,2,0,30,0,0
7660,-90.9090909090909,4,2,0,40,0,0
10213,-80,4,2,0,40,0,0
39575,-80,4,2,0,45,0,0
51065,-80,4,2,0,50,0,0
61277,-76.9230769230769,4,2,1,55,0,0
62554,-76.9230769230769,4,2,0,55,0,0
63830,-76.9230769230769,4,2,1,55,0,0
65107,-76.9230769230769,4,2,4,55,0,0
66383,-76.9230769230769,4,2,0,55,0,0
71490,-71.4285714285714,4,2,0,60,0,1
80426,-80,4,2,0,40,0,0
81703,-66.6666666666667,4,2,0,65,0,1
82979,-66.6666666666667,4,2,1,65,0,1
84256,-66.6666666666667,4,2,0,65,0,1
85532,-66.6666666666667,4,2,0,65,0,1
91916,-66.6666666666667,4,2,0,60,0,1
97022,-66.6666666666667,4,2,0,50,0,1
97660,-66.6666666666667,4,2,0,45,0,1
98298,-66.6666666666667,4,2,0,40,0,1
98937,-66.6666666666667,4,2,0,35,0,1
99575,-66.6666666666667,4,2,0,30,0,1
100213,-66.6666666666667,4,2,0,25,0,1
100852,-66.6666666666667,4,2,0,20,0,1
101490,-66.6666666666667,4,2,0,15,0,1
102128,-100,4,2,0,10,0,0

[Colours]
Combo1 : 255,255,255
Combo2 : 31,31,31
Combo3 : 63,63,63
Combo4 : 95,95,95
Combo5 : 127,127,127
Combo6 : 159,159,159
Combo7 : 191,191,191
Combo8 : 223,223,223

[HitObjects]
256,192,1,12,0,4469,0:0:0:0:
140,276,5107,5,0,0:0:0:0:
92,248,5187,1,0,0:0:0:0:
64,192,5266,1,0,0:0:0:0:
88,136,5346,1,0,0:0:0:0:
140,108,5426,1,0,0:0:0:0:
204,108,5506,1,0,0:0:0:0:
268,128,5586,1,0,0:0:0:0:
304,184,5665,1,0,0:0:0:0:
136,232,5745,2,0,P|92:232|44:208,2,99.0000030212403
404,300,7022,5,0,0:0:0:0:
344,264,7102,1,0,0:0:0:0:
316,200,7181,1,0,0:0:0:0:
344,136,7261,1,0,0:0:0:0:
388,80,7341,1,0,0:0:0:0:
452,56,7421,1,0,0:0:0:0:
412,48,7501,1,0,0:0:0:0:
344,56,7580,1,0,0:0:0:0:
192,80,7660,2,0,L|140:92,1,49.5000015106202
64,248,7979,2,0,L|156:296,1,99.0000030212403
284,232,8937,5,0,0:0:0:0:
360,192,9016,1,0,0:0:0:0:
424,156,9096,1,0,0:0:0:0:
408,84,9176,1,0,0:0:0:0:
352,48,9256,1,0,0:0:0:0:
284,40,9336,1,0,0:0:0:0:
212,56,9415,1,0,0:0:0:0:
152,92,9495,1,0,0:0:0:0:
196,144,9575,2,0,L|396:144,1,198.000006042481,0|8,0:0|0:0,0:0:0:0:
48,192,10373,1,0,0:0:0:0:
80,192,10453,1,0,0:0:0:0:
299,192,10532,2,0,L|431:192,2,112.5,0|0|8,0:0|0:0|0:0,0:0:0:0:
124,200,11490,5,0,0:0:0:0:
68,140,11570,1,0,0:0:0:0:
264,172,11649,1,0,0:0:0:0:
312,104,11729,1,0,0:0:0:0:
56,104,11809,2,0,L|172:104,2,112.5,0|0|2,0:0|0:0|0:0,0:0:0:0:
36,44,12607,1,0,0:0:0:0:
332,56,12766,2,0,L|388:56,1,56.25,0|2,0:0|0:0,0:0:0:0:
200,56,13086,2,0,L|144:56,1,56.25,0|2,0:0|0:0,0:0:0:0:
372,112,13405,2,0,L|428:112,1,56.25,0|2,0:0|0:0,0:0:0:0:
148,108,13724,2,0,L|92:108,1,56.25,8|0,0:0|0:0,0:0:0:0:
192,108,14043,1,0,0:0:0:0:
288,144,14362,6,0,L|256:144,1,28.125
372,144,14522,1,0,0:0:0:0:
480,144,14602,2,2,L|428:144,1,28.125
328,148,14841,1,0,0:0:0:0:
216,160,15001,2,0,L|180:160,3,28.125
360,96,15320,2,0,L|424:68,1,56.25,0|2,0:0|0:0,0:0:0:0:
224,160,15640,2,0,L|160:188,1,56.25,0|8,0:0|0:0,0:0:0:0:
400,124,15958,2,0,L|469:123,1,56.25,0|2,0:0|0:0,0:0:0:0:
176,128,16278,2,0,L|106:128,1,56.25,0|8,0:0|0:0,0:0:0:0:
208,96,16596,2,0,B|364:160|364:160|208:228,1,337.5,0|4,0:0|0:0,0:0:0:0:
136,148,17873,6,2,L|100:216,1,56.25
252,184,18192,2,2,L|280:232,1,56.25
408,160,18511,2,0,L|472:172,1,56.25,2|0,0:0|0:0,0:0:0:0:
400,68,18830,1,0,0:0:0:0:
336,56,18910,1,0,0:0:0:0:
272,52,18990,1,0,0:0:0:0:
196,64,19070,1,0,0:0:0:0:
100,112,19149,2,0,L|348:112,1,225,8|0,0:0|0:0,0:0:0:0:
444,64,20107,1,0,0:0:0:0:
372,64,20187,1,0,0:0:0:0:
300,64,20266,1,0,0:0:0:0:
224,64,20346,1,0,0:0:0:0:
152,64,20426,6,0,L|16:64,1,112.5
244,64,20905,2,0,L|312:64,1,56.25
464,188,21224,2,0,L|400:188,1,56.25
256,192,21543,1,0,0:0:0:0:
176,64,21703,2,2,L|112:64,1,56.25
336,64,22022,2,8,L|400:64,1,56.25
124,124,22341,2,8,L|60:124,1,56.25
388,124,22660,2,0,L|452:124,1,56.25,2|0,0:0|0:0,0:0:0:0:
96,192,22979,2,0,L|32:192,2,56.25
224,192,23458,1,0,0:0:0:0:
344,192,23618,2,0,L|408:192,2,56.25
60,116,24655,1,0,0:0:0:0:
112,68,24735,1,0,0:0:0:0:
188,72,24814,1,0,0:0:0:0:
220,144,24894,1,0,0:0:0:0:
176,208,24974,1,0,0:0:0:0:
108,236,25054,1,0,0:0:0:0:
56,188,25133,1,0,0:0:0:0:
312,104,25213,6,0,L|448:104,2,112.5,0|0|8,0:0|0:0|0:0,0:0:0:0:
216,104,26011,1,2,0:0:0:0:
100,104,26171,1,2,0:0:0:0:
56,180,26251,1,0,0:0:0:0:
32,256,26330,1,0,0:0:0:0:
240,148,26490,1,2,0:0:0:0:
304,212,26570,1,0,0:0:0:0:
336,288,26649,1,0,0:0:0:0:
252,112,26809,2,0,L|120:112,1,112.5
352,248,27288,2,0,L|428:248,2,56.25
112,252,27766,2,0,L|48:252,1,56.25
360,172,28086,6,0,L|400:172,4,28.125,2|2|2|2|2,0:0|0:0|0:0|0:0|0:0,0:0:0:0:
196,136,28564,1,8,0:0:0:0:
64,128,28724,2,0,L|24:128,4,28.125,2|2|2|2|2,0:0|0:0|0:0|0:0|0:0,0:0:0:0:
256,192,29203,1,8,0:0:0:0:
388,104,29362,2,2,L|428:168,1,56.25
256,192,29681,1,0,0:0:0:0:
96,244,29841,2,2,L|136:308,1,56.25
352,296,30320,1,0,0:0:0:0:
412,268,30399,1,0,0:0:0:0:
464,212,30479,1,0,0:0:0:0:
484,136,30559,1,0,0:0:0:0:
196,144,30639,6,0,L|80:144,1,112.5
32,252,31118,1,0,0:0:0:0:
324,260,31277,2,0,L|392:260,1,56.25,0|2,0:0|0:0,0:0:0:0:
120,228,31596,2,0,L|52:228,1,56.25,0|8,0:0|0:0,0:0:0:0:
400,224,31915,2,0,L|468:224,1,56.25,0|8,0:0|0:0,0:0:0:0:
96,216,32235,2,0,L|24:216,2,56.25
464,220,32713,2,0,B|392:216|352:192|316:136,1,168.75
268,112,33272,5,0,0:0:0:0:
208,72,33352,1,0,0:0:0:0:
136,68,33431,1,0,0:0:0:0:
64,84,33511,1,0,0:0:0:0:
36,148,33591,1,0,0:0:0:0:
72,208,33671,1,0,0:0:0:0:
132,248,33751,1,0,0:0:0:0:
332,340,33830,1,0,0:0:0:0:
384,288,33910,1,0,0:0:0:0:
420,224,33990,1,0,0:0:0:0:
436,156,34070,1,0,0:0:0:0:
416,84,34149,1,0,0:0:0:0:
352,48,34229,1,0,0:0:0:0:
284,56,34309,1,0,0:0:0:0:
224,96,34389,2,0,B|84:96|84:96|84:212,1,253.125,0|8,0:0|0:0,0:0:0:0:
192,272,35426,1,4,0:0:0:0:
348,240,35745,6,0,L|384:176,1,56.25
200,240,36064,2,0,L|164:184,1,56.25
412,248,36383,2,0,L|488:248,1,56.25
128,244,36703,2,0,L|64:244,1,56.25
244,148,37022,2,0,L|376:148,1,112.5
220,248,37501,2,0,L|108:248,1,112.5
388,200,37979,2,0,L|452:200,1,56.25
164,240,38298,2,2,L|128:176,1,56.25
312,240,38617,2,2,L|348:184,1,56.25
100,248,38936,2,2,L|20:248,1,56.25
384,244,39256,2,0,L|448:244,1,56.25,12|0,0:0|0:0,0:0:0:0:
92,292,40213,1,0,0:0:0:0:
40,228,40293,1,0,0:0:0:0:
44,152,40373,1,0,0:0:0:0:
100,96,40453,1,0,0:0:0:0:
420,292,40532,1,0,0:0:0:0:
472,228,40612,1,0,0:0:0:0:
468,152,40692,1,0,0:0:0:0:
412,96,40772,1,0,0:0:0:0:
92,260,40852,6,0,L|24:260,1,56.25
292,264,41171,2,0,L|360:264,1,56.25,8|0,0:0|0:0,0:0:0:0:
132,208,41490,2,0,L|76:160,1,56.25
256,140,41809,2,0,L|264:216,1,56.25
376,280,42128,2,0,L|452:280,1,56.25,2|0,0:0|0:0,0:0:0:0:
256,280,42447,2,0,L|184:280,1,56.25,2|0,0:0|0:0,0:0:0:0:
420,220,42766,2,0,L|492:220,1,56.25,2|0,0:0|0:0,0:0:0:0:
208,224,43086,2,0,L|144:224,1,56.25,2|0,0:0|0:0,0:0:0:0:
420,260,43405,6,0,L|488:260,1,56.25,0|8,0:0|0:0,0:0:0:0:
220,264,43724,2,0,L|152:264,1,56.25
380,208,44043,2,0,L|436:160,1,56.25
256,140,44362,2,0,L|248:216,1,56.25,4|0,0:0|0:0,0:0:0:0:
136,280,44681,2,0,L|60:280,1,56.25,10|0,0:0|0:0,0:0:0:0:
256,280,45000,2,0,L|328:280,1,56.25,10|0,0:0|0:0,0:0:0:0:
92,220,45319,2,8,L|20:220,1,56.25,10|0,0:0|0:0,0:0:0:0:
304,224,45639,2,0,L|368:224,1,56.25,10|0,0:0|0:0,0:0:0:0:
208,148,45958,6,0,L|88:148,2,112.5
376,148,46756,1,0,0:0:0:0:
128,152,46915,2,0,P|36:160|116:208,1,225,8|0,0:0|0:0,0:0:0:0:
260,252,47713,1,0,0:0:0:0:
368,200,47873,2,0,L|488:200,2,112.5,0|0|2,0:0|0:0|0:0,0:0:0:0:
324,148,48591,1,0,0:0:0:0:
280,88,48671,1,0,0:0:0:0:
232,28,48751,1,0,0:0:0:0:
40,156,48830,1,8,0:0:0:0:
84,220,48910,1,0,0:0:0:0:
136,280,48990,1,0,0:0:0:0:
192,336,49070,1,0,0:0:0:0:
456,312,49149,1,0,0:0:0:0:
408,260,49229,1,0,0:0:0:0:
360,208,49309,1,0,0:0:0:0:
304,148,49389,1,0,0:0:0:0:
72,68,49469,1,8,0:0:0:0:
88,136,49548,1,0,0:0:0:0:
144,200,49628,1,0,0:0:0:0:
252,232,49708,1,0,0:0:0:0:
464,128,49788,6,0,L|352:128,1,112.5,4|0,0:0|0:0,0:0:0:0:
112,208,50266,2,0,L|232:208,1,112.5
416,296,50745,2,0,L|344:296,1,56.25
56,260,51064,6,0,L|124:260,1,56.25
352,264,51383,2,0,L|276:264,1,56.25
108,208,51703,2,0,L|160:164,1,56.25
256,112,52022,2,0,L|248:184,1,56.25
452,292,52341,2,0,L|392:292,1,56.25,2|8,0:0|0:0,0:0:0:0:
172,288,52660,2,0,L|244:288,1,56.25,2|8,0:0|0:0,0:0:0:0:
480,252,52979,2,0,L|424:252,1,56.25,2|8,0:0|0:0,0:0:0:0:
144,248,53298,2,0,L|200:248,1,56.25,2|8,0:0|0:0,0:0:0:0:
456,260,53618,6,0,L|388:260,1,56.25
160,264,53937,2,0,L|236:264,1,56.25
404,208,54257,2,0,L|352:164,1,56.25
256,112,54576,2,0,L|264:184,1,56.25
60,292,54895,2,0,L|120:292,1,56.25,2|8,0:0|0:0,0:0:0:0:
340,288,55214,2,0,L|268:288,1,56.25,2|8,0:0|0:0,0:0:0:0:
32,252,55533,2,0,L|88:252,1,56.25,2|8,0:0|0:0,0:0:0:0:
368,248,55852,2,0,L|312:248,1,56.25,2|8,0:0|0:0,0:0:0:0:
92,104,56171,6,0,L|20:104,1,56.25
132,152,56410,1,0,0:0:0:0:
232,192,56490,2,0,L|172:192,1,56.25
392,120,56809,2,0,L|464:120,1,56.25
360,256,57128,2,0,L|120:256,1,225
48,156,57926,1,0,0:0:0:0:
264,68,58086,2,0,P|328:96|264:140,1,168.75
124,272,58724,2,0,L|64:272,1,56.25
256,272,59043,2,0,L|336:272,1,56.25
92,216,59362,2,0,L|32:216,1,56.25
296,216,59681,2,0,L|376:216,1,56.25
64,112,60001,1,0,0:0:0:0:
136,112,60080,1,0,0:0:0:0:
208,112,60160,1,0,0:0:0:0:
280,112,60240,1,0,0:0:0:0:
356,112,60320,1,8,0:0:0:0:
464,236,60479,1,0,0:0:0:0:
392,236,60559,1,0,0:0:0:0:
316,236,60639,1,0,0:0:0:0:
240,236,60719,1,0,0:0:0:0:
168,236,60798,1,8,0:0:0:0:
360,116,60958,1,0,0:0:0:0:
432,116,61038,1,0,0:0:0:0:
504,116,61118,1,4,0:0:0:0:
56,260,61277,6,0,L|124:260,1,56.25
392,260,61596,2,0,L|316:260,1,56.25
76,260,61916,2,0,L|128:216,1,56.25
364,260,62235,2,0,L|356:332,1,56.25,8|0,0:0|0:0,0:0:0:0:
60,292,62554,2,0,L|120:292,1,56.25,2|8,0:0|0:0,0:0:0:0:
424,292,62873,2,0,L|352:292,1,56.25,2|8,0:0|0:0,0:0:0:0:
32,252,63192,2,0,L|88:252,1,56.25,2|8,0:0|0:0,0:0:0:0:
452,252,63511,2,0,L|396:252,1,56.25,2|8,0:0|0:0,0:0:0:0:
456,260,63830,6,0,L|388:260,1,56.25
120,260,64149,2,0,L|196:260,1,56.25
436,260,64469,2,0,L|384:216,1,56.25
148,260,64788,2,0,L|156:332,1,56.25,4|0,0:0|0:0,0:0:0:0:
452,292,65107,2,0,L|392:292,1,56.25,2|8,0:0|0:0,0:0:0:0:
88,292,65426,2,0,L|160:292,1,56.25,2|8,0:0|0:0,0:0:0:0:
480,252,65745,2,0,L|424:252,1,56.25,2|8,0:0|0:0,0:0:0:0:
60,252,66064,2,0,L|116:252,1,56.25,2|8,0:0|0:0,0:0:0:0:
400,112,66383,6,0,L|336:112,2,58.4999973220826
448,148,66782,1,0,0:0:0:0:
476,220,66862,1,0,0:0:0:0:
236,268,67022,2,0,L|100:268,2,116.999994644165
64,128,67979,1,0,0:0:0:0:
120,188,68059,1,0,0:0:0:0:
176,244,68139,1,0,0:0:0:0:
292,260,68298,2,0,B|424:260,1,116.999994644165,0|8,0:0|0:0,0:0:0:0:
292,260,68777,1,0,0:0:0:0:
112,260,68937,2,2,L|56:152,1,116.999994644165
192,76,69415,1,2,0:0:0:0:
456,88,69575,1,0,0:0:0:0:
400,148,69655,1,0,0:0:0:0:
336,196,69735,1,0,0:0:0:0:
260,228,69814,1,0,0:0:0:0:
72,292,69894,1,0,0:0:0:0:
96,216,69974,1,0,0:0:0:0:
160,168,70054,1,0,0:0:0:0:
260,160,70133,1,0,0:0:0:0:
472,312,70213,2,2,L|332:312,1,116.999994644165,2|0,0:0|0:0,0:0:0:0:
216,280,70612,1,0,0:0:0:0:
36,232,70692,2,2,L|172:232,1,116.999994644165,2|0,0:0|0:0,0:0:0:0:
296,212,71091,1,0,0:0:0:0:
476,176,71171,2,0,L|400:176,1,58.4999973220826,0|4,0:0|0:0,0:0:0:0:
148,320,71490,6,0,L|76:320,1,62.9999980773926
292,320,71809,2,0,L|376:320,1,62.9999980773926
100,320,72128,2,0,L|28:320,1,62.9999980773926
340,320,72447,2,0,L|424:320,1,62.9999980773926,8|0,0:0|0:0,0:0:0:0:
144,256,72766,2,0,L|68:256,1,62.9999980773926,2|8,0:0|0:0,0:0:0:0:
368,256,73086,2,0,L|444:256,1,62.9999980773926,2|8,0:0|0:0,0:0:0:0:
100,204,73405,2,0,L|24:204,1,62.9999980773926,2|8,0:0|0:0,0:0:0:0:
412,204,73724,2,0,L|488:204,1,62.9999980773926,2|8,0:0|0:0,0:0:0:0:
204,148,74043,6,0,L|248:92,1,62.9999980773926
432,92,74362,2,0,L|480:144,1,62.9999980773926
180,148,74681,2,0,L|224:92,1,62.9999980773926
452,92,75000,2,0,L|500:144,1,62.9999980773926,4|0,0:0|0:0,0:0:0:0:
368,256,75320,2,0,L|444:256,1,62.9999980773926,2|8,0:0|0:0,0:0:0:0:
144,256,75640,2,0,L|68:256,1,62.9999980773926,2|8,0:0|0:0,0:0:0:0:
412,204,75959,2,0,L|488:204,1,62.9999980773926,2|8,0:0|0:0,0:0:0:0:
100,204,76278,2,0,L|24:204,1,62.9999980773926,2|8,0:0|0:0,0:0:0:0:
136,120,76596,6,0,L|264:120,1,125.999996154785
308,132,76995,1,0,0:0:0:0:
364,176,77075,1,0,0:0:0:0:
396,240,77155,1,0,0:0:0:0:
180,284,77235,2,0,L|44:284,1,125.999996154785,0|8,0:0|0:0,0:0:0:0:
208,180,77873,2,2,L|284:180,2,62.9999980773926
64,160,78511,2,0,L|216:160,1,125.999996154785
348,76,79149,2,0,L|416:100,1,62.9999980773926,0|2,0:0|0:0,0:0:0:0:
272,252,79469,2,0,L|208:216,1,62.9999980773926,0|2,0:0|0:0,0:0:0:0:
428,40,79788,2,0,L|472:96,1,62.9999980773926,0|2,0:0|0:0,0:0:0:0:
208,288,80107,2,0,L|164:228,1,62.9999980773926,0|2,0:0|0:0,0:0:0:0:
356,72,80426,6,0,B|404:100|404:100|352:128,1,112.5,4|2,0:0|0:0,0:0:0:0:
176,272,80905,2,0,B|132:236|132:236|176:200,1,112.5,0|8,0:0|0:0,0:0:0:0:
424,96,81383,2,0,L|456:168,1,56.25,4|0,0:0|0:0,0:0:0:0:
64,172,81703,6,0,L|60:96,1,67.5000025749208
292,144,82022,2,0,L|340:92,1,67.5000025749208
160,96,82341,2,0,L|240:64,1,67.5000025749208
416,160,82660,2,0,L|488:160,1,67.5000025749208,8|0,0:0|0:0,0:0:0:0:
120,224,82979,2,0,L|48:224,1,67.5000025749208,2|8,0:0|0:0,0:0:0:0:
252,280,83298,2,0,L|336:280,1,67.5000025749208,2|8,0:0|0:0,0:0:0:0:
76,304,83618,2,0,L|0:304,1,67.5000025749208,2|8,0:0|0:0,0:0:0:0:
304,188,83937,2,0,L|380:188,1,67.5000025749208,2|8,0:0|0:0,0:0:0:0:
448,172,84256,6,0,L|452:96,1,67.5000025749208
208,136,84575,2,0,L|160:84,1,67.5000025749208
360,124,84894,2,0,L|280:92,1,67.5000025749208
96,160,85213,2,4,L|24:160,1,67.5000025749208,4|0,0:0|0:0,0:0:0:0:
392,224,85532,2,0,L|464:224,1,67.5000025749208,2|8,0:0|0:0,0:0:0:0:
260,280,85851,2,0,L|176:280,1,67.5000025749208,2|8,0:0|0:0,0:0:0:0:
436,304,86171,2,0,L|512:304,1,67.5000025749208,2|8,0:0|0:0,0:0:0:0:
208,188,86490,2,0,L|132:188,1,67.5000025749208,2|8,0:0|0:0,0:0:0:0:
400,140,86809,6,0,L|436:140,2,33.7500012874604
192,144,87128,2,0,L|148:144,2,33.7500012874604
372,80,87447,1,0,0:0:0:0:
144,224,87766,2,0,B|37:138|37:138|148:60,1,270.000010299683,0|4,0:0|0:0,0:0:0:0:
404,108,88724,2,0,L|440:108,4,33.7500012874604
168,240,89362,1,2,0:0:0:0:
132,196,89442,1,0,0:0:0:0:
104,144,89522,1,2,0:0:0:0:
96,84,89602,1,0,0:0:0:0:
272,248,89681,1,2,0:0:0:0:
308,208,89761,1,0,0:0:0:0:
340,156,89841,1,2,0:0:0:0:
356,96,89921,1,0,0:0:0:0:
128,228,90001,1,2,0:0:0:0:
84,192,90080,1,0,0:0:0:0:
44,136,90160,1,2,0:0:0:0:
32,64,90240,1,0,0:0:0:0:
160,56,90320,2,0,L|232:56,1,67.5000025749208
372,60,90639,5,0,0:0:0:0:
428,116,90719,1,0,0:0:0:0:
464,188,90798,1,0,0:0:0:0:
452,264,90878,1,0,0:0:0:0:
404,328,90958,1,2,0:0:0:0:
172,328,91118,1,0,0:0:0:0:
124,268,91197,1,0,0:0:0:0:
92,200,91277,1,0,0:0:0:0:
72,128,91357,1,0,0:0:0:0:
24,80,91437,1,8,0:0:0:0:
256,80,91596,1,0,0:0:0:0:
296,32,91676,1,0,0:0:0:0:
360,24,91756,1,4,0:0:0:0:
160,200,91915,6,0,L|64:100,1,135.000005149842
216,192,92554,2,0,L|316:88,1,135.000005149842
160,272,93192,1,8,0:0:0:0:
232,232,93352,1,8,0:0:0:0:
136,176,93511,1,0,0:0:0:0:
244,140,93671,1,2,0:0:0:0:
352,272,93830,1,0,0:0:0:0:
280,232,93990,1,0,0:0:0:0:
376,176,94149,1,0,0:0:0:0:
268,140,94309,1,8,0:0:0:0:
352,200,94469,6,0,L|448:100,1,135.000005149842
296,192,95108,2,0,L|196:88,1,135.000005149842
352,272,95746,1,8,0:0:0:0:
280,232,95906,1,0,0:0:0:0:
376,176,96065,1,0,0:0:0:0:
268,140,96225,1,10,0:0:0:0:
160,272,96384,1,8,0:0:0:0:
232,232,96544,1,0,0:0:0:0:
136,176,96703,1,0,0:0:0:0:
244,140,96863,1,8,0:0:0:0:
424,76,97022,6,0,L|456:208,1,135.000005149842
424,268,97421,1,0,0:0:0:0:
368,312,97501,1,0,0:0:0:0:
148,300,97660,2,0,L|40:208,1,135.000005149842
44,156,98059,1,0,0:0:0:0:
80,108,98139,1,0,0:0:0:0:
224,60,98298,2,0,L|360:64,1,135.000005149842
416,100,98697,1,0,0:0:0:0:
452,160,98777,1,0,0:0:0:0:
296,312,98937,2,0,L|172:256,1,135.000005149842
124,220,99336,1,0,0:0:0:0:
68,164,99415,1,0,0:0:0:0:
376,108,99575,6,0,L|460:108,2,67.5000025749208
308,108,99974,1,0,0:0:0:0:
240,108,100054,1,0,0:0:0:0:
136,208,100213,2,0,L|52:208,2,67.5000025749208
204,208,100612,1,0,0:0:0:0:
272,208,100692,1,0,0:0:0:0:
416,260,100852,2,0,L|500:260,2,67.5000025749208
348,260,101251,1,0,0:0:0:0:
280,260,101331,1,0,0:0:0:0:
88,332,101490,2,0,L|4:332,2,67.5000025749208
156,332,101889,1,0,0:0:0:0:
224,332,101969,1,0,0:0:0:0:
256,192,102128,12,0,103086,0:0:0:0:
256,192,103245,101,0,0:0:0:0:
256,192,103405,12,0,104362,0:0:0:0:
256,192,104522,5,0,0:0:0:0:
256,192,104681,12,0,105958,0:0:0:0:
256,192,106118,5,0,0:0:0:0:
256,192,106277,12,4,108511,0:0:0:0:
