osu file format v14

[General]
AudioFilename: 0x10c_C418.mp3
AudioLeadIn: 0
PreviewTime: 51064
Countdown: 0
SampleSet: Normal
StackLeniency: 0.7
Mode: 2
LetterboxInBreaks: 1
WidescreenStoryboard: 1

[Editor]
Bookmarks: 2554,9575,19947,39575,60001,71488
DistanceSpacing: 1.5
BeatDivisor: 4
GridSize: 4
TimelineZoom: 1.3

[Metadata]
Title:0x10c
TitleUnicode:0x10c
Artist:C418
ArtistUnicode:C418
Creator:sxy62146214
Version:Platter
Source:0x10c
Tags:C418 Sadness resem last game Notch black Mojang sxy62146214 cyxw SkeletonXB MEGAtive
BeatmapID:1033410
BeatmapSetID:480034

[Difficulty]
HPDrainRate:5.5
CircleSize:4.5
OverallDifficulty:8
ApproachRate:8
SliderMultiplier:1.6
SliderTickRate:2

[Events]
//Background and Video events
0,0,"BG.png",0,0
//Break Periods
//Storyboard Layer 0 (Background)
//Storyboard Layer 1 (Fail)
//Storyboard Layer 2 (Pass)
//Storyboard Layer 3 (Foreground)
//Storyboard Sound Samples

[TimingPoints]
1,638.297872340426,4,1,0,10,1,0
2554,-90.9090909090909,4,1,0,20,0,0
5107,-90.9090909090909,4,1,0,30,0,0
7660,-90.9090909090909,4,1,0,40,0,0
10213,-80,4,1,0,40,0,0
39575,-80,4,1,0,45,0,0
51065,-80,4,1,0,50,0,0
61277,-76.9230769230769,4,1,0,55,0,0
71490,-71.4285714285714,4,1,0,60,0,1
80426,-80,4,1,0,40,0,0
81703,-66.6666666666667,4,1,0,65,0,1
91916,-66.6666666666667,4,1,0,60,0,1
97022,-66.6666666666667,4,1,0,50,0,1
97660,-66.6666666666667,4,1,0,45,0,1
98298,-66.6666666666667,4,1,0,40,0,1
98937,-66.6666666666667,4,1,0,35,0,1
99575,-66.6666666666667,4,1,0,30,0,1
100213,-66.6666666666667,4,1,0,25,0,1
100852,-66.6666666666667,4,1,0,20,0,1
101490,-66.6666666666667,4,1,0,15,0,1
102128,-100,4,1,0,10,0,0

[Colours]
Combo1 : 255,255,255
Combo2 : 31,31,31
Combo3 : 63,63,63
Combo4 : 95,95,95
Combo5 : 127,127,127
Combo6 : 159,159,159
Combo7 : 191,191,191
Combo8 : 223,223,223

[HitObjects]
64,192,5107,6,0,B|124:112|208:92|300:92|388:104,1,352.000010742188
36,104,7660,6,0,L|104:112,2,44.0000013427735
476,44,9575,5,4,0:0:0:0:
100,296,10213,85,0,0:0:0:0:
100,243,10532,2,0,L|160:244,4,50,0|0|0|0|8,0:0|0:0|0:0|0:0|0:0,0:0:0:0:
276,200,11490,2,0,L|240:152,1,50
148,128,11809,1,2,0:0:0:0:
40,88,11969,2,0,L|100:20,1,50
148,128,12447,1,8,0:0:0:0:
384,32,12766,5,0,0:0:0:0:
80,32,13086,1,0,0:0:0:0:
456,32,13405,1,0,0:0:0:0:
72,32,13724,1,8,0:0:0:0:
360,88,14043,1,0,0:0:0:0:
416,136,14203,1,0,0:0:0:0:
468,204,14362,1,0,0:0:0:0:
412,264,14522,1,8,0:0:0:0:
344,304,14681,1,8,0:0:0:0:
40,192,15001,2,0,L|100:192,1,50
344,192,15320,5,2,0:0:0:0:
448,152,15639,2,0,L|416:96,1,50
268,72,15958,2,0,L|204:72,2,50,0|0|8,0:0|0:0|0:0,0:0:0:0:
456,36,16596,2,0,L|488:88,1,50
368,136,16915,1,4,0:0:0:0:
256,176,17075,2,0,L|284:236,1,50
64,192,17554,1,8,0:0:0:0:
464,192,17873,2,0,L|364:192,1,100
32,192,18511,2,0,L|136:192,1,100
280,292,19149,1,0,0:0:0:0:
356,292,19309,1,0,0:0:0:0:
432,292,19469,1,8,0:0:0:0:
104,288,19788,2,0,P|132:212|164:196,1,100
476,40,20426,5,2,0:0:0:0:
424,76,20586,1,0,0:0:0:0:
368,92,20745,1,0,0:0:0:0:
36,124,21064,2,0,L|92:172,1,50,8|0,0:0|0:0,0:0:0:0:
336,208,21383,1,0,0:0:0:0:
436,192,21703,2,0,L|500:192,6,50,0|8|0|8|0|8|8,0:0|0:0|0:0|0:0|0:0|0:0|0:0,0:0:0:0:
296,192,22979,1,0,0:0:0:0:
84,192,23139,1,0,0:0:0:0:
48,128,23298,1,2,0:0:0:0:
416,56,23618,1,0,0:0:0:0:
472,112,23777,1,0,0:0:0:0:
452,192,23937,1,8,0:0:0:0:
88,292,24256,6,0,L|120:244,1,50
384,196,24575,1,0,0:0:0:0:
484,144,24894,2,0,L|424:144,1,50
268,144,25213,2,0,L|320:144,1,50,0|8,0:0|0:0,0:0:0:0:
168,116,25532,1,0,0:0:0:0:
112,160,25692,1,0,0:0:0:0:
40,176,25852,1,0,0:0:0:0:
136,232,26171,2,0,L|196:232,1,50,0|2,0:0|0:0,0:0:0:0:
328,272,26490,2,0,L|272:272,1,50,0|2,0:0|0:0,0:0:0:0:
468,56,26809,6,0,L|376:108,1,100,0|8,0:0|0:0,0:0:0:0:
256,120,27447,2,0,L|200:164,1,50,0|8,0:0|0:0,0:0:0:0:
92,196,27766,2,0,L|144:280,1,50,0|8,0:0|0:0,0:0:0:0:
268,136,28086,2,0,P|277:205|232:259,1,100,0|8,0:0|0:0,0:0:0:0:
48,240,28724,2,0,P|38:170|83:116,1,100,0|2,0:0|0:0,0:0:0:0:
468,148,29362,2,2,P|477:217|432:271,1,100
288,280,30001,1,0,0:0:0:0:
136,32,30639,6,0,L|32:32,1,100
480,192,31277,1,0,0:0:0:0:
416,192,31436,1,0,0:0:0:0:
280,196,31596,2,0,L|200:196,1,50
96,188,31915,1,8,0:0:0:0:
32,72,32075,2,0,L|88:72,1,50
376,68,32554,2,0,L|336:112,1,50
160,112,32873,1,0,0:0:0:0:
368,144,33192,1,2,0:0:0:0:
136,184,33511,1,0,0:0:0:0:
400,224,33830,1,2,0:0:0:0:
96,280,34149,1,4,0:0:0:0:
448,324,34469,6,0,L|416:276,1,50
292,232,34788,1,8,0:0:0:0:
164,192,34947,2,0,L|232:128,1,50
328,72,35426,2,0,L|408:68,1,50
452,196,35745,1,0,0:0:0:0:
412,336,36064,1,0,0:0:0:0:
52,280,36383,2,0,L|176:308,1,100,0|8,0:0|0:0,0:0:0:0:
428,248,37022,2,0,P|444:176|420:132,1,100
328,124,37660,1,2,0:0:0:0:
276,164,37820,1,10,0:0:0:0:
208,192,37979,1,2,0:0:0:0:
148,240,38139,1,2,0:0:0:0:
180,324,38298,2,0,L|220:368,1,50
64,64,38618,6,0,L|136:72,1,50
240,172,38938,1,8,0:0:0:0:
368,304,39097,2,0,L|316:292,1,50
256,192,40213,101,4,0:0:0:0:
336,64,40852,5,0,0:0:0:0:
376,132,41011,1,0,0:0:0:0:
444,196,41171,1,0,0:0:0:0:
176,320,41490,1,0,0:0:0:0:
136,252,41649,1,0,0:0:0:0:
68,188,41809,1,8,0:0:0:0:
476,192,42128,2,0,L|424:192,2,50,10|0|0,0:0|0:0|0:0,0:0:0:0:
36,192,42766,2,0,L|88:192,2,50,10|0|0,0:0|0:0|0:0,0:0:0:0:
368,212,43405,5,8,0:0:0:0:
428,164,43564,1,0,0:0:0:0:
464,96,43724,1,0,0:0:0:0:
232,208,44043,1,0,0:0:0:0:
172,256,44202,1,0,0:0:0:0:
136,324,44362,1,12,0:0:0:0:
436,328,44681,2,0,L|392:284,2,50,0|8|0,0:0|0:0|0:0,0:0:0:0:
132,56,45320,2,8,L|176:100,2,50,8|0|8,0:0|0:0|0:0,0:0:0:0:
448,112,45958,5,2,0:0:0:0:
112,156,46277,2,0,L|72:200,1,50
192,260,46596,1,8,0:0:0:0:
328,312,46756,2,0,L|368:360,1,50,0|8,0:0|0:0,0:0:0:0:
78,192,47235,1,0,0:0:0:0:
312,80,47394,2,0,L|368:104,1,50
116,80,47873,2,0,B|97:130|114:190|152:242|182:269,1,200,0|8,0:0|0:0,0:0:0:0:
416,264,48830,1,0,0:0:0:0:
40,272,49149,2,4,L|84:216,2,50,0|0|10,0:0|0:0|0:0,0:0:0:0:
468,112,49788,2,0,P|392:84|352:84,1,100,2|8,0:0|0:0,0:0:0:0:
124,84,50266,2,0,P|96:132|92:180,1,100,2|8,0:0|0:0,0:0:0:0:
304,320,50745,2,0,P|376:344|436:340,1,100,2|0,0:0|0:0,0:0:0:0:
304,320,51224,5,0,0:0:0:0:
192,292,51384,1,8,0:0:0:0:
456,128,51703,1,0,0:0:0:0:
340,104,51863,1,0,0:0:0:0:
228,76,52023,1,0,0:0:0:0:
464,64,52341,2,0,L|400:84,2,50,2|0|0,0:0|0:0|0:0,0:0:0:0:
100,240,52979,2,0,L|152:220,2,50,2|0|0,0:0|0:0|0:0,0:0:0:0:
56,76,53618,5,8,0:0:0:0:
120,168,53777,1,0,0:0:0:0:
228,236,53937,1,0,0:0:0:0:
456,308,54256,1,0,0:0:0:0:
392,216,54415,1,0,0:0:0:0:
284,148,54575,1,14,0:0:0:0:
72,176,54894,2,0,L|36:224,2,50,8|0|0,0:0|0:0|0:0,0:0:0:0:
440,208,55532,2,0,L|476:160,2,50,8|0|0,0:0|0:0|0:0,0:0:0:0:
440,156,56171,6,0,P|348:132|328:136,1,100,8|0,0:0|0:0,0:0:0:0:
52,104,56809,2,0,L|72:164,1,50
184,220,57128,1,2,0:0:0:0:
328,284,57288,2,0,L|272:328,1,50
436,136,57766,1,0,0:0:0:0:
340,104,57926,1,0,0:0:0:0:
192,96,58086,1,8,0:0:0:0:
36,184,58405,2,0,L|20:248,1,50,0|8,0:0|0:0,0:0:0:0:
268,272,58724,2,0,P|332:292|384:292,2,100
112,120,59681,2,0,L|60:84,1,50,0|8,0:0|0:0,0:0:0:0:
308,48,60001,2,0,B|404:64|448:88,1,100,2|8,0:0|0:0,0:0:0:0:
180,296,60479,2,0,P|104:308|60:284,1,100,2|8,0:0|0:0,0:0:0:0:
288,116,60958,2,0,B|192:132|148:156,1,100,2|8,0:0|0:0,0:0:0:0:
96,184,61437,5,0,0:0:0:0:
36,276,61596,1,0,0:0:0:0:
452,292,61915,1,0,0:0:0:0:
356,188,62075,1,0,0:0:0:0:
236,136,62235,1,8,0:0:0:0:
280,308,62554,2,0,L|336:308,2,51.999997619629,2|0|0,0:0|0:0|0:0,0:0:0:0:
240,308,63192,2,0,L|184:308,2,51.999997619629,2|0|0,0:0|0:0|0:0,0:0:0:0:
48,300,63830,5,8,0:0:0:0:
172,272,63990,1,0,0:0:0:0:
296,284,64149,1,0,0:0:0:0:
464,300,64469,1,0,0:0:0:0:
340,272,64629,1,0,0:0:0:0:
216,284,64788,1,6,0:0:0:0:
96,144,65107,2,0,L|96:88,2,51.999997619629,0|8|0,0:0|0:0|0:0,0:0:0:0:
416,144,65745,2,0,L|416:88,2,51.999997619629,8|0|8,0:0|0:0|0:0,0:0:0:0:
72,284,66383,6,0,P|132:316|184:320,1,103.999995239258,8|0,0:0|0:0,0:0:0:0:
284,288,67022,1,0,0:0:0:0:
432,200,67181,2,0,L|448:144,1,51.999997619629,0|8,0:0|0:0,0:0:0:0:
168,80,67660,2,0,L|136:132,1,51.999997619629
248,192,67979,1,2,0:0:0:0:
356,256,68139,2,0,L|324:308,1,51.999997619629
112,240,68458,2,0,L|172:240,1,51.999997619629
424,100,68777,2,0,L|344:100,1,51.999997619629,0|4,0:0|0:0,0:0:0:0:
96,136,69256,1,4,0:0:0:0:
468,276,69575,1,4,0:0:0:0:
196,260,69894,2,0,L|160:304,1,51.999997619629
72,88,70213,2,0,P|136:72|188:72,1,103.999995239258,2|8,0:0|0:0,0:0:0:0:
404,100,70692,2,0,P|400:200|416:232,1,103.999995239258,2|8,0:0|0:0,0:0:0:0:
232,312,71171,2,0,P|160:316|128:292,1,103.999995239258,2|8,0:0|0:0,0:0:0:0:
68,240,71649,5,0,0:0:0:0:
88,152,71809,1,0,0:0:0:0:
408,72,72128,1,0,0:0:0:0:
456,188,72288,1,0,0:0:0:0:
360,288,72447,1,8,0:0:0:0:
128,208,72766,2,0,L|52:224,2,55.9999982910157,2|0|0,0:0|0:0|0:0,0:0:0:0:
396,204,73405,2,0,L|436:260,2,55.9999982910157,2|0|0,0:0|0:0|0:0,0:0:0:0:
88,308,74043,5,8,0:0:0:0:
216,244,74203,1,0,0:0:0:0:
248,132,74362,1,0,0:0:0:0:
432,276,74681,1,0,0:0:0:0:
304,212,74841,1,0,0:0:0:0:
272,100,75000,1,14,0:0:0:0:
64,104,75320,2,0,L|84:168,2,55.9999982910157,0|8|0,0:0|0:0|0:0,0:0:0:0:
456,168,75958,2,0,L|376:196,2,55.9999982910157,8|0|14,0:0|0:0|0:0,0:0:0:0:
168,128,76596,5,8,0:0:0:0:
360,168,76915,2,0,P|340:232|304:264,1,111.999996582031
88,176,77554,1,2,0:0:0:0:
372,144,77873,2,0,L|408:192,1,55.9999982910157
272,228,78192,1,0,0:0:0:0:
144,216,78352,2,8,L|112:268,1,55.9999982910157
96,116,78671,2,0,L|36:100,2,55.9999982910157
368,96,79149,2,0,L|448:184,1,111.999996582031
288,240,79788,1,8,0:0:0:0:
68,208,80107,2,0,L|104:156,1,55.9999982910157
272,56,80426,6,0,B|424:56|424:56|276:56|276:56|380:56,1,400,4|0,0:0|0:0,0:0:0:0:
260,124,81862,1,0,0:0:0:0:
184,208,82022,1,8,0:0:0:0:
412,120,82341,1,0,0:0:0:0:
480,236,82501,1,0,0:0:0:0:
396,332,82660,1,0,0:0:0:0:
104,72,82979,2,0,L|64:124,2,60.0000022888184,2|0|0,0:0|0:0|0:0,0:0:0:0:
292,236,83618,2,0,L|252:288,2,60.0000022888184,2|0|0,0:0|0:0|0:0,0:0:0:0:
48,60,84256,5,8,0:0:0:0:
100,152,84415,1,0,0:0:0:0:
188,220,84575,1,0,0:0:0:0:
280,44,84894,1,0,0:0:0:0:
332,136,85053,1,0,0:0:0:0:
420,204,85213,1,14,0:0:0:0:
172,120,85532,2,0,L|88:120,2,60.0000022888184,8|0|0,0:0|0:0|0:0,0:0:0:0:
456,296,86171,2,0,L|372:296,2,60.0000022888184,8|0|0,0:0|0:0|0:0,0:0:0:0:
144,72,86809,6,0,P|92:108|72:180,1,120.000004577637
156,244,87447,1,0,0:0:0:0:
244,296,87607,1,0,0:0:0:0:
344,280,87766,1,2,0:0:0:0:
488,144,88086,2,0,L|432:112,1,60.0000022888184
296,104,88405,1,8,0:0:0:0:
148,100,88564,2,0,L|96:48,1,60.0000022888184,0|8,0:0|0:0,0:0:0:0:
296,224,89043,2,0,L|344:260,1,60.0000022888184,0|8,0:0|0:0,0:0:0:0:
172,96,89362,2,0,L|44:116,2,120.000004577637
464,308,90320,2,0,L|464:240,1,60.0000022888184,0|8,0:0|0:0,0:0:0:0:
260,64,90639,2,0,L|92:96,1,120.000004577637,8|2,0:0|0:0,0:0:0:0:
52,228,91118,2,0,L|100:348,1,120.000004577637,8|2,0:0|0:0,0:0:0:0:
368,340,91596,2,0,L|472:292,1,60.0000022888184,8|0,0:0|0:0,0:0:0:0:
180,80,91915,6,0,P|112:104|68:136,1,120.000004577637
332,304,92554,2,0,P|400:280|444:248,1,120.000004577637
208,192,93192,1,2,0:0:0:0:
288,192,93352,1,2,0:0:0:0:
416,192,93511,1,0,0:0:0:0:
440,76,93830,2,0,B|368:104|328:132,1,120.000004577637,8|0,0:0|0:0,0:0:0:0:
164,120,94469,6,0,B|108:148|108:148|168:176,1,120.000004577637
348,120,95107,2,0,B|404:148|404:148|344:176,1,120.000004577637
304,192,95745,1,2,0:0:0:0:
224,192,95905,1,2,0:0:0:0:
96,192,96064,1,0,0:0:0:0:
264,308,96383,2,0,L|128:272,1,120.000004577637,8|0,0:0|0:0,0:0:0:0:
92,112,97022,6,0,P|212:72|344:72,1,240.000009155274,2|2,0:0|0:0,0:0:0:0:
456,208,97979,1,0,0:0:0:0:
420,112,98298,2,2,P|300:72|168:72,1,240.000009155274
80,204,99255,1,0,0:0:0:0:
424,40,99575,2,0,P|464:160|464:292,1,240.000009155274,2|2,0:0|0:0,0:0:0:0:
168,284,100532,1,0,0:0:0:0:
88,40,100852,2,0,P|48:160|48:292,1,240.000009155274,2|2,0:0|0:0,0:0:0:0:
344,288,101809,1,0,0:0:0:0:
256,192,102128,12,4,107235,0:0:0:0:
