osu file format v14

[General]
AudioFilename: 0x10c_C418.mp3
AudioLeadIn: 0
PreviewTime: 51064
Countdown: 0
SampleSet: Normal
StackLeniency: 0.7
Mode: 0
LetterboxInBreaks: 1
WidescreenStoryboard: 1

[Editor]
Bookmarks: 9574,40852,51064,61277,71487,81703
DistanceSpacing: 1
BeatDivisor: 4
GridSize: 4
TimelineZoom: 1.2

[Metadata]
Title:0x10c
TitleUnicode:0x10c
Artist:C418
ArtistUnicode:C418
Creator:sxy62146214
Version:Normal
Source:0x10c
Tags:C418 Sadness resem last game Notch black Mojang sxy62146214 cyxw SkeletonXB MEGAtive
BeatmapID:1028115
BeatmapSetID:480034

[Difficulty]
HPDrainRate:4
CircleSize:4
OverallDifficulty:4.5
ApproachRate:5
SliderMultiplier:1.45
SliderTickRate:2

[Events]
//Background and Video events
0,0,"BG.png",0,0
//Break Periods
//Storyboard Layer 0 (Background)
//Storyboard Layer 1 (Fail)
//Storyboard Layer 2 (Pass)
//Storyboard Layer 3 (Foreground)
//Storyboard Sound Samples

[TimingPoints]
1,638.297872340426,4,1,0,35,1,0
30639,-100,4,1,0,40,0,0
40852,-100,4,1,0,45,0,0
51064,-100,4,1,0,50,0,0
61277,-95.2380952380952,4,1,0,55,0,0
71490,-95.2380952380952,4,1,0,60,0,1
80426,-100,4,1,0,40,0,0
81703,-80,4,1,0,65,0,1
91915,-90.9090909090909,4,1,0,60,0,1
97022,-90.9090909090909,4,1,0,55,0,1
97660,-90.9090909090909,4,1,0,50,0,1
98298,-90.9090909090909,4,1,0,45,0,1
98937,-90.9090909090909,4,1,0,40,0,1
99575,-90.9090909090909,4,1,0,35,0,1
100213,-90.9090909090909,4,1,0,25,0,1
100852,-90.9090909090909,4,1,0,20,0,1
101490,-90.9090909090909,4,1,0,15,0,1
102128,-133.333333333333,4,1,0,10,0,0

[Colours]
Combo1 : 255,255,255
Combo2 : 31,31,31
Combo3 : 63,63,63
Combo4 : 95,95,95
Combo5 : 127,127,127
Combo6 : 159,159,159
Combo7 : 191,191,191
Combo8 : 191,191,191

[HitObjects]
76,120,10213,6,0,P|112:92|152:80,1,72.5
200,120,10852,2,0,P|164:148|124:160,1,72.5
84,204,11490,2,0,L|112:232,2,36.25,0|8|8,0:0|0:0|0:0,0:0:0:0:
148,240,12128,2,0,P|172:208|164:177,1,72.5
240,164,12766,6,0,B|266:155|266:155|276:135|276:135|303:126,1,72.5
368,148,13405,2,0,P|373:194|359:229,1,72.5
292,212,14043,2,0,L|256:232,2,36.25,0|8|8,0:0|0:0|0:0,0:0:0:0:
148,212,14681,1,2,0:0:0:0:
204,80,15320,6,0,B|240:68|240:68|280:80,2,72.5
132,84,16277,2,0,L|124:123,1,36.25
132,156,16596,2,0,P|156:212|200:236,2,108.75,0|0|10,0:0|0:0|0:0,0:0:0:0:
192,112,17873,6,0,B|204:104|216:104|232:108|240:124|252:136|272:132,1,72.5
260,202,18511,2,0,L|188:238,1,72.5
56,68,19788,5,8,0:0:0:0:
204,88,20426,2,0,P|244:72|284:72,3,72.5,2|0|0|0,0:0|0:0|0:0|0:0,0:0:0:0:
296,140,21703,2,0,B|268:168|236:184|220:192|204:184|188:176,2,108.75,0|2|0,0:0|0:0|0:0,0:0:0:0:
356,180,22979,5,0,0:0:0:0:
300,228,23298,1,0,0:0:0:0:
292,300,23618,1,0,0:0:0:0:
232,256,23937,2,0,P|180:264|200:196,2,145,8|0|0,0:0|0:0|0:0,0:0:0:0:
304,244,25532,6,0,L|312:204,2,36.25,0|8|8,0:0|0:0|0:0,0:0:0:0:
376,256,26171,2,0,L|388:184,1,72.5
328,144,26809,2,0,P|288:120|224:120,2,108.75,0|2|0,0:0|0:0|0:0,0:0:0:0:
388,104,28086,6,0,L|448:56,1,72.5,0|8,0:0|0:0,0:0:0:0:
456,132,28724,2,0,L|396:180,1,72.5,0|8,0:0|0:0,0:0:0:0:
328,184,29362,2,0,L|268:136,2,72.5,0|8|0,0:0|0:0|0:0,0:0:0:0:
204,260,30639,6,0,B|168:260|132:224,1,72.5
128,160,31277,2,0,B|140:112|176:96,1,72.5
240,92,31915,2,0,L|264:136,2,36.25,0|8|8,0:0|0:0|0:0,0:0:0:0:
244,200,32713,1,0,0:0:0:0:
136,212,33192,6,0,L|204:272,1,72.5,0|8,0:0|0:0,0:0:0:0:
264,260,33830,2,0,L|328:192,1,72.5,0|8,0:0|0:0,0:0:0:0:
308,136,34469,2,0,L|248:76,1,72.5,0|8,0:0|0:0,0:0:0:0:
200,40,35107,1,2,0:0:0:0:
100,144,35745,5,2,0:0:0:0:
168,124,36064,1,8,0:0:0:0:
220,172,36383,2,0,P|213:212|192:244,1,72.5,0|8,0:0|0:0,0:0:0:0:
128,216,37022,2,0,L|152:184,2,36.25,0|0|8,0:0|0:0|0:0,0:0:0:0:
60,192,37660,1,0,0:0:0:0:
96,128,37979,2,0,P|120:100|164:92,2,72.5,8|0|0,0:0|0:0|0:0,0:0:0:0:
160,160,38937,2,0,L|240:160,1,72.5,0|8,0:0|0:0,0:0:0:0:
208,192,40852,6,0,P|200:152|172:120,1,72.5,0|8,0:0|0:0,0:0:0:0:
136,184,41490,2,0,L|68:144,1,72.5
40,80,42128,2,0,P|68:68|112:80,3,72.5,2|0|2|0,0:0|0:0|0:0|0:0,0:0:0:0:
160,28,43405,6,0,P|180:60|172:112,1,72.5,0|8,0:0|0:0,0:0:0:0:
148,156,44043,2,0,P|180:164|223:146,1,72.5
292,160,44681,2,0,P|276:199|248:217,3,72.5,2|0|2|0,0:0|0:0|0:0|0:0,0:0:0:0:
192,264,45958,6,0,P|152:252|136:216,2,72.5
264,268,46915,2,0,P|304:284|264:204,1,217.5,2|0,0:0|0:0,0:0:0:0:
204,208,48192,1,0,0:0:0:0:
216,136,48511,6,0,L|292:116,3,72.5,8|0|0|0,0:0|0:0|0:0|0:0,0:0:0:0:
356,96,49788,2,4,P|356:144|304:192,2,108.75,4|4|12,0:0|0:0|0:0,0:0:0:0:
428,100,51064,6,0,P|428:144|412:188,1,72.5
384,232,51703,2,0,P|350:254|305:266,1,72.5
248,276,52341,6,0,P|204:276|164:256,2,72.5,8|0|8,0:0|0:0|0:0,0:0:0:0:
320,268,53298,1,0,0:0:0:0:
336,196,53618,6,0,L|292:128,2,72.5
380,252,54575,1,8,0:0:0:0:
308,260,54894,2,0,P|287:230|240:218,1,72.5,0|8,0:0|0:0,0:0:0:0:
212,276,55532,2,0,P|232:305|279:317,1,72.5
308,260,56171,6,0,L|356:200,1,72.5
400,148,56809,1,8,0:0:0:0:
328,132,57128,2,0,L|280:192,2,72.5,0|0|8,0:0|0:0|0:0,0:0:0:0:
376,76,58086,1,0,0:0:0:0:
232,100,58724,6,0,L|176:156,3,72.5
132,96,60001,2,0,P|108:128|124:208,2,108.75,4|6|12,0:0|0:0|0:0,0:0:0:0:
184,152,61277,6,0,P|220:144|264:152,2,76.1249976768494
188,228,62235,1,0,0:0:0:0:
240,288,62554,2,2,P|288:268|296:224,2,76.1249976768494,2|0|2,0:0|0:0|0:0,0:0:0:0:
172,260,63511,1,0,0:0:0:0:
132,196,63830,6,0,P|152:152|176:136,1,76.1249976768494
248,128,64469,1,0,0:0:0:0:
324,136,64788,1,0,0:0:0:0:
372,196,65107,2,2,P|391:239|387:267,2,76.1249976768494,2|0|2,0:0|0:0|0:0,0:0:0:0:
320,140,66064,1,0,0:0:0:0:
396,123,66383,6,0,L|372:199,1,76.1249976768494
360,272,67022,1,8,0:0:0:0:
284,268,67341,2,0,L|300:192,2,76.1249976768494,0|0|8,0:0|0:0|0:0,0:0:0:0:
216,232,68298,2,0,P|172:216|148:188,1,76.1249976768494,0|8,0:0|0:0,0:0:0:0:
136,120,68937,2,0,P|144:76|164:48,3,76.1249976768494,8|0|8|0,0:0|0:0|0:0|0:0,0:0:0:0:
236,56,70213,6,4,P|288:68|320:120,2,114.187496515274,4|6|14,0:0|0:0|0:0,0:0:0:0:
184,112,71490,6,0,L|132:184,1,76.1249976768494
200,220,72128,2,0,L|148:292,1,76.1249976768494
232,288,72766,2,0,P|266:257|277:207,2,76.1249976768494,2|8|0,0:0|0:0|0:0,0:0:0:0:
300,172,74043,6,0,P|288:128|316:104,2,76.1249976768494,0|8|0,0:0|0:0|0:0,0:0:0:0:
348,232,75001,1,6,0:0:0:0:
276,260,75320,2,0,P|236:272|204:248,2,76.1249976768494,0|0|8,0:0|0:0|0:0,0:0:0:0:
340,220,76277,1,0,0:0:0:0:
272,188,76596,6,0,P|244:152|252:116,2,76.1249976768494,8|0|0,0:0|0:0|0:0,0:0:0:0:
220,240,77554,2,0,P|176:196|172:164,2,76.1249976768494,8|0|0,0:0|0:0|0:0,0:0:0:0:
296,240,78511,2,0,P|345:223|352:179,1,76.1249976768494,8|0,0:0|0:0,0:0:0:0:
308,144,79149,2,0,L|256:144,2,38.0624988384247
320,68,79788,2,0,P|280:52|240:80,1,76.1249976768494
208,124,80426,6,4,B|175:159|175:159|188:168|188:168|155:204,2,108.75,4|6|14,0:0|0:0|0:0,0:0:0:0:
296,104,81703,6,0,P|308:152|352:176,2,90.625,0|10|0,0:0|0:0|0:0,0:0:0:0:
208,124,82660,1,0,0:0:0:0:
248,204,82979,2,0,L|280:244,2,45.3125,0|8|8,0:0|0:0|0:0,0:0:0:0:
160,228,83618,2,0,L|128:268,2,45.3125,0|8|8,0:0|0:0|0:0,0:0:0:0:
232,284,84256,6,0,B|272:296|272:296|276:284|276:284|320:296,2,90.625,0|2|8,0:0|0:0|0:0,0:0:0:0:
148,248,85213,1,0,0:0:0:0:
128,160,85532,2,0,L|156:120,2,45.3125,0|8|8,0:0|0:0|0:0,0:0:0:0:
148,248,86171,1,0,0:0:0:0:
324,200,86809,6,0,L|272:124,2,90.625,2|0|0,0:0|0:0|0:0,0:0:0:0:
244,240,87766,2,0,L|188:142,2,90.625,2|0|0,0:0|0:0|0:0,0:0:0:0:
168,288,88724,2,0,L|122:198,1,90.625,8|0,0:0|0:0,0:0:0:0:
84,128,89362,6,0,P|144:104|192:96,1,90.625,2|0,0:0|0:0,0:0:0:0:
260,84,90001,2,0,P|323:71|368:92,1,90.625
424,128,90639,6,4,P|456:160|440:264,2,135.9375,4|6|12,0:0|0:0|0:0,0:0:0:0:
348,104,91915,6,0,P|288:84|256:92,1,79.7500024337769
196,104,92554,2,0,P|148:148|147:183,1,79.7500024337769
156,236,93192,2,0,L|180:276,2,39.8750012168885,8|8|0,0:0|0:0|0:0,0:0:0:0:
145,159,93830,1,0,0:0:0:0:
264,80,94469,6,0,P|304:88|336:124,1,79.7500024337769
364,188,95107,2,0,P|378:226|364:272,1,79.7500024337769
308,312,95745,2,0,L|264:328,2,39.8750012168885,8|8|0,0:0|0:0|0:0,0:0:0:0:
370,263,96383,1,0,0:0:0:0:
332,108,97022,6,2,B|312:168|296:200|272:232|248:256,1,159.500004867554
176,256,97979,1,0,0:0:0:0:
112,208,98298,2,2,B|132:148|148:116|172:84|196:60,1,159.500004867554
268,72,99256,1,0,0:0:0:0:
244,148,99575,2,2,B|304:168|336:184|368:208|392:232,1,159.500004867554
328,280,100532,1,0,0:0:0:0:
252,256,100852,2,2,B|203:297|173:316|136:331|103:339,1,159.500004867554
104,256,101809,1,0,0:0:0:0:
256,192,102128,12,2,107235,0:0:0:0:
