osu file format v14

[General]
AudioFilename: 0x10c_C418.mp3
AudioLeadIn: 0
PreviewTime: 51064
Countdown: 0
SampleSet: Normal
StackLeniency: 0.7
Mode: 1
LetterboxInBreaks: 1
WidescreenStoryboard: 1

[Editor]
Bookmarks: 9574,40852,51064,61277,71487,81703
DistanceSpacing: 1
BeatDivisor: 4
GridSize: 4
TimelineZoom: 1.6

[Metadata]
Title:0x10c
TitleUnicode:0x10c
Artist:C418
ArtistUnicode:C418
Creator:sxy62146214
Version:Muzukashii
Source:0x10c
Tags:C418 Sadness resem last game Notch black Mojang sxy62146214 cyxw SkeletonXB MEGAtive
BeatmapID:1089585
BeatmapSetID:480034

[Difficulty]
HPDrainRate:7
CircleSize:2
OverallDifficulty:7
ApproachRate:8
SliderMultiplier:2.25
SliderTickRate:1

[Events]
//Background and Video events
0,0,"BG.png",0,0
//Break Periods
//Storyboard Layer 0 (Background)
//Storyboard Layer 1 (Fail)
//Storyboard Layer 2 (Pass)
//Storyboard Layer 3 (Foreground)
//Storyboard Sound Samples

[TimingPoints]
1,638.297872340426,4,1,0,30,1,0
30639,-90.9090909090909,4,1,0,35,0,0
40852,-90.9090909090909,4,1,0,40,0,0
51064,-76.9230769230769,4,1,0,45,0,0
61277,-90.9090909090909,4,1,0,50,0,0
62554,-76.9230769230769,4,1,0,55,0,0
63830,-90.9090909090909,4,1,0,50,0,0
65107,-76.9230769230769,4,1,0,55,0,0
66383,-90.9090909090909,4,1,0,55,0,0
67660,-76.9230769230769,4,1,0,60,0,0
71490,-66.6666666666667,4,1,0,65,0,1
72766,-76.9230769230769,4,1,0,60,0,1
74043,-66.6666666666667,4,1,0,65,0,1
75320,-76.9230769230769,4,1,0,60,0,1
76596,-66.6666666666667,4,1,0,65,0,1
77873,-76.9230769230769,4,1,0,60,0,1
79149,-66.6666666666667,4,1,0,65,0,1
80426,-100,4,1,0,50,0,0
81703,-66.6666666666667,4,1,0,65,0,1
82979,-76.9230769230769,4,1,0,60,0,1
84256,-66.6666666666667,4,1,0,65,0,1
85532,-76.9230769230769,4,1,0,60,0,1
86809,-66.6666666666667,4,1,0,65,0,1
88086,-76.9230769230769,4,1,0,60,0,1
89362,-66.6666666666667,4,1,0,65,0,1
91915,-83.3333333333333,4,1,0,60,0,1
97022,-100,4,1,0,55,0,0
97660,-100,4,1,0,50,0,0
98298,-100,4,1,0,45,0,0
98937,-100,4,1,0,40,0,0
99575,-133.333333333333,4,1,0,35,0,0
100213,-133.333333333333,4,1,0,30,0,0
100852,-133.333333333333,4,1,0,25,0,0
101490,-133.333333333333,4,1,0,20,0,0
102128,-200,4,1,0,8,0,0

[Colours]
Combo1 : 255,255,255
Combo2 : 31,31,31
Combo3 : 63,63,63
Combo4 : 95,95,95
Combo5 : 127,127,127
Combo6 : 159,159,159
Combo7 : 191,191,191
Combo8 : 191,191,191

[HitObjects]
256,68,9575,5,4,0:0:0:0:
256,68,10213,1,6,0:0:0:0:
256,68,10373,1,0,0:0:0:0:
256,68,10532,1,2,0:0:0:0:
256,68,10692,1,0,0:0:0:0:
256,68,10852,1,6,0:0:0:0:
256,68,11171,1,4,0:0:0:0:
256,68,11490,1,6,0:0:0:0:
256,68,11649,1,0,0:0:0:0:
256,68,11809,1,2,0:0:0:0:
256,68,11969,1,0,0:0:0:0:
256,68,12128,1,6,0:0:0:0:
256,68,12447,1,0,0:0:0:0:
256,68,12766,1,6,0:0:0:0:
256,68,12926,1,0,0:0:0:0:
256,68,13086,1,2,0:0:0:0:
256,68,13245,1,2,0:0:0:0:
256,68,13405,1,2,0:0:0:0:
256,68,13724,1,0,0:0:0:0:
256,68,14043,1,0,0:0:0:0:
256,68,14203,1,2,0:0:0:0:
256,68,14362,1,0,0:0:0:0:
256,68,14681,1,2,0:0:0:0:
256,68,14841,1,0,0:0:0:0:
256,68,15001,1,2,0:0:0:0:
256,68,15320,1,6,0:0:0:0:
256,68,15479,1,2,0:0:0:0:
256,68,15639,1,0,0:0:0:0:
256,68,15798,1,2,0:0:0:0:
256,68,15958,1,8,0:0:0:0:
256,68,16118,1,0,0:0:0:0:
256,68,16277,1,10,0:0:0:0:
256,68,16596,1,4,0:0:0:0:
256,68,16756,1,0,0:0:0:0:
256,68,16915,1,2,0:0:0:0:
256,68,17075,1,4,0:0:0:0:
256,68,17235,1,8,0:0:0:0:
256,68,17394,1,4,0:0:0:0:
256,68,17554,1,2,0:0:0:0:
256,68,17873,1,6,0:0:0:0:
256,68,18032,1,0,0:0:0:0:
256,68,18192,1,0,0:0:0:0:
256,68,18511,1,6,0:0:0:0:
256,68,18671,1,0,0:0:0:0:
256,68,18830,1,8,0:0:0:0:
256,68,19788,1,4,0:0:0:0:
256,68,20107,1,2,0:0:0:0:
256,68,20426,1,4,0:0:0:0:
256,68,20586,1,0,0:0:0:0:
256,68,20745,1,2,0:0:0:0:
256,68,20905,1,2,0:0:0:0:
256,68,21064,1,0,0:0:0:0:
256,68,21224,1,2,0:0:0:0:
256,68,21383,1,0,0:0:0:0:
256,68,21703,1,4,0:0:0:0:
256,68,21862,1,2,0:0:0:0:
256,68,22022,1,2,0:0:0:0:
256,68,22181,1,4,0:0:0:0:
256,68,22341,1,0,0:0:0:0:
256,68,22501,1,2,0:0:0:0:
256,68,22660,1,4,0:0:0:0:
256,68,22979,1,4,0:0:0:0:
256,68,23139,1,0,0:0:0:0:
256,68,23298,1,0,0:0:0:0:
256,68,23618,1,6,0:0:0:0:
256,68,23777,1,0,0:0:0:0:
256,68,23937,1,2,0:0:0:0:
256,68,24415,1,2,0:0:0:0:
256,68,24575,1,4,0:0:0:0:
256,68,24735,1,2,0:0:0:0:
256,68,24894,1,8,0:0:0:0:
256,68,25054,1,2,0:0:0:0:
256,68,25213,1,4,0:0:0:0:
256,68,25373,1,0,0:0:0:0:
256,68,25532,1,2,0:0:0:0:
256,68,26171,1,2,0:0:0:0:
256,68,26809,1,4,0:0:0:0:
256,68,26969,1,2,0:0:0:0:
256,68,27128,1,2,0:0:0:0:
256,68,27288,1,4,0:0:0:0:
256,68,27447,1,2,0:0:0:0:
256,68,27607,1,0,0:0:0:0:
256,68,27766,1,4,0:0:0:0:
256,68,28086,1,4,0:0:0:0:
256,68,28245,1,2,0:0:0:0:
256,68,28405,1,0,0:0:0:0:
256,68,28724,1,4,0:0:0:0:
256,68,28883,1,2,0:0:0:0:
256,68,29043,1,0,0:0:0:0:
256,68,29362,1,4,0:0:0:0:
256,68,29522,1,2,0:0:0:0:
256,68,29681,1,4,0:0:0:0:
256,68,29841,1,0,0:0:0:0:
256,68,30001,1,0,0:0:0:0:
256,68,30160,1,2,0:0:0:0:
256,68,30320,1,4,0:0:0:0:
256,68,30639,1,4,0:0:0:0:
256,68,30798,1,0,0:0:0:0:
256,68,30958,1,2,0:0:0:0:
256,68,31118,1,0,0:0:0:0:
256,68,31277,1,2,0:0:0:0:
256,68,31596,1,4,0:0:0:0:
256,68,31756,1,2,0:0:0:0:
256,68,31915,1,0,0:0:0:0:
256,68,32075,1,4,0:0:0:0:
256,68,32235,1,2,0:0:0:0:
256,68,32554,1,0,0:0:0:0:
256,68,32713,1,6,0:0:0:0:
256,68,33032,1,2,0:0:0:0:
256,68,33192,1,4,0:0:0:0:
256,68,33352,1,0,0:0:0:0:
256,68,33511,1,2,0:0:0:0:
256,68,33671,1,0,0:0:0:0:
256,68,33830,1,2,0:0:0:0:
256,68,34149,1,4,0:0:0:0:
256,68,34309,1,2,0:0:0:0:
256,68,34469,1,0,0:0:0:0:
256,68,34788,1,6,0:0:0:0:
256,68,34947,1,0,0:0:0:0:
256,68,35107,1,6,0:0:0:0:
256,68,35426,1,2,0:0:0:0:
256,68,35745,1,4,0:0:0:0:
256,68,35905,1,2,0:0:0:0:
256,68,36064,1,8,0:0:0:0:
256,68,36224,1,0,0:0:0:0:
256,68,36383,1,0,0:0:0:0:
256,68,36703,1,8,0:0:0:0:
256,68,37022,1,4,0:0:0:0:
256,68,37181,1,0,0:0:0:0:
256,68,37341,1,2,0:0:0:0:
256,68,37501,1,12,0:0:0:0:
256,68,37820,1,0,0:0:0:0:
256,68,37979,1,6,0:0:0:0:
256,68,38298,1,4,0:0:0:0:
256,68,38458,1,2,0:0:0:0:
256,68,38618,1,2,0:0:0:0:
256,68,38777,1,2,0:0:0:0:
256,68,39096,1,0,0:0:0:0:
256,68,39256,1,6,0:0:0:0:
256,68,40532,1,2,0:0:0:0:
256,68,40852,1,4,0:0:0:0:
256,68,41011,1,0,0:0:0:0:
256,68,41171,1,2,0:0:0:0:
256,68,41330,1,0,0:0:0:0:
256,68,41490,1,2,0:0:0:0:
256,68,41809,1,12,0:0:0:0:
256,68,42128,1,0,0:0:0:0:
256,68,42447,1,0,0:0:0:0:
256,68,42766,1,0,0:0:0:0:
256,68,43086,1,6,0:0:0:0:
256,68,43405,1,4,0:0:0:0:
256,68,43564,1,0,0:0:0:0:
256,68,43724,1,2,0:0:0:0:
256,68,43883,1,0,0:0:0:0:
256,68,44043,1,2,0:0:0:0:
256,68,44362,1,12,0:0:0:0:
256,68,44681,1,0,0:0:0:0:
256,68,45001,1,0,0:0:0:0:
256,68,45320,1,0,0:0:0:0:
256,68,45639,1,6,0:0:0:0:
256,68,45958,1,4,0:0:0:0:
256,68,46118,1,0,0:0:0:0:
256,68,46277,1,2,0:0:0:0:
256,68,46437,1,0,0:0:0:0:
256,68,46596,1,2,0:0:0:0:
256,68,46915,1,6,0:0:0:0:
256,68,47235,1,0,0:0:0:0:
256,68,47394,1,0,0:0:0:0:
256,68,47554,1,6,0:0:0:0:
256,68,47713,1,0,0:0:0:0:
256,68,47873,1,6,0:0:0:0:
256,68,48192,1,0,0:0:0:0:
256,68,48511,1,6,0:0:0:0:
256,68,48671,1,0,0:0:0:0:
256,68,48830,1,0,0:0:0:0:
256,68,48990,1,0,0:0:0:0:
256,68,49149,1,6,0:0:0:0:
256,68,49469,1,6,0:0:0:0:
256,68,49788,1,4,0:0:0:0:
256,68,49947,1,2,0:0:0:0:
256,68,50107,1,2,0:0:0:0:
256,68,50266,1,4,0:0:0:0:
256,68,50426,1,2,0:0:0:0:
256,68,50586,1,2,0:0:0:0:
256,68,50745,1,4,0:0:0:0:
256,68,50905,1,2,0:0:0:0:
256,68,51063,1,4,0:0:0:0:
256,68,51224,1,2,0:0:0:0:
256,68,51382,1,2,0:0:0:0:
256,68,51543,1,2,0:0:0:0:
256,68,51704,1,0,0:0:0:0:
256,68,52022,1,4,0:0:0:0:
256,68,52341,1,2,0:0:0:0:
256,68,52501,1,0,0:0:0:0:
256,68,52660,1,0,0:0:0:0:
256,68,52820,1,2,0:0:0:0:
256,68,52979,1,4,0:0:0:0:
256,68,53139,1,2,0:0:0:0:
256,68,53298,1,0,0:0:0:0:
256,68,53458,1,2,0:0:0:0:
256,68,53618,1,4,0:0:0:0:
256,68,53777,1,2,0:0:0:0:
256,68,53937,1,2,0:0:0:0:
256,68,54097,1,2,0:0:0:0:
256,68,54257,1,0,0:0:0:0:
256,68,54415,1,0,0:0:0:0:
256,68,54576,1,6,0:0:0:0:
256,68,54894,1,2,0:0:0:0:
256,68,55054,1,0,0:0:0:0:
256,68,55213,1,0,0:0:0:0:
256,68,55372,1,2,0:0:0:0:
256,68,55532,1,4,0:0:0:0:
256,68,55691,1,2,0:0:0:0:
256,68,55851,1,0,0:0:0:0:
256,68,56010,1,2,0:0:0:0:
256,68,56171,1,4,0:0:0:0:
256,68,56331,1,2,0:0:0:0:
256,68,56490,1,2,0:0:0:0:
256,68,56650,1,2,0:0:0:0:
256,68,56810,1,0,0:0:0:0:
256,68,57129,1,4,0:0:0:0:
256,68,57447,1,8,0:0:0:0:
256,68,57607,1,0,0:0:0:0:
256,68,57766,1,0,0:0:0:0:
256,68,57925,1,2,0:0:0:0:
256,68,58085,1,4,0:0:0:0:
256,68,58244,1,2,0:0:0:0:
256,68,58405,1,4,0:0:0:0:
256,68,58564,1,2,0:0:0:0:
256,68,58725,1,4,0:0:0:0:
256,68,58883,1,2,0:0:0:0:
256,68,59043,1,2,0:0:0:0:
256,68,59203,1,2,0:0:0:0:
256,68,59362,1,0,0:0:0:0:
256,68,59522,1,2,0:0:0:0:
256,68,59681,1,4,0:0:0:0:
256,68,59841,1,2,0:0:0:0:
256,68,60001,1,4,0:0:0:0:
256,68,60160,1,2,0:0:0:0:
256,68,60320,1,2,0:0:0:0:
256,68,60479,1,4,0:0:0:0:
256,68,60639,1,2,0:0:0:0:
256,68,60798,1,2,0:0:0:0:
256,68,60958,1,4,0:0:0:0:
256,68,61118,1,2,0:0:0:0:
256,68,61277,1,0,0:0:0:0:
256,68,61437,1,2,0:0:0:0:
256,68,61596,1,2,0:0:0:0:
256,68,61756,1,2,0:0:0:0:
256,68,61915,1,0,0:0:0:0:
256,68,62075,1,2,0:0:0:0:
256,68,62235,1,4,0:0:0:0:
256,68,62554,1,2,0:0:0:0:
256,68,62713,1,0,0:0:0:0:
256,68,62873,1,0,0:0:0:0:
256,68,63032,1,2,0:0:0:0:
256,68,63192,1,4,0:0:0:0:
256,68,63352,1,2,0:0:0:0:
256,68,63511,1,0,0:0:0:0:
256,68,63671,1,2,0:0:0:0:
256,68,63830,1,4,0:0:0:0:
256,68,63990,1,2,0:0:0:0:
256,68,64149,1,2,0:0:0:0:
256,68,64309,1,2,0:0:0:0:
256,68,64469,1,0,0:0:0:0:
256,68,64628,1,8,0:0:0:0:
256,68,64788,1,4,0:0:0:0:
256,68,65108,1,2,0:0:0:0:
256,68,65266,1,0,0:0:0:0:
256,68,65427,1,0,0:0:0:0:
256,68,65586,1,2,0:0:0:0:
256,68,65745,1,4,0:0:0:0:
256,68,65905,1,2,0:0:0:0:
256,68,66064,1,0,0:0:0:0:
256,68,66224,1,2,0:0:0:0:
256,68,66383,1,4,0:0:0:0:
256,68,66543,1,2,0:0:0:0:
256,68,66703,1,2,0:0:0:0:
256,68,66862,1,2,0:0:0:0:
256,68,67022,1,0,0:0:0:0:
256,68,67181,1,0,0:0:0:0:
256,68,67341,1,4,0:0:0:0:
256,68,67660,1,2,0:0:0:0:
256,68,67820,1,0,0:0:0:0:
256,68,67979,1,0,0:0:0:0:
256,68,68139,1,2,0:0:0:0:
256,68,68298,1,4,0:0:0:0:
256,68,68458,1,2,0:0:0:0:
256,68,68618,1,4,0:0:0:0:
256,68,68777,1,2,0:0:0:0:
256,68,68937,1,4,0:0:0:0:
256,68,69096,1,0,0:0:0:0:
256,68,69256,1,4,0:0:0:0:
256,68,69415,1,0,0:0:0:0:
256,68,69575,1,4,0:0:0:0:
256,68,69735,1,0,0:0:0:0:
256,68,69894,1,4,0:0:0:0:
256,68,70054,1,0,0:0:0:0:
256,68,70213,1,4,0:0:0:0:
256,68,70373,1,2,0:0:0:0:
256,68,70532,1,2,0:0:0:0:
256,68,70692,1,4,0:0:0:0:
256,68,70852,1,2,0:0:0:0:
256,68,71011,1,2,0:0:0:0:
256,68,71171,1,4,0:0:0:0:
256,68,71330,1,2,0:0:0:0:
256,68,71490,1,4,0:0:0:0:
256,68,71649,1,2,0:0:0:0:
256,68,71809,1,2,0:0:0:0:
256,68,71969,1,0,0:0:0:0:
256,68,72128,1,4,0:0:0:0:
256,68,72288,1,2,0:0:0:0:
256,68,72447,1,4,0:0:0:0:
256,68,72766,1,8,0:0:0:0:
256,68,72926,1,0,0:0:0:0:
256,68,73086,1,0,0:0:0:0:
256,68,73245,1,8,0:0:0:0:
256,68,73405,1,6,0:0:0:0:
256,68,73564,1,0,0:0:0:0:
256,68,73724,1,0,0:0:0:0:
256,68,73883,1,2,0:0:0:0:
256,68,74043,1,4,0:0:0:0:
256,68,74202,1,2,0:0:0:0:
256,68,74362,1,2,0:0:0:0:
256,68,74522,1,0,0:0:0:0:
256,68,74681,1,4,0:0:0:0:
256,68,74841,1,2,0:0:0:0:
256,68,75000,1,4,0:0:0:0:
256,68,75320,1,8,0:0:0:0:
256,68,75479,1,0,0:0:0:0:
256,68,75639,1,0,0:0:0:0:
256,68,75798,1,8,0:0:0:0:
256,68,75958,1,4,0:0:0:0:
256,68,76117,1,8,0:0:0:0:
256,68,76277,1,2,0:0:0:0:
256,68,76436,1,2,0:0:0:0:
256,68,76596,1,4,0:0:0:0:
256,68,76755,1,2,0:0:0:0:
256,68,76915,1,2,0:0:0:0:
256,68,77075,1,0,0:0:0:0:
256,68,77234,1,4,0:0:0:0:
256,68,77394,1,2,0:0:0:0:
256,68,77553,1,4,0:0:0:0:
256,68,77873,1,8,0:0:0:0:
256,68,78032,1,0,0:0:0:0:
256,68,78192,1,2,0:0:0:0:
256,68,78351,1,0,0:0:0:0:
256,68,78511,1,6,0:0:0:0:
256,68,78670,1,0,0:0:0:0:
256,68,78830,1,6,0:0:0:0:
256,68,78989,1,2,0:0:0:0:
256,68,79149,1,4,0:0:0:0:
256,68,79309,1,2,0:0:0:0:
256,68,79469,1,2,0:0:0:0:
256,68,79628,1,2,0:0:0:0:
256,68,79788,1,4,0:0:0:0:
256,68,80107,1,4,0:0:0:0:
256,68,80266,1,2,0:0:0:0:
256,68,80426,1,2,0:0:0:0:
256,68,80586,1,4,0:0:0:0:
256,68,80746,1,2,0:0:0:0:
256,68,80905,1,6,0:0:0:0:
256,68,81065,1,0,0:0:0:0:
256,68,81224,1,2,0:0:0:0:
256,68,81384,1,4,0:0:0:0:
256,68,81543,1,2,0:0:0:0:
256,68,81703,1,4,0:0:0:0:
256,68,81862,1,2,0:0:0:0:
256,68,82022,1,2,0:0:0:0:
256,68,82182,1,0,0:0:0:0:
256,68,82341,1,4,0:0:0:0:
256,68,82501,1,2,0:0:0:0:
256,68,82660,1,4,0:0:0:0:
256,68,82979,1,8,0:0:0:0:
256,68,83139,1,0,0:0:0:0:
256,68,83298,1,0,0:0:0:0:
256,68,83458,1,8,0:0:0:0:
256,68,83618,1,6,0:0:0:0:
256,68,83777,1,0,0:0:0:0:
256,68,83937,1,0,0:0:0:0:
256,68,84096,1,2,0:0:0:0:
256,68,84256,1,4,0:0:0:0:
256,68,84415,1,2,0:0:0:0:
256,68,84575,1,2,0:0:0:0:
256,68,84735,1,0,0:0:0:0:
256,68,84894,1,4,0:0:0:0:
256,68,85054,1,2,0:0:0:0:
256,68,85213,1,4,0:0:0:0:
256,68,85532,1,8,0:0:0:0:
256,68,85692,1,0,0:0:0:0:
256,68,85852,1,0,0:0:0:0:
256,68,86011,1,8,0:0:0:0:
256,68,86171,1,4,0:0:0:0:
256,68,86330,1,8,0:0:0:0:
256,68,86490,1,2,0:0:0:0:
256,68,86649,1,2,0:0:0:0:
256,68,86809,1,4,0:0:0:0:
256,68,86968,1,2,0:0:0:0:
256,68,87128,1,2,0:0:0:0:
256,68,87288,1,0,0:0:0:0:
256,68,87447,1,4,0:0:0:0:
256,68,87607,1,2,0:0:0:0:
256,68,87766,1,4,0:0:0:0:
256,68,88086,1,8,0:0:0:0:
256,68,88245,1,0,0:0:0:0:
256,68,88405,1,2,0:0:0:0:
256,68,88564,1,0,0:0:0:0:
256,68,88724,1,6,0:0:0:0:
256,68,88883,1,0,0:0:0:0:
256,68,89043,1,6,0:0:0:0:
256,68,89202,1,2,0:0:0:0:
256,68,89362,1,4,0:0:0:0:
256,68,89521,1,2,0:0:0:0:
256,68,89681,1,2,0:0:0:0:
256,68,89841,1,2,0:0:0:0:
256,68,90001,1,4,0:0:0:0:
256,68,90320,1,2,0:0:0:0:
256,68,90479,1,2,0:0:0:0:
256,68,90639,1,2,0:0:0:0:
256,68,90798,1,4,0:0:0:0:
256,68,90958,1,2,0:0:0:0:
256,68,91118,1,2,0:0:0:0:
256,68,91277,1,4,0:0:0:0:
256,68,91437,1,2,0:0:0:0:
256,68,91596,1,4,0:0:0:0:
256,68,91756,1,2,0:0:0:0:
256,68,91915,1,4,0:0:0:0:
256,68,92075,1,2,0:0:0:0:
256,68,92235,1,2,0:0:0:0:
256,68,92394,1,2,0:0:0:0:
256,68,92554,1,4,0:0:0:0:
256,68,92714,1,2,0:0:0:0:
256,68,92874,1,0,0:0:0:0:
256,68,93192,1,4,0:0:0:0:
256,68,93352,1,2,0:0:0:0:
256,68,93512,1,0,0:0:0:0:
256,68,93671,1,0,0:0:0:0:
256,68,93830,1,2,0:0:0:0:
256,68,94469,1,4,0:0:0:0:
256,68,94629,1,2,0:0:0:0:
256,68,94789,1,2,0:0:0:0:
256,68,94948,1,2,0:0:0:0:
256,68,95107,1,4,0:0:0:0:
256,68,95267,1,2,0:0:0:0:
256,68,95427,1,0,0:0:0:0:
256,68,95745,1,4,0:0:0:0:
256,68,95905,1,2,0:0:0:0:
256,68,96065,1,2,0:0:0:0:
256,68,96224,1,2,0:0:0:0:
256,68,96383,1,6,0:0:0:0:
256,68,97022,1,0,0:0:0:0:
256,68,97182,1,2,0:0:0:0:
256,68,97342,1,2,0:0:0:0:
256,68,97501,1,2,0:0:0:0:
256,68,97660,1,0,0:0:0:0:
256,68,97820,1,2,0:0:0:0:
256,68,97980,1,2,0:0:0:0:
256,68,98139,1,2,0:0:0:0:
256,68,98298,1,0,0:0:0:0:
256,68,98458,1,2,0:0:0:0:
256,68,98618,1,2,0:0:0:0:
256,68,98777,1,2,0:0:0:0:
256,68,98937,1,0,0:0:0:0:
256,68,99097,1,2,0:0:0:0:
256,68,99257,1,2,0:0:0:0:
256,68,99416,1,2,0:0:0:0:
256,68,99575,1,0,0:0:0:0:
256,68,99735,1,2,0:0:0:0:
256,68,99895,1,2,0:0:0:0:
256,68,100054,1,2,0:0:0:0:
256,68,100213,1,0,0:0:0:0:
256,68,100373,1,2,0:0:0:0:
256,68,100533,1,2,0:0:0:0:
256,68,100692,1,2,0:0:0:0:
256,68,100852,1,0,0:0:0:0:
256,68,101012,1,2,0:0:0:0:
256,68,101172,1,2,0:0:0:0:
256,68,101331,1,2,0:0:0:0:
256,68,101490,1,0,0:0:0:0:
256,68,101650,1,2,0:0:0:0:
256,68,101810,1,2,0:0:0:0:
256,68,101969,1,2,0:0:0:0:
256,192,102128,12,0,107873,0:0:0:0:
