osu file format v14

[General]
AudioFilename: 0x10c_C418.mp3
AudioLeadIn: 0
PreviewTime: 51064
Countdown: 0
SampleSet: Normal
StackLeniency: 0.7
Mode: 1
LetterboxInBreaks: 1
WidescreenStoryboard: 1

[Editor]
Bookmarks: 9574,40852,51064,61277,71487,81703
DistanceSpacing: 1
BeatDivisor: 4
GridSize: 4
TimelineZoom: 1.2

[Metadata]
Title:0x10c
TitleUnicode:0x10c
Artist:C418
ArtistUnicode:C418
Creator:sxy62146214
Version:Kantan
Source:0x10c
Tags:C418 Sadness resem last game Notch black Mojang sxy62146214 cyxw SkeletonXB MEGAtive
BeatmapID:1033408
BeatmapSetID:480034

[Difficulty]
HPDrainRate:3
CircleSize:2.9
OverallDifficulty:2.5
ApproachRate:2.5
SliderMultiplier:1.4
SliderTickRate:2

[Events]
//Background and Video events
0,0,"BG.png",0,0
//Break Periods
//Storyboard Layer 0 (Background)
//Storyboard Layer 1 (Fail)
//Storyboard Layer 2 (Pass)
//Storyboard Layer 3 (Foreground)
//Storyboard Sound Samples

[TimingPoints]
1,638.297872340426,4,1,0,35,1,0
30639,-100,4,1,0,40,0,0
40852,-100,4,1,0,45,0,0
51064,-100,4,1,0,50,0,0
61277,-95.2380952380952,4,1,0,55,0,0
71490,-95.2380952380952,4,1,0,60,0,1
80426,-100,4,1,0,45,0,0
81703,-80,4,1,0,65,0,1
91915,-90.9090909090909,4,1,0,60,0,1
97022,-90.9090909090909,4,1,0,55,0,0
97660,-90.9090909090909,4,1,0,50,0,0
98298,-90.9090909090909,4,1,0,45,0,0
98937,-90.9090909090909,4,1,0,40,0,0
99575,-90.9090909090909,4,1,0,35,0,0
100213,-90.9090909090909,4,1,0,30,0,0
100852,-90.9090909090909,4,1,0,25,0,0
101490,-90.9090909090909,4,1,0,20,0,0
102128,-133.333333333333,4,1,0,10,0,0

[Colours]
Combo1 : 255,255,255
Combo2 : 31,31,31
Combo3 : 63,63,63
Combo4 : 95,95,95
Combo5 : 127,127,127
Combo6 : 159,159,159
Combo7 : 191,191,191
Combo8 : 191,191,191

[HitObjects]
243,126,9575,5,0,0:0:0:0:
244,126,10213,1,8,0:0:0:0:
244,126,11171,1,0,0:0:0:0:
244,126,11809,1,8,0:0:0:0:
244,126,12447,1,8,0:0:0:0:
245,125,12766,1,0,0:0:0:0:
245,125,13724,1,8,0:0:0:0:
245,125,14681,1,8,0:0:0:0:
245,125,15320,1,0,0:0:0:0:
245,125,16277,1,8,0:0:0:0:
299,195,16596,1,8,0:0:0:0:
246,125,17075,1,8,0:0:0:0:
246,125,17554,1,8,0:0:0:0:
246,125,17873,1,0,0:0:0:0:
247,124,18830,1,8,0:0:0:0:
248,124,19788,1,8,0:0:0:0:
248,124,20426,1,0,0:0:0:0:
250,123,21703,1,8,0:0:0:0:
250,123,22181,1,8,0:0:0:0:
250,123,22660,1,8,0:0:0:0:
250,123,22979,1,0,0:0:0:0:
311,208,23618,1,8,0:0:0:0:
250,123,23937,1,8,0:0:0:0:
378,225,24575,1,0,0:0:0:0:
376,296,25213,1,8,0:0:0:0:
376,296,25533,1,8,0:0:0:0:
376,296,26808,1,8,0:0:0:0:
376,296,27287,1,8,0:0:0:0:
376,296,27766,1,8,0:0:0:0:
376,296,28086,1,0,0:0:0:0:
376,296,29362,1,8,0:0:0:0:
376,296,30639,1,0,0:0:0:0:
376,296,31596,1,0,0:0:0:0:
376,296,32235,1,8,0:0:0:0:
376,296,32713,1,8,0:0:0:0:
376,296,33192,1,0,0:0:0:0:
376,296,34150,1,8,0:0:0:0:
376,296,35107,1,8,0:0:0:0:
376,296,35745,1,8,0:0:0:0:
376,296,37022,1,8,0:0:0:0:
376,296,37501,1,0,0:0:0:0:
376,296,37979,1,0,0:0:0:0:
376,296,38298,1,8,0:0:0:0:
376,296,40852,1,0,0:0:0:0:
376,296,41171,1,0,0:0:0:0:
376,296,41809,1,8,0:0:0:0:
376,296,42767,1,8,0:0:0:0:
376,296,43405,1,0,0:0:0:0:
376,296,43724,1,0,0:0:0:0:
376,296,44362,1,8,0:0:0:0:
376,296,45320,1,8,0:0:0:0:
376,296,45958,1,0,0:0:0:0:
376,296,46596,1,0,0:0:0:0:
376,296,46915,1,8,0:0:0:0:
376,296,47873,1,8,0:0:0:0:
376,296,48511,1,8,0:0:0:0:
376,296,49788,1,8,0:0:0:0:
376,296,50266,1,8,0:0:0:0:
376,296,50745,1,8,0:0:0:0:
376,296,51064,1,0,0:0:0:0:
376,296,51383,1,0,0:0:0:0:
376,296,51703,1,8,0:0:0:0:
376,296,52022,1,8,0:0:0:0:
376,296,52979,1,8,0:0:0:0:
376,296,53618,1,0,0:0:0:0:
376,296,53937,1,0,0:0:0:0:
376,296,54256,1,8,0:0:0:0:
376,296,54575,1,8,0:0:0:0:
376,296,55532,1,8,0:0:0:0:
376,296,56171,1,0,0:0:0:0:
376,296,57128,1,8,0:0:0:0:
376,296,58086,1,8,0:0:0:0:
376,296,58724,1,0,0:0:0:0:
376,296,59043,1,0,0:0:0:0:
376,296,59362,1,0,0:0:0:0:
376,296,59681,1,0,0:0:0:0:
376,296,60001,1,8,0:0:0:0:
376,296,60479,1,8,0:0:0:0:
376,296,60958,1,8,0:0:0:0:
376,296,61277,1,0,0:0:0:0:
376,296,61596,1,0,0:0:0:0:
376,296,61915,1,8,0:0:0:0:
376,296,62235,1,8,0:0:0:0:
376,296,63192,1,8,0:0:0:0:
376,296,63830,1,0,0:0:0:0:
376,296,64149,1,0,0:0:0:0:
376,296,64469,1,8,0:0:0:0:
376,296,64788,1,8,0:0:0:0:
376,296,65745,1,8,0:0:0:0:
376,296,66383,1,0,0:0:0:0:
376,296,66703,1,0,0:0:0:0:
376,296,67022,1,0,0:0:0:0:
376,296,67341,1,8,0:0:0:0:
376,296,67660,1,8,0:0:0:0:
376,296,67979,1,8,0:0:0:0:
376,296,68298,1,8,0:0:0:0:
376,296,68937,1,0,0:0:0:0:
376,296,69256,1,0,0:0:0:0:
376,296,69575,1,0,0:0:0:0:
376,296,69894,1,0,0:0:0:0:
376,296,70213,1,12,0:0:0:0:
376,296,70692,1,12,0:0:0:0:
376,296,71171,1,12,0:0:0:0:
376,296,71490,1,0,0:0:0:0:
376,296,71809,1,0,0:0:0:0:
376,296,72128,1,8,0:0:0:0:
376,296,72447,1,12,0:0:0:0:
376,296,73405,1,8,0:0:0:0:
376,296,74043,1,0,0:0:0:0:
376,296,74362,1,4,0:0:0:0:
376,296,74681,1,8,0:0:0:0:
376,296,75001,1,10,0:0:0:0:
376,296,75958,1,8,0:0:0:0:
376,296,76596,1,0,0:0:0:0:
376,296,76915,1,0,0:0:0:0:
376,296,77235,1,8,0:0:0:0:
376,296,77554,1,0,0:0:0:0:
376,296,77873,1,0,0:0:0:0:
376,296,78193,1,8,0:0:0:0:
236,148,78511,1,8,0:0:0:0:
236,148,79149,1,0,0:0:0:0:
236,148,79469,1,0,0:0:0:0:
236,148,79788,1,0,0:0:0:0:
236,148,80107,1,0,0:0:0:0:
236,148,80426,1,12,0:0:0:0:
376,296,80905,1,12,0:0:0:0:
376,296,81383,1,12,0:0:0:0:
376,296,81703,1,0,0:0:0:0:
376,296,82022,1,0,0:0:0:0:
376,296,82341,1,8,0:0:0:0:
376,296,82660,1,12,0:0:0:0:
376,296,83618,1,8,0:0:0:0:
376,296,84256,1,0,0:0:0:0:
376,296,84575,1,4,0:0:0:0:
376,296,84894,1,8,0:0:0:0:
376,296,85213,1,10,0:0:0:0:
376,296,86171,1,8,0:0:0:0:
376,296,86809,1,0,0:0:0:0:
376,296,87128,1,0,0:0:0:0:
376,296,87447,1,2,0:0:0:0:
376,296,87766,1,8,0:0:0:0:
376,296,88086,1,0,0:0:0:0:
376,296,88405,1,8,0:0:0:0:
376,296,88724,1,8,0:0:0:0:
376,296,89362,1,0,0:0:0:0:
376,296,89681,1,0,0:0:0:0:
376,296,90001,1,0,0:0:0:0:
376,296,90320,1,0,0:0:0:0:
376,296,90639,1,12,0:0:0:0:
376,296,91118,1,12,0:0:0:0:
376,296,91596,1,12,0:0:0:0:
376,296,91915,1,0,0:0:0:0:
376,296,92554,1,8,0:0:0:0:
376,296,93192,1,8,0:0:0:0:
376,296,93831,1,8,0:0:0:0:
376,296,94469,1,0,0:0:0:0:
376,296,95107,1,8,0:0:0:0:
376,296,95745,1,8,0:0:0:0:
376,296,96384,1,8,0:0:0:0:
376,296,97022,1,0,0:0:0:0:
376,296,97660,1,8,0:0:0:0:
376,296,98298,1,8,0:0:0:0:
376,296,98937,1,8,0:0:0:0:
376,296,99575,1,0,0:0:0:0:
376,296,100213,1,8,0:0:0:0:
376,296,100852,1,8,0:0:0:0:
376,296,101490,1,8,0:0:0:0:
256,192,102128,12,2,107873,0:0:0:0:
