osu file format v14

[General]
AudioFilename: 0x10c_C418.mp3
AudioLeadIn: 0
PreviewTime: 51064
Countdown: 0
SampleSet: Normal
StackLeniency: 0.7
Mode: 0
LetterboxInBreaks: 1
WidescreenStoryboard: 1

[Editor]
Bookmarks: 9574,40852,51064,61277,65426,71487,81703
DistanceSpacing: 1.5
BeatDivisor: 8
GridSize: 4
TimelineZoom: 2.1

[Metadata]
Title:0x10c
TitleUnicode:0x10c
Artist:C418
ArtistUnicode:C418
Creator:sxy62146214
Version:Insane
Source:0x10c
Tags:C418 Sadness resem last game Notch black Mojang sxy62146214 cyxw SkeletonXB MEGAtive
BeatmapID:1095008
BeatmapSetID:480034

[Difficulty]
HPDrainRate:7.5
CircleSize:4
OverallDifficulty:8
ApproachRate:8
SliderMultiplier:2.1
SliderTickRate:2

[Events]
//Background and Video events
0,0,"Insane BG.png",0,0
//Break Periods
//Storyboard Layer 0 (Background)
//Storyboard Layer 1 (Fail)
//Storyboard Layer 2 (Pass)
//Storyboard Layer 3 (Foreground)
//Storyboard Sound Samples

[TimingPoints]
1,638.297872340426,4,2,0,25,1,0
9575,-100,4,2,0,15,0,0
10213,-100,4,2,0,35,0,0
15160,-100,4,2,0,15,0,0
15320,-100,4,2,0,35,0,0
18990,-100,4,2,0,15,0,0
19070,-100,4,2,0,30,0,0
20426,-100,4,2,0,40,0,0
35586,-100,4,2,0,20,0,0
35665,-100,4,2,0,40,0,0
39575,-100,4,2,0,30,0,0
40692,-100,4,2,0,20,0,0
40772,-100,4,2,0,30,0,0
40852,-100,4,2,0,45,0,0
49788,-200,4,2,0,50,0,0
51064,-100,4,2,0,55,0,0
61118,-100,4,2,4,60,0,0
61277,-83.3333333333333,4,2,1,60,0,0
62554,-83.3333333333333,4,2,0,60,0,0
63830,-83.3333333333333,4,2,1,60,0,0
65107,-83.3333333333333,4,2,4,60,0,0
66383,-83.3333333333333,4,1,0,65,0,0
67022,-83.3333333333333,4,2,4,65,0,0
67181,-83.3333333333333,4,1,0,60,0,0
67979,-83.3333333333333,4,2,1,60,0,0
68219,-83.3333333333333,4,1,0,60,0,0
68937,-83.3333333333333,4,2,4,60,0,0
69256,-83.3333333333333,4,1,0,60,0,0
70612,-83.3333333333333,4,2,1,60,0,0
70852,-83.3333333333333,4,1,0,60,0,0
71490,-83.3333333333333,4,1,0,65,0,1
77235,-83.3333333333333,4,2,4,65,0,1
77474,-83.3333333333333,4,1,0,65,0,1
78192,-83.3333333333333,4,2,1,65,0,1
78511,-50,4,2,4,65,0,1
78830,-83.3333333333333,4,1,0,65,0,1
80426,-200,4,1,0,50,0,0
81703,-66.6666666666667,4,1,0,65,0,1
91915,-76.9230769230769,4,1,0,63,0,1
94469,-76.9230769230769,4,1,0,60,0,1
97022,-76.9230769230769,4,1,0,55,0,1
97660,-76.9230769230769,4,1,0,50,0,1
98298,-76.9230769230769,4,1,0,45,0,1
98937,-76.9230769230769,4,1,0,40,0,1
99575,-76.9230769230769,4,1,0,35,0,1
100213,-76.9230769230769,4,1,0,30,0,1
100852,-76.9230769230769,4,1,0,25,0,1
101490,-76.9230769230769,4,1,0,20,0,1
102128,-133.333333333333,4,1,0,10,0,0

[Colours]
Combo1 : 255,255,255
Combo2 : 31,31,31
Combo3 : 63,63,63
Combo4 : 95,95,95
Combo5 : 127,127,127
Combo6 : 159,159,159
Combo7 : 191,191,191
Combo8 : 191,191,191

[HitObjects]
136,184,1,6,0,L|112:79,1,105
156,212,639,2,0,L|184:86,1,105
206,98,1277,1,8,0:0:0:0:
382,70,2554,2,0,B|315:99|267:282|387:160|233:95|182:181|190:264|247:329|357:325,1,420
106,256,5107,6,0,P|74:238|57:161,1,105
120,189,5745,2,0,L|215:122,1,105
229,136,6383,1,8,0:0:0:0:
230,204,7660,2,0,B|273:189|298:164|307:129|274:94|274:94|318:112|358:116|399:88|412:45|412:45|421:77|455:121|492:124,1,420
255,192,9575,5,0,0:0:0:0:
255,192,9894,1,0,0:0:0:0:
114,235,10213,6,0,L|99:163,1,52.5
141,204,10532,2,0,L|151:140,1,52.5
220,138,10852,2,0,P|201:102|179:89,2,52.5,0|0|8,0:0|0:0|0:0,0:0:0:0:
311,265,11490,6,0,P|302:215|309:195,1,52.5
369,231,11809,2,0,L|403:224,2,26.25
283,327,12128,2,0,P|319:332|354:322,2,52.5,0|0|8,0:0|0:0|0:0,0:0:0:0:
137,204,12766,6,0,L|120:162,4,26.25
117,265,13405,2,0,P|158:265|185:249,2,52.5,0|0|8,0:0|0:0|0:0,0:0:0:0:
227,206,14043,5,0,0:0:0:0:
327,122,14203,1,8,0:0:0:0:
263,244,14362,1,0,0:0:0:0:
367,152,14522,1,8,0:0:0:0:
351,244,14681,1,8,0:0:0:0:
317,307,14841,2,0,P|350:317|375:313,1,52.5,0|8,0:0|0:0,0:0:0:0:
158,220,15320,6,0,P|204:190|208:180,1,52.5
257,254,15639,2,0,P|243:281|253:318,1,52.5
166,332,15958,2,0,L|112:289,2,52.5
367,328,16596,5,0,0:0:0:0:
279,87,17075,1,0,0:0:0:0:
128,317,17554,2,0,P|162:337|189:341,1,52.5
268,266,17873,6,0,L|229:221,1,52.5
306,228,18192,2,0,L|284:171,1,52.5
345,198,18511,2,0,L|348:141,2,52.5,0|0|8,0:0|0:0|0:0,0:0:0:0:
144,164,19149,5,0,0:0:0:0:
151,266,19309,1,0,0:0:0:0:
86,219,19469,1,0,0:0:0:0:
203,213,19628,1,0,0:0:0:0:
85,280,19788,2,0,P|101:312|177:330,1,105,8|0,0:0|0:0,0:0:0:0:
144,164,20266,1,0,0:0:0:0:
288,184,20426,6,0,L|305:151,2,26.25,8|0|0,0:0|0:0|0:0,0:0:0:0:
347,226,20745,2,0,L|386:214,2,26.25
352,304,21064,2,0,L|382:315,2,26.25
285,346,21383,2,0,L|303:376,2,26.25
260,259,21703,5,0,0:0:0:0:
79,166,22181,1,0,0:0:0:0:
354,62,22660,2,0,L|333:126,1,52.5
298,133,22979,5,0,0:0:0:0:
369,179,23139,1,0,0:0:0:0:
274,182,23298,1,0,0:0:0:0:
362,211,23458,1,0,0:0:0:0:
284,307,23618,6,0,P|271:278|192:260,1,105,8|0,0:0|0:0,0:0:0:0:
84,140,24256,2,0,P|134:129|165:82,1,105
221,319,25213,2,0,P|195:337|113:319,1,105,8|0,0:0|0:0,0:0:0:0:
127,194,25692,1,0,0:0:0:0:
196,263,25852,1,0,0:0:0:0:
201,153,26011,1,0,0:0:0:0:
262,240,26171,2,0,P|291:211|307:147,1,105
130,72,26809,6,0,L|104:105,1,26.25
373,295,27288,2,0,L|396:320,1,26.25
376,94,27766,2,0,L|410:61,1,26.25
304,151,28086,5,0,0:0:0:0:
208,233,28245,1,0,0:0:0:0:
312,164,28405,5,0,0:0:0:0:
199,219,28564,1,0,0:0:0:0:
208,151,28724,5,0,0:0:0:0:
304,233,28883,1,0,0:0:0:0:
199,164,29043,5,0,0:0:0:0:
312,219,29202,1,0,0:0:0:0:
413,316,29362,6,0,P|411:272|424:243,1,52.5,0|8,0:0|0:0,0:0:0:0:
367,129,29681,2,0,P|375:171|370:199,1,52.5,0|8,0:0|0:0,0:0:0:0:
336,323,30001,2,0,P|329:286|333:260,2,52.5,8|8|0,0:0|0:0|0:0,0:0:0:0:
139,144,30639,5,0,0:0:0:0:
154,248,30798,1,0,0:0:0:0:
185,136,30958,1,0,0:0:0:0:
210,246,31118,1,0,0:0:0:0:
94,208,31277,2,0,P|82:246|87:278,2,52.5,0|0|8,0:0|0:0|0:0,0:0:0:0:
389,317,32235,6,0,P|366:282|375:213,1,105
431,258,32713,1,0,0:0:0:0:
148,89,33192,6,0,P|147:136|130:159,1,52.5
203,185,33511,2,0,P|175:209|148:216,1,52.5
91,189,33830,2,0,P|87:219|102:262,2,52.5,0|0|8,0:0|0:0|0:0,0:0:0:0:
336,308,34469,6,0,L|296:258,1,52.5,0|8,0:0|0:0,0:0:0:0:
355,262,34788,2,0,L|333:206,1,52.5,0|8,0:0|0:0,0:0:0:0:
430,271,35107,2,0,P|414:310|395:323,2,52.5,2|0|0,0:0|0:0|0:0,0:0:0:0:
126,155,35745,6,0,L|114:114,2,26.25
202,202,36064,2,0,L|215:228,2,26.25
253,129,36383,2,0,L|238:98,2,26.25
329,161,36703,2,0,L|351:193,2,26.25
332,220,37022,5,0,0:0:0:0:
322,248,37181,1,0,0:0:0:0:
405,153,37341,2,0,L|346:64,1,105,8|0,0:0|0:0,0:0:0:0:
443,214,37979,1,0,0:0:0:0:
236,230,38298,6,0,L|207:180,2,52.5,0|0|8,0:0|0:0|0:0,0:0:0:0:
221,261,38777,1,0,0:0:0:0:
285,174,38937,2,0,L|319:122,2,52.5,0|0|2,0:0|0:0|0:0,0:0:0:0:
363,328,39575,5,2,0:0:0:0:
344,309,39894,1,2,0:0:0:0:
324,291,40213,1,2,0:0:0:0:
303,273,40532,1,2,0:0:0:0:
125,179,40852,6,0,L|164:132,1,52.5
165,228,41171,2,0,L|190:177,1,52.5
214,224,41490,2,0,L|207:277,2,52.5,0|0|8,0:0|0:0|0:0,0:0:0:0:
329,127,42128,5,0,0:0:0:0:
183,257,42288,1,0,0:0:0:0:
347,205,42447,5,0,0:0:0:0:
164,178,42607,1,0,0:0:0:0:
314,257,42766,5,0,0:0:0:0:
197,126,42926,1,0,0:0:0:0:
258,275,43086,5,0,0:0:0:0:
253,108,43246,1,0,0:0:0:0:
340,57,43405,6,0,P|356:88|353:120,1,52.5
350,178,43724,2,0,P|383:173|409:155,1,52.5
465,134,44043,2,0,P|471:170|460:202,2,52.5,0|0|4,0:0|0:0|0:0,0:0:0:0:
302,224,44681,5,0,0:0:0:0:
210,160,44840,1,0,0:0:0:0:
317,186,45001,5,0,0:0:0:0:
194,197,45160,1,0,0:0:0:0:
303,143,45320,5,0,0:0:0:0:
208,240,45479,1,0,0:0:0:0:
262,117,45639,5,0,0:0:0:0:
249,266,45798,1,0,0:0:0:0:
375,288,45958,6,0,P|379:235|420:193,1,105,8|0,0:0|0:0,0:0:0:0:
450,268,46437,1,0,0:0:0:0:
320,337,46596,2,0,P|304:303|305:232,1,105,0|8,0:0|0:0,0:0:0:0:
73,96,47235,2,0,L|42:40,2,52.5
43,346,47873,1,6,0:0:0:0:
229,67,48511,5,0,0:0:0:0:
188,177,48671,1,0,0:0:0:0:
227,67,48830,5,0,0:0:0:0:
186,177,48990,1,0,0:0:0:0:
330,154,49149,5,0,0:0:0:0:
375,275,49309,1,0,0:0:0:0:
330,154,49469,5,0,0:0:0:0:
375,275,49629,1,0,0:0:0:0:
424,218,49788,6,0,P|415:185|416:138,2,78.75,0|8|2,0:0|0:0|0:0,0:0:0:0:
168,177,51064,5,0,0:0:0:0:
224,55,51224,1,0,0:0:0:0:
168,177,51383,5,0,0:0:0:0:
224,55,51543,1,0,0:0:0:0:
257,180,51703,2,0,L|231:249,2,52.5,0|0|8,0:0|0:0|0:0,0:0:0:0:
404,311,52341,5,0,0:0:0:0:
332,169,52501,1,0,0:0:0:0:
404,311,52660,5,0,0:0:0:0:
332,169,52820,1,0,0:0:0:0:
404,311,52979,5,0,0:0:0:0:
332,169,53139,1,0,0:0:0:0:
238,229,53298,5,0,0:0:0:0:
128,342,53458,1,0,0:0:0:0:
84,197,53618,5,0,0:0:0:0:
224,119,53777,1,0,0:0:0:0:
80,198,53937,5,0,0:0:0:0:
227,117,54096,1,0,0:0:0:0:
345,50,54256,2,0,L|389:91,2,52.5,0|0|8,0:0|0:0|0:0,0:0:0:0:
209,233,54894,5,0,0:0:0:0:
303,151,55054,1,0,0:0:0:0:
204,237,55213,5,0,0:0:0:0:
307,146,55373,1,0,0:0:0:0:
199,241,55532,5,0,0:0:0:0:
312,142,55692,1,0,0:0:0:0:
305,248,55852,5,0,0:0:0:0:
206,135,56012,1,0,0:0:0:0:
119,249,56171,6,0,P|145:277|152:311,1,52.5
268,337,56490,2,0,P|278:307|302:291,1,52.5
414,215,56809,2,0,P|387:185|385:165,2,52.5,0|0|8,0:0|0:0|0:0,0:0:0:0:
110,193,57447,6,0,B|205:132|230:236|314:148,1,210,0|8,0:0|0:0,0:0:0:0:
83,332,58405,1,0,0:0:0:0:
197,143,58724,5,0,0:0:0:0:
315,241,58883,1,0,0:0:0:0:
248,115,59043,5,0,0:0:0:0:
263,268,59202,1,0,0:0:0:0:
305,133,59362,5,0,0:0:0:0:
207,251,59521,1,0,0:0:0:0:
332,184,59681,5,0,0:0:0:0:
179,199,59840,1,0,0:0:0:0:
337,282,60001,6,0,L|346:253,1,26.25,4|0,0:0|0:0,0:0:0:0:
146,46,60479,2,0,L|100:60,1,26.25,8|0,0:0|0:0,0:0:0:0:
47,318,60958,2,0,L|80:309,1,26.25,2|0,0:0|0:0,0:0:0:0:
342,290,61277,6,0,L|374:221,1,62.9999980773926
214,234,61596,2,0,L|222:158,1,62.9999980773926
64,204,61915,2,0,L|93:273,2,62.9999980773926
218,82,62554,5,0,0:0:0:0:
313,182,62713,1,0,0:0:0:0:
309,81,62873,1,0,0:0:0:0:
205,189,63032,1,0,0:0:0:0:
119,321,63192,5,0,0:0:0:0:
254,247,63352,1,0,0:0:0:0:
215,350,63511,1,0,0:0:0:0:
109,223,63671,1,0,0:0:0:0:
218,99,63830,6,0,L|296:69,1,62.9999980773926
313,198,64149,2,0,L|352:136,1,62.9999980773926
435,194,64469,2,0,L|434:261,2,62.9999980773926,0|0|2,0:0|0:0|0:0,0:0:0:0:
185,110,65107,5,0,0:0:0:0:
43,167,65266,1,0,0:0:0:0:
185,110,65426,5,0,0:0:0:0:
43,167,65585,1,0,0:0:0:0:
185,110,65745,5,0,0:0:0:0:
43,167,65904,1,0,0:0:0:0:
146,252,66064,5,0,0:0:0:0:
288,195,66223,1,0,0:0:0:0:
390,337,66383,6,0,P|384:296|395:252,1,62.9999980773926
288,195,66703,2,0,L|307:163,2,31.4999990386963
120,142,67022,1,0,0:0:0:0:
56,314,67181,6,0,L|124:288,1,62.9999980773926
248,279,67501,2,0,L|242:322,2,31.4999990386963
400,296,67820,2,0,L|377:235,1,62.9999980773926
117,68,68298,6,0,B|87:105|142:145|101:192,1,125.999996154785
393,127,68937,6,0,L|342:66,1,62.9999980773926
267,178,69256,2,0,L|240:251,1,62.9999980773926
124,323,69575,5,8,0:0:0:0:
292,316,69735,1,8,0:0:0:0:
124,323,69894,1,0,0:0:0:0:
292,316,70054,1,0,0:0:0:0:
124,76,70213,6,0,L|182:61,2,31.4999990386963,4|0|0,0:0|0:0|0:0,0:0:0:0:
361,117,70692,2,0,P|353:164|371:192,1,62.9999980773926,12|0,0:0|0:0,0:0:0:0:
107,284,71171,2,0,L|135:205,1,62.9999980773926,6|0,0:0|0:0,0:0:0:0:
263,127,71490,6,0,P|302:96|306:74,1,62.9999980773926
342,165,71809,2,0,P|371:122|375:103,1,62.9999980773926,8|0,0:0|0:0,0:0:0:0:
195,170,72128,2,0,L|248:221,2,62.9999980773926
111,328,72766,5,0,0:0:0:0:
281,332,72926,1,0,0:0:0:0:
186,329,73086,5,0,0:0:0:0:
356,333,73246,1,0,0:0:0:0:
451,189,73405,5,0,0:0:0:0:
281,185,73565,1,0,0:0:0:0:
376,188,73725,5,0,0:0:0:0:
206,184,73883,1,0,0:0:0:0:
59,152,74043,6,0,L|70:216,1,62.9999980773926
142,111,74362,2,0,L|132:188,1,62.9999980773926,8|0,0:0|0:0,0:0:0:0:
255,213,74681,2,0,L|239:146,2,62.9999980773926,0|0|6,0:0|0:0|0:0,0:0:0:0:
395,102,75320,5,0,0:0:0:0:
427,245,75479,1,0,0:0:0:0:
393,94,75639,5,0,0:0:0:0:
428,252,75798,1,0,0:0:0:0:
249,269,75958,5,0,0:0:0:0:
217,126,76117,1,0,0:0:0:0:
250,276,76277,5,0,0:0:0:0:
215,118,76436,1,0,0:0:0:0:
93,237,76596,6,0,P|101:288|97:314,1,62.9999980773926,8|0,0:0|0:0,0:0:0:0:
270,327,76915,2,0,L|304:291,2,31.4999990386963
384,344,77235,6,0,P|368:304|376:280,1,62.9999980773926,8|0,0:0|0:0,0:0:0:0:
386,140,77554,2,0,L|350:156,2,31.4999990386963
249,79,77873,1,0,0:0:0:0:
114,116,78032,2,0,P|134:144|130:184,1,62.9999980773926
262,237,78352,6,0,L|232:267,2,31.4999990386963
473,220,78671,2,0,P|432:177|439:128,1,105
191,128,79149,5,0,0:0:0:0:
321,256,79309,1,0,0:0:0:0:
320,127,79469,5,0,0:0:0:0:
192,257,79629,1,0,0:0:0:0:
88,180,79788,6,0,L|69:118,1,62.9999980773926,8|0,0:0|0:0,0:0:0:0:
44,252,80107,2,0,L|63:314,1,62.9999980773926
115,330,80426,6,0,L|133:302,1,26.25,4|0,0:0|0:0,0:0:0:0:
201,277,80745,2,0,L|191:256,2,13.125,0|0|12,0:0|0:0|0:0,0:0:0:0:
278,309,81064,2,0,L|267:324,2,13.125
335,287,81383,2,0,P|324:267|330:257,1,26.25,6|0,0:0|0:0,0:0:0:0:
182,150,81703,6,0,P|184:193|152:223,1,78.7500030040742,0|8,0:0|0:0,0:0:0:0:
330,234,82022,2,0,P|328:191|360:161,1,78.7500030040742
260,323,82341,2,0,P|211:308|159:325,2,78.7500030040742,0|0|8,0:0|0:0|0:0,0:0:0:0:
84,89,82979,5,0,0:0:0:0:
253,55,83139,1,0,0:0:0:0:
98,144,83298,5,0,0:0:0:0:
267,110,83458,1,0,0:0:0:0:
110,195,83618,5,0,0:0:0:0:
279,161,83778,1,0,0:0:0:0:
126,251,83937,5,0,0:0:0:0:
295,217,84097,1,0,0:0:0:0:
436,221,84256,6,0,P|417:167|424:125,1,78.7500030040742,8|0,0:0|0:0,0:0:0:0:
267,110,84575,2,0,P|286:164|279:206,1,78.7500030040742
110,195,84894,2,0,P|79:244|77:283,2,78.7500030040742,0|0|14,0:0|0:0|0:0,0:0:0:0:
417,328,85532,5,0,0:0:0:0:
442,167,85692,1,0,0:0:0:0:
347,315,85852,5,0,0:0:0:0:
372,154,86012,1,0,0:0:0:0:
279,303,86171,5,0,0:0:0:0:
304,142,86331,1,0,0:0:0:0:
210,288,86490,5,0,0:0:0:0:
235,127,86650,1,0,0:0:0:0:
73,129,86809,6,0,P|86:201|85:227,1,78.7500030040742,8|0,0:0|0:0,0:0:0:0:
221,232,87128,2,0,L|231:181,2,39.3750015020371
248,53,87447,2,0,P|279:91|320:92,1,78.7500030040742,8|0,0:0|0:0,0:0:0:0:
210,288,87766,6,0,L|167:303,2,39.3750015020371
417,328,88086,2,0,P|392:275|401:224,1,78.7500030040742
262,187,88405,2,0,P|287:240|278:291,1,78.7500030040742
91,196,88724,2,0,L|228:104,1,157.500006008148,8|0,0:0|0:0,0:0:0:0:
248,129,89203,1,0,0:0:0:0:
147,301,89362,6,0,L|206:241,1,78.7500030040742
281,363,89681,2,0,L|287:277,1,78.7500030040742
396,272,90001,2,8,L|364:242,2,39.3750015020371,8|0|0,0:0|0:0|0:0,0:0:0:0:
427,186,90320,2,0,P|389:143|392:104,1,78.7500030040742
174,55,90639,6,0,L|95:110,1,78.7500030040742,4|0,0:0|0:0,0:0:0:0:
171,157,90958,2,0,L|130:189,2,39.3750015020371,12|0|0,0:0|0:0|0:0,0:0:0:0:
232,207,91277,2,0,L|268:176,3,39.3750015020371
250,250,91596,2,0,L|188:305,1,78.7500030040742,14|0,0:0|0:0,0:0:0:0:
63,292,91915,5,0,0:0:0:0:
67,216,92075,1,0,0:0:0:0:
148,145,92235,1,0,0:0:0:0:
142,254,92395,1,0,0:0:0:0:
324,256,92554,5,0,0:0:0:0:
404,223,92713,1,0,0:0:0:0:
443,122,92873,1,0,0:0:0:0:
323,171,93032,1,0,0:0:0:0:
132,188,93192,6,0,P|144:221|135:270,1,68.2499968757631
214,294,93511,2,0,L|227:243,2,34.1249984378815
299,293,93830,2,0,P|311:253|340:225,2,68.2499968757631
69,94,94469,5,0,0:0:0:0:
222,46,94628,1,0,0:0:0:0:
295,96,94788,1,0,0:0:0:0:
188,129,94947,1,0,0:0:0:0:
66,248,95107,5,0,0:0:0:0:
214,325,95266,1,0,0:0:0:0:
342,277,95426,1,0,0:0:0:0:
238,223,95585,1,0,0:0:0:0:
295,96,95745,6,0,P|280:131|284:178,1,68.2499968757631
354,144,96064,2,0,L|392:152,2,34.1249984378815
443,200,96383,2,0,P|458:165|454:118,2,68.2499968757631
237,202,97022,6,0,L|197:135,3,68.2499968757631,2|0|0|0,0:0|0:0|0:0|0:0,0:0:0:0:
122,209,97660,6,0,L|100:133,3,68.2499968757631,2|0|0|0,0:0|0:0|0:0|0:0,0:0:0:0:
237,202,98298,6,0,L|215:277,3,68.2499968757631,2|0|0|0,0:0|0:0|0:0|0:0,0:0:0:0:
122,209,98937,6,0,L|100:284,3,68.2499968757631,2|0|0|0,0:0|0:0|0:0|0:0,0:0:0:0:
231,244,99575,5,2,0:0:0:0:
203,167,99734,1,0,0:0:0:0:
280,139,99895,1,0,0:0:0:0:
308,216,100054,1,0,0:0:0:0:
194,208,100213,5,2,0:0:0:0:
239,130,100372,1,0,0:0:0:0:
317,175,100533,1,0,0:0:0:0:
272,253,100692,1,0,0:0:0:0:
188,173,100852,5,2,0:0:0:0:
274,124,101011,1,0,0:0:0:0:
323,210,101172,1,0,0:0:0:0:
237,259,101331,1,0,0:0:0:0:
310,246,101490,5,2,0:0:0:0:
201,246,101649,1,0,0:0:0:0:
201,137,101810,1,0,0:0:0:0:
310,137,101969,1,0,0:0:0:0:
256,192,102128,12,0,103086,0:0:0:0:
256,192,103245,5,0,0:0:0:0:
256,192,103405,12,0,104362,0:0:0:0:
256,192,104522,5,0,0:0:0:0:
256,192,104681,12,0,105639,0:0:0:0:
256,192,105798,5,0,0:0:0:0:
256,192,105958,12,0,106915,0:0:0:0:
256,192,107075,5,0,0:0:0:0:
344,124,107235,1,2,0:0:0:0:
