osu file format v14

[General]
AudioFilename: 0x10c_C418.mp3
AudioLeadIn: 0
PreviewTime: 51064
Countdown: 0
SampleSet: Normal
StackLeniency: 0.7
Mode: 0
LetterboxInBreaks: 1
WidescreenStoryboard: 1

[Editor]
Bookmarks: 9574,40852,51064,61277,71487,81703
DistanceSpacing: 1
BeatDivisor: 4
GridSize: 4
TimelineZoom: 1.4

[Metadata]
Title:0x10c
TitleUnicode:0x10c
Artist:C418
ArtistUnicode:C418
Creator:sxy62146214
Version:Hard
Source:0x10c
Tags:C418 Sadness resem last game Notch black Mojang sxy62146214 cyxw SkeletonXB MEGAtive
BeatmapID:1033409
BeatmapSetID:480034

[Difficulty]
HPDrainRate:5.5
CircleSize:4.5
OverallDifficulty:6
ApproachRate:6
SliderMultiplier:1.9
SliderTickRate:2

[Events]
//Background and Video events
0,0,"BG.png",0,0
//Break Periods
//Storyboard Layer 0 (Background)
//Storyboard Layer 1 (Fail)
//Storyboard Layer 2 (Pass)
//Storyboard Layer 3 (Foreground)
//Storyboard Sound Samples

[TimingPoints]
1,638.297872340426,4,1,0,35,1,0
30639,-100,4,1,0,40,0,0
39575,-100,4,1,0,30,0,0
40852,-100,4,1,0,45,0,0
51064,-100,4,1,0,50,0,0
61277,-83.3333333333333,4,1,0,55,0,0
71490,-83.3333333333333,4,1,0,60,0,1
80426,-200,4,1,0,45,0,0
81703,-66.6666666666667,4,1,0,65,0,1
91915,-76.9230769230769,4,1,0,62,0,1
94469,-76.9230769230769,4,1,0,60,0,1
97022,-76.9230769230769,4,1,0,55,0,1
97660,-76.9230769230769,4,1,0,50,0,1
98298,-76.9230769230769,4,1,0,45,0,1
98937,-76.9230769230769,4,1,0,40,0,1
99575,-76.9230769230769,4,1,0,35,0,1
100213,-76.9230769230769,4,1,0,30,0,1
100852,-76.9230769230769,4,1,0,25,0,1
101490,-76.9230769230769,4,1,0,20,0,1
102128,-133.333333333333,4,1,0,10,0,0

[Colours]
Combo1 : 255,255,255
Combo2 : 31,31,31
Combo3 : 63,63,63
Combo4 : 95,95,95
Combo5 : 127,127,127
Combo6 : 159,159,159
Combo7 : 191,191,191
Combo8 : 191,191,191

[HitObjects]
112,72,9575,6,0,P|160:64|208:84,1,95
151,136,10213,6,0,L|139:200,2,47.5
196,156,10692,1,8,0:0:0:0:
144,136,10852,2,0,L|132:200,2,47.5
204,160,11330,1,8,0:0:0:0:
248,104,11490,6,0,P|276:144|240:224,2,142.5,0|2|0,0:0|0:0|0:0,0:0:0:0:
344,179,12766,2,0,L|400:191,2,47.5
368,139,13245,1,8,0:0:0:0:
388,203,13405,2,0,L|332:191,2,47.5,0|0|8,0:0|0:0|0:0,0:0:0:0:
296,232,14043,6,0,P|256:232|224:272,1,95
264,360,14681,2,0,P|312:356|340:312,1,95,2|8,0:0|0:0,0:0:0:0:
376,232,15320,6,0,P|368:180|352:156,1,47.5,0|8,0:0|0:0,0:0:0:0:
296,196,15639,2,0,P|304:248|320:272,1,47.5,0|8,0:0|0:0,0:0:0:0:
368,244,15958,2,0,P|374:191|365:164,1,47.5,0|8,0:0|0:0,0:0:0:0:
304,196,16277,2,0,L|312:248,1,47.5
244,248,16596,6,0,P|224:196|136:168,2,142.5,0|2|0,0:0|0:0|0:0,0:0:0:0:
169,239,17713,1,0,0:0:0:0:
188,296,17873,2,0,P|140:292|120:264,2,47.5,0|8|0,0:0|0:0|0:0,0:0:0:0:
169,239,18352,1,0,0:0:0:0:
190,183,18511,2,0,P|142:187|122:215,2,47.5,0|8|0,0:0|0:0|0:0,0:0:0:0:
280,208,19149,6,0,P|304:248|308:260,2,47.5,0|0|8,0:0|0:0|0:0,0:0:0:0:
241,258,19628,1,0,0:0:0:0:
212,312,19788,2,0,P|258:314|271:312,2,47.5,0|0|10,0:0|0:0|0:0,0:0:0:0:
112,292,20426,6,0,P|132:284|148:252,1,47.5
100,212,20745,2,0,P|80:220|64:252,1,47.5
127,291,21064,2,0,P|145:275|150:235,1,47.5
84,212,21383,2,0,P|66:228|61:268,1,47.5
108,260,21703,2,0,P|148:184|192:144,2,142.5,0|2|0,0:0|0:0|0:0,0:0:0:0:
108,260,22820,1,0,0:0:0:0:
184,288,22979,6,0,P|196:248|236:204,1,95
253,274,23458,1,8,0:0:0:0:
241,343,23618,2,0,P|280:330|324:289,1,95,0|8,0:0|0:0,0:0:0:0:
348,180,24256,6,0,P|296:164|256:164,2,95
288,252,25213,1,2,0:0:0:0:
384,256,25532,6,0,P|368:276|368:300,1,47.5
432,320,25852,2,0,P|448:300|448:276,1,47.5
367,261,26171,2,0,P|357:290|367:317,1,47.5
448,314,26491,2,0,P|458:285|448:258,1,47.5
404,286,26809,2,0,P|408:232|360:160,2,142.5,0|2|8,0:0|0:0|0:0,0:0:0:0:
308,336,28086,6,0,P|260:324|228:272,1,95
292,271,28564,1,8,0:0:0:0:
277,208,28724,2,0,P|325:220|357:272,1,95,0|8,0:0|0:0,0:0:0:0:
368,160,29362,6,0,B|364:160|364:160|356:156|340:140|336:128,1,47.5,0|8,0:0|0:0,0:0:0:0:
384,80,29681,2,0,B|388:80|388:80|396:84|412:100|416:112,1,47.5,0|8,0:0|0:0,0:0:0:0:
350,161,30001,2,0,B|346:160|346:160|338:152|327:127|327:112,1,47.5,0|8,0:0|0:0,0:0:0:0:
401,78,30320,2,0,B|405:79|405:79|413:87|424:112|424:127,1,47.5
424,192,30639,6,0,P|416:244|360:276,1,95
364,211,31118,1,8,0:0:0:0:
322,263,31277,2,0,P|320:277|342:312,1,47.5
385,270,31596,1,2,0:0:0:0:
371,151,31915,6,0,P|347:155|319:172,2,47.5
364,211,32394,1,8,0:0:0:0:
367,273,32554,2,0,P|343:269|315:251,2,47.5,0|0|2,0:0|0:0|0:0,0:0:0:0:
288,216,33192,6,0,P|272:176|244:164,1,47.5
227,221,33511,1,0,0:0:0:0:
227,221,33671,1,0,0:0:0:0:
164,223,33830,2,0,P|180:263|208:275,2,47.5,0|0|2,0:0|0:0|0:0,0:0:0:0:
184,128,34469,6,0,P|176:100|176:80,1,47.5
244,72,34788,2,0,P|252:92|252:120,1,47.5
176,72,35107,2,0,P|168:100|168:120,2,47.5,0|0|2,0:0|0:0|0:0,0:0:0:0:
256,192,35745,6,0,P|228:200|208:224,1,47.5
248,276,36064,2,0,P|276:268|296:244,1,47.5
238,182,36383,2,0,P|209:204|196:241,1,47.5
265,285,36702,2,0,P|294:263|307:226,1,47.5
336,224,37022,5,0,0:0:0:0:
352,248,37181,1,0,0:0:0:0:
368,276,37341,2,0,P|376:304|340:344,1,47.5,0|8,0:0|0:0,0:0:0:0:
444,251,37820,5,0,0:0:0:0:
426,223,37979,2,0,P|396:184|416:100,2,95,0|8|0,0:0|0:0|0:0,0:0:0:0:
457,163,38937,2,0,P|474:142|478:118,2,47.5,0|0|6,0:0|0:0|0:0,0:0:0:0:
344,72,39575,6,0,P|320:68|284:80,1,47.5
300,152,39894,2,0,P|324:156|360:144,1,47.5
327,75,40213,2,0,P|308:79|284:98,1,47.5
316,148,40532,2,0,P|335:144|359:125,1,47.5
409,176,40852,6,0,L|380:220,1,47.5
431,266,41171,2,0,L|464:220,1,47.5
389,174,41490,2,0,L|374:236,1,47.5,0|8,0:0|0:0,0:0:0:0:
450,267,41809,2,0,L|469:201,1,47.5
448,148,42128,6,0,P|420:152|388:144,2,47.5
423,90,42607,1,8,0:0:0:0:
445,35,42766,2,0,P|417:31|385:39,2,47.5
423,90,43245,1,8,0:0:0:0:
352,77,43405,6,0,L|296:96,1,47.5
293,170,43724,2,0,L|345:151,1,47.5
332,76,44043,2,0,L|265:99,1,47.5,0|4,0:0|0:0,0:0:0:0:
262,188,44362,2,0,L|324:165,1,47.5
355,218,44681,5,0,0:0:0:0:
367,237,44841,1,0,0:0:0:0:
379,253,45001,2,0,P|366:269|334:285,1,47.5,2|0,0:0|0:0,0:0:0:0:
260,280,45320,5,0,0:0:0:0:
266,241,45479,1,0,0:0:0:0:
273,201,45639,2,0,P|272:184|248:156,1,47.5,2|0,0:0|0:0,0:0:0:0:
297,100,45958,6,0,P|312:112|340:108,1,47.5
343,195,46277,2,0,P|349:177|376:166,1,47.5,0|8,0:0|0:0,0:0:0:0:
402,109,46596,6,0,P|418:99|445:108,1,47.5,0|8,0:0|0:0,0:0:0:0:
443,192,46915,2,0,P|436:209|409:220,1,47.5,2|0,0:0|0:0,0:0:0:0:
353,251,47235,6,0,P|356:304|256:268,2,190,8|2|0,0:0|0:0|0:0,0:0:0:0:
308,283,48671,2,0,L|284:240,1,47.5,0|8,0:0|0:0,0:0:0:0:
192,208,49149,5,0,0:0:0:0:
144,144,49309,1,0,0:0:0:0:
240,144,49469,1,0,0:0:0:0:
192,76,49628,1,0,0:0:0:0:
265,68,49788,6,0,B|280:64|328:96|324:132|328:148|336:156|368:168,2,142.5,0|8|2,0:0|0:0|0:0,0:0:0:0:
255,129,50905,1,0,0:0:0:0:
261,198,51064,6,0,P|236:200|208:224,1,47.5,0|8,0:0|0:0,0:0:0:0:
243,279,51383,2,0,P|268:277|296:253,1,47.5
245,189,51703,2,0,P|218:201|196:240,1,47.5
258,287,52022,2,0,P|285:275|307:236,1,47.5,8|0,0:0|0:0,0:0:0:0:
348,213,52341,6,0,P|368:208|400:232,2,47.5
363,263,52820,1,8,0:0:0:0:
368,200,52979,6,0,P|388:186|434:200,2,47.5
405,250,53458,1,8,0:0:0:0:
410,185,53618,6,0,L|379:127,1,47.5
305,131,53937,2,0,L|326:174,1,47.5,0|2,0:0|0:0,0:0:0:0:
383,178,54256,2,0,L|346:108,1,47.5
257,113,54575,2,0,L|282:165,1,47.5,8|0,0:0|0:0,0:0:0:0:
248,223,54894,6,0,L|216:272,2,47.5
287,277,55373,1,2,0:0:0:0:
248,223,55532,2,0,L|215:270,2,47.5
287,277,56011,1,8,0:0:0:0:
220,261,56171,6,0,P|226:283|222:331,1,47.5
168,292,56490,2,0,P|146:298|98:294,1,47.5
139,238,56809,2,0,P|133:216|137:168,1,47.5,0|8,0:0|0:0,0:0:0:0:
193,204,57128,2,0,P|224:204|248:80,1,190
210,137,57926,5,0,0:0:0:0:
325,207,58086,2,0,P|361:213|391:90,1,190,8|0,0:0|0:0,0:0:0:0:
356,147,58883,1,0,0:0:0:0:
327,136,59043,6,0,P|306:132|270:140,1,47.5,8|0,0:0|0:0,0:0:0:0:
325,207,59362,6,0,P|305:231|314:298,1,95,2|0,0:0|0:0,0:0:0:0:
369,259,59841,1,0,0:0:0:0:
436,240,60001,6,0,P|432:208|372:156,1,95
391,162,60479,1,8,0:0:0:0:
391,162,60639,2,0,P|332:136|280:136,1,95,0|2,0:0|0:0,0:0:0:0:
188,140,61277,6,0,P|164:160|164:192,1,56.9999982604981
223,216,61596,2,0,P|247:196|247:164,1,56.9999982604981
201,127,61915,2,0,P|166:140|152:176,1,56.9999982604981
209,228,62234,2,0,P|244:215|258:179,1,56.9999982604981,8|0,0:0|0:0,0:0:0:0:
255,130,62554,6,0,P|284:112|320:132,2,56.9999982604981
296,170,63032,1,0,0:0:0:0:
333,214,63192,2,0,P|304:232|268:212,2,56.9999982604981
296,170,63671,1,0,0:0:0:0:
208,183,63830,6,0,L|184:240,1,56.9999982604981
124,203,64149,2,0,L|127:261,1,56.9999982604981,8|0,0:0|0:0,0:0:0:0:
60,235,64469,2,0,L|77:291,1,56.9999982604981
8,284,64788,2,0,L|35:336,1,56.9999982604981,2|0,0:0|0:0,0:0:0:0:
99,339,65107,6,0,P|119:321|158:319,1,56.9999982604981
214,323,65426,2,0,P|236:320|276:288,1,56.9999982604981
217,261,65745,2,0,P|209:229|228:192,1,56.9999982604981
269,231,66064,2,0,P|288:236|324:216,1,56.9999982604981
280,152,66383,6,0,L|244:104,1,56.9999982604981,8|0,0:0|0:0,0:0:0:0:
300,92,66703,2,0,L|232:60,1,56.9999982604981,0|8,0:0|0:0,0:0:0:0:
183,96,67022,1,2,0:0:0:0:
92,209,67341,6,0,P|76:188|80:148,1,56.9999982604981,8|0,0:0|0:0,0:0:0:0:
132,166,67660,2,0,P|160:152|204:152,1,56.9999982604981,0|8,0:0|0:0,0:0:0:0:
175,211,67979,1,8,0:0:0:0:
138,283,68298,6,0,P|158:295|238:163,1,227.999993041992,0|2,0:0|0:0,0:0:0:0:
175,211,69096,1,0,0:0:0:0:
245,217,69256,2,0,P|234:259|210:271,1,56.9999982604981
175,211,69575,6,0,P|149:203|133:159,2,56.9999982604981,0|0|8,0:0|0:0|0:0,0:0:0:0:
186,153,70054,1,0,0:0:0:0:
249,60,70213,6,0,P|284:74|273:217,1,170.999994781494,4|0,0:0|0:0,0:0:0:0:
303,191,70852,2,0,P|284:236|312:316,1,113.999996520996,12|6,0:0|0:0,0:0:0:0:
204,232,71490,6,0,P|176:212|172:168,1,56.9999982604981
228,139,71809,2,0,P|256:159|260:203,1,56.9999982604981,0|8,0:0|0:0,0:0:0:0:
172,230,72128,2,0,P|153:189|177:137,1,56.9999982604981
259,140,72447,2,0,P|278:181|254:233,1,56.9999982604981
324,265,72766,6,0,P|360:232|368:228,2,56.9999982604981
380,293,73245,1,8,0:0:0:0:
439,318,73405,2,0,P|403:351|395:355,2,56.9999982604981
380,293,73883,1,8,0:0:0:0:
378,202,74043,6,0,L|340:152,1,56.9999982604981
302,204,74362,2,0,L|248:176,1,56.9999982604981,8|0,0:0|0:0,0:0:0:0:
223,232,74681,2,0,L|160:232,1,56.9999982604981
176,294,75001,2,0,L|116:312,1,56.9999982604981,6|0,0:0|0:0,0:0:0:0:
86,250,75320,6,0,P|64:244|48:208,2,56.9999982604981
105,190,75798,1,8,0:0:0:0:
126,132,75958,2,0,P|148:138|164:174,2,56.9999982604981
105,190,76437,1,8,0:0:0:0:
207,141,76596,6,0,P|212:116|240:80,1,56.9999982604981
269,139,76915,2,0,P|296:156|304:192,2,56.9999982604981,0|8|0,0:0|0:0|0:0,0:0:0:0:
262,219,77394,1,0,0:0:0:0:
208,236,77554,6,0,L|176:296,1,56.9999982604981
245,295,77873,2,0,P|244:340|272:360,2,56.9999982604981,0|2|0,0:0|0:0|0:0,0:0:0:0:
305,316,78352,1,0,0:0:0:0:
357,267,78511,6,0,P|320:248|396:136,1,227.999993041992,0|2,0:0|0:0,0:0:0:0:
370,198,79309,1,0,0:0:0:0:
244,169,79469,2,0,P|206:178|190:214,1,56.9999982604981
239,230,79788,6,0,P|248:256|236:288,2,56.9999982604981,0|8|0,0:0|0:0|0:0,0:0:0:0:
185,257,80266,1,0,0:0:0:0:
185,257,80426,6,0,L|125:205,1,71.25,4|12,0:0|0:0,0:0:0:0:
121,189,81064,2,0,P|141:185|145:145,1,47.5,0|6,0:0|0:0,0:0:0:0:
288,120,81703,6,0,P|264:124|232:188,1,71.2500027179719
280,223,82022,2,0,P|304:219|336:155,1,71.2500027179719,0|8,0:0|0:0,0:0:0:0:
265,104,82341,2,0,P|236:120|225:216,1,71.2500027179719
302,238,82660,2,0,P|331:222|342:126,1,71.2500027179719
284,169,82979,6,0,L|332:116,2,71.2500027179719
232,216,83458,1,8,0:0:0:0:
286,156,83618,6,0,L|335:77,2,71.2500027179719
230,228,84097,1,8,0:0:0:0:
164,208,84256,6,0,L|212:152,1,71.2500027179719
138,144,84575,2,0,L|168:80,1,71.2500027179719,8|0,0:0|0:0,0:0:0:0:
91,101,84894,2,0,L|104:24,1,71.2500027179719
33,76,85213,2,0,L|32:4,1,71.2500027179719,6|0,0:0|0:0,0:0:0:0:
48,148,85532,6,0,P|40:184|48:216,2,71.2500027179719
112,182,86011,1,8,0:0:0:0:
177,149,86171,2,0,P|185:185|177:217,2,71.2500027179719
112,182,86649,1,8,0:0:0:0:
116,252,86809,6,0,P|108:284|132:324,1,71.2500027179719
169,279,87128,2,0,P|204:256|240:264,2,71.2500027179719,0|8|0,0:0|0:0|0:0,0:0:0:0:
214,317,87607,1,0,0:0:0:0:
188,195,87766,6,2,P|163:166|171:126,1,71.2500027179719,2|0,0:0|0:0,0:0:0:0:
222,150,88086,2,0,P|240:140|248:88,2,71.2500027179719,0|8|0,0:0|0:0|0:0,0:0:0:0:
295,167,88564,1,0,0:0:0:0:
336,224,88724,6,0,P|308:268|417:237,1,285.000010871888,0|2,0:0|0:0,0:0:0:0:
370,276,89522,1,0,0:0:0:0:
388,208,89681,2,0,P|392:168|352:132,1,71.2500027179719
334,184,90001,2,0,P|304:188|260:156,2,71.2500027179719,0|8|0,0:0|0:0|0:0,0:0:0:0:
316,116,90479,1,0,0:0:0:0:
207,49,90639,6,0,P|212:96|88:132,1,142.500005435944,4|0,0:0|0:0,0:0:0:0:
140,77,91118,1,12,0:0:0:0:
145,153,91277,2,0,P|169:169|137:265,1,142.500005435944,0|6,0:0|0:0,0:0:0:0:
256,192,91915,6,0,P|280:156|308:144,2,61.7499971733095,0|0|8,0:0|0:0|0:0,0:0:0:0:
316,208,92394,1,0,0:0:0:0:
382,222,92554,2,0,P|357:264|269:256,1,123.499994346619,8|0,0:0|0:0,0:0:0:0:
161,108,93192,6,0,P|124:104|96:136,2,61.7499971733095,2|2|0,0:0|0:0|0:0,0:0:0:0:
140,168,93671,2,2,L|152:236,1,61.7499971733095
255,192,94149,1,0,0:0:0:0:
352,116,94469,6,0,L|408:164,2,61.7499971733095,8|8|0,0:0|0:0|0:0,0:0:0:0:
339,185,94947,1,0,0:0:0:0:
274,145,95107,2,0,L|289:274,1,123.499994346619,8|0,0:0|0:0,0:0:0:0:
128,320,95745,6,0,L|68:292,2,61.7499971733095,2|2|0,0:0|0:0|0:0,0:0:0:0:
126,251,96224,2,2,P|104:224|100:192,1,61.7499971733095
256,192,96703,1,0,0:0:0:0:
284,72,97022,6,0,P|328:64|372:136,1,123.499994346619,2|0,0:0|0:0,0:0:0:0:
314,125,97501,1,0,0:0:0:0:
289,216,97660,6,0,P|320:256|304:328,1,123.499994346619,2|0,0:0|0:0,0:0:0:0:
252,279,98139,1,0,0:0:0:0:
190,211,98298,6,0,P|160:272|88:268,1,123.499994346619,2|0,0:0|0:0,0:0:0:0:
118,201,98777,1,0,0:0:0:0:
181,121,98937,6,0,P|104:122|60:78,1,123.499994346619,2|0,0:0|0:0,0:0:0:0:
146,25,99415,1,0,0:0:0:0:
208,32,99575,6,0,L|332:88,1,123.499994346619,2|0,0:0|0:0,0:0:0:0:
277,129,100054,1,0,0:0:0:0:
201,113,100213,6,0,L|265:235,1,123.499994346619,2|0,0:0|0:0,0:0:0:0:
191,228,100692,1,0,0:0:0:0:
119,184,100852,6,0,L|154:328,1,123.499994346619,2|0,0:0|0:0,0:0:0:0:
88,310,101330,1,0,0:0:0:0:
38,271,101490,6,0,L|174:192,1,123.499994346619,2|0,0:0|0:0,0:0:0:0:
116,156,101969,1,0,0:0:0:0:
256,192,102128,12,0,103245,0:0:0:0:
256,192,103405,12,0,104522,0:0:0:0:
256,192,104681,12,0,105798,0:0:0:0:
256,192,105958,12,2,107235,0:0:0:0:
