osu file format v14

[General]
AudioFilename: 0x10c_C418.mp3
AudioLeadIn: 0
PreviewTime: 51064
Countdown: 0
SampleSet: Normal
StackLeniency: 0.7
Mode: 0
LetterboxInBreaks: 1
WidescreenStoryboard: 1

[Editor]
Bookmarks: 9574,40852,51064,61277,71487,81703
DistanceSpacing: 1
BeatDivisor: 4
GridSize: 4
TimelineZoom: 1.2

[Metadata]
Title:0x10c
TitleUnicode:0x10c
Artist:C418
ArtistUnicode:C418
Creator:sxy62146214
Version:Easy
Source:0x10c
Tags:C418 Sadness resem last game Notch black Mojang sxy62146214 cyxw SkeletonXB MEGAtive
BeatmapID:1024900
BeatmapSetID:480034

[Difficulty]
HPDrainRate:3
CircleSize:2.9
OverallDifficulty:2.5
ApproachRate:2.5
SliderMultiplier:1.4
SliderTickRate:2

[Events]
//Background and Video events
0,0,"BG.png",0,0
//Break Periods
//Storyboard Layer 0 (Background)
//Storyboard Layer 1 (Fail)
//Storyboard Layer 2 (Pass)
//Storyboard Layer 3 (Foreground)
//Storyboard Sound Samples

[TimingPoints]
1,638.297872340426,4,1,0,35,1,0
30639,-100,4,1,0,40,0,0
40852,-100,4,1,0,45,0,0
51064,-100,4,1,0,50,0,0
61277,-95.2380952380952,4,1,0,60,0,0
71490,-95.2380952380952,4,1,0,65,0,1
80426,-100,4,1,0,40,0,0
81703,-80,4,1,0,65,0,1
91915,-90.9090909090909,4,1,0,60,0,1
97022,-90.9090909090909,4,1,0,55,0,1
97660,-90.9090909090909,4,1,0,50,0,1
98298,-90.9090909090909,4,1,0,45,0,1
98937,-90.9090909090909,4,1,0,40,0,1
99575,-90.9090909090909,4,1,0,35,0,1
100213,-90.9090909090909,4,1,0,30,0,1
100852,-90.9090909090909,4,1,0,25,0,1
101490,-90.9090909090909,4,1,0,20,0,1
102128,-133.333333333333,4,1,0,10,0,0

[Colours]
Combo1 : 255,255,255
Combo2 : 31,31,31
Combo3 : 63,63,63
Combo4 : 95,95,95
Combo5 : 127,127,127
Combo6 : 159,159,159
Combo7 : 191,191,191
Combo8 : 191,191,191

[HitObjects]
92,229,10213,6,0,P|110:168|256:287,1,350
476,303,12766,2,0,P|439:252|302:300,1,210
405,93,14681,1,2,0:0:0:0:
370,228,15320,6,0,P|401:267|403:319,1,70
336,292,15958,2,0,P|302:302|257:289,1,70
296,232,16596,2,0,P|279:194|286:127,2,105,0|10|0,0:0|0:0|0:0,0:0:0:0:
344,180,17873,6,0,L|415:143,1,70
424,80,18511,2,0,P|465:104|476:156,1,70
256,192,19788,1,0,0:0:0:0:
133,124,20426,5,2,0:0:0:0:
166,185,20745,1,0,0:0:0:0:
174,254,21064,1,0,0:0:0:0:
146,318,21383,1,0,0:0:0:0:
216,318,21703,2,0,P|267:284|339:293,2,105,0|8|0,0:0|0:0|0:0,0:0:0:0:
216,248,22979,6,0,P|251:220|262:173,1,70
328,172,23618,2,0,P|299:133|265:122,1,70
396,204,24575,1,8,0:0:0:0:
256,192,25213,5,0,0:0:0:0:
192,168,25532,6,0,P|216:134|263:118,1,70
251,51,26171,2,0,P|288:68|312:112,1,70
343,154,26809,2,0,L|421:257,2,105,0|10|0,0:0|0:0|0:0,0:0:0:0:
317,219,28086,6,0,P|320:267|290:311,1,70
252,248,28724,2,0,P|217:286|172:289,1,70
192,220,29362,2,0,L|150:152,2,70,2|2|0,0:0|0:0|0:0,0:0:0:0:
276,108,30639,6,0,P|289:155|317:184,1,70
288,240,31277,2,0,P|344:232|364:196,1,70
444,120,32235,1,0,0:0:0:0:
444,224,32713,1,0,0:0:0:0:
340,248,33192,6,0,L|291:316,2,70,2|0|0,0:0|0:0|0:0,0:0:0:0:
276,216,34149,2,0,P|270:276|396:300,1,210,8|0,0:0|0:0,0:0:0:0:
352,172,35745,6,0,L|427:163,1,70
369,209,36383,2,0,L|437:233,1,70
388,284,37022,2,0,P|336:268|277:298,2,105
452,260,38298,6,0,P|418:279|367:285,1,70
384,216,38937,2,0,P|369:173|372:127,1,70
68,328,40852,6,0,L|144:341,1,70
108,276,41490,2,0,L|187:259,1,70
138,202,42128,2,8,P|187:167|185:73,1,140
332,116,43405,6,0,P|319:158|324:199,1,70
386,163,44043,2,0,P|416:217|441:232,1,70
484,192,44681,2,2,P|483:251|405:295,1,140
316,200,45958,6,0,P|319:151|301:110,2,70,0|0|8,0:0|0:0|0:0,0:0:0:0:
251,170,46915,2,0,P|213:163|171:168,2,70
216,232,47873,2,0,P|217:273|303:330,1,140,8|0,0:0|0:0,0:0:0:0:
280,260,48830,5,0,0:0:0:0:
328,208,49149,1,0,0:0:0:0:
400,204,49469,1,0,0:0:0:0:
390,134,49788,6,0,L|289:70,2,105
343,185,51064,6,0,P|291:198|260:229,1,70,0|8,0:0|0:0,0:0:0:0:
332,252,51703,2,0,P|356:295|351:340,1,70
422,281,52341,6,0,P|427:229|404:188,2,70,8|0|8,0:0|0:0|0:0,0:0:0:0:
488,308,53298,1,0,0:0:0:0:
422,281,53618,6,0,L|354:333,2,70,0|8|0,0:0|0:0|0:0,0:0:0:0:
421,213,54575,1,2,0:0:0:0:
372,164,54894,6,0,P|335:198|284:204,2,70
312,128,55852,1,0,0:0:0:0:
244,136,56171,6,0,P|245:91|217:55,2,70,0|0|8,0:0|0:0|0:0,0:0:0:0:
176,116,57128,1,0,0:0:0:0:
120,76,57447,2,0,P|102:114|117:161,2,70,0|0|10,0:0|0:0|0:0,0:0:0:0:
93,214,58724,5,0,0:0:0:0:
156,184,59043,1,0,0:0:0:0:
216,216,59362,1,0,0:0:0:0:
280,188,59681,1,0,0:0:0:0:
299,116,60001,6,0,P|339:137|359:215,2,105,4|8|2,0:0|0:0|0:0,0:0:0:0:
272,48,61277,6,0,L|199:109,1,73.4999977569581,0|8,0:0|0:0,0:0:0:0:
288,112,61915,2,0,L|244:197,1,73.4999977569581
276,248,62554,2,0,P|210:236|185:214,3,73.4999977569581
140,264,63830,6,0,P|134:215|154:174,1,73.4999977569581,0|8,0:0|0:0,0:0:0:0:
72,168,64469,2,0,P|108:129|149:121,1,73.4999977569581,0|6,0:0|0:0,0:0:0:0:
132,47,65107,2,0,P|187:74|199:103,3,73.4999977569581
236,140,66383,6,0,L|193:225,2,73.4999977569581,0|0|8,0:0|0:0|0:0,0:0:0:0:
288,192,67341,2,0,L|329:270,2,73.4999977569581,0|0|8,0:0|0:0|0:0,0:0:0:0:
360,176,68298,2,0,P|345:127|413:52,1,146.999995513916
420,124,69256,5,0,0:0:0:0:
440,196,69575,1,0,0:0:0:0:
388,248,69894,1,0,0:0:0:0:
316,232,70213,6,0,P|246:185|224:163,2,110.249996635437,4|12|6,0:0|0:0|0:0,0:0:0:0:
244,244,71490,6,0,P|268:280|273:337,1,73.4999977569581,0|2,0:0|0:0,0:0:0:0:
200,304,72128,2,8,P|160:327|116:325,1,73.4999977569581,0|8,0:0|0:0,0:0:0:0:
144,256,72766,2,0,L|109:182,3,73.4999977569581,2|0|2|0,0:0|0:0|0:0|0:0,0:0:0:0:
121,114,74043,6,0,P|167:142|211:134,1,73.4999977569581,0|8,0:0|0:0,0:0:0:0:
180,68,74681,2,0,P|225:34|271:31,1,73.4999977569581,0|6,0:0|0:0,0:0:0:0:
248,104,75320,2,0,P|269:151|266:201,3,73.4999977569581,8|0|8|0,0:0|0:0|0:0|0:0,0:0:0:0:
207,212,76596,6,0,P|182:259|185:292,2,73.4999977569581,8|0|0,0:0|0:0|0:0,0:0:0:0:
256,268,77554,2,0,P|247:312|214:344,2,73.4999977569581,8|0|0,0:0|0:0|0:0,0:0:0:0:
324,240,78511,2,0,P|300:201|349:104,1,146.999995513916,2|0,0:0|0:0,0:0:0:0:
372,176,79469,5,0,0:0:0:0:
408,112,79788,1,0,0:0:0:0:
376,48,80107,1,0,0:0:0:0:
308,44,80426,6,4,L|186:90,2,105,4|12|6,0:0|0:0|0:0,0:0:0:0:
252,112,81703,6,0,L|204:192,1,87.5,0|8,0:0|0:0,0:0:0:0:
276,132,82341,2,0,L|248:232,1,87.5
188,276,82979,2,0,P|243:305|284:300,3,87.5,8|0|8|0,0:0|0:0|0:0|0:0,0:0:0:0:
352,292,84256,6,0,L|372:196,1,87.5,0|8,0:0|0:0,0:0:0:0:
404,288,84894,2,0,L|421:191,1,87.5,0|4,0:0|0:0,0:0:0:0:
392,120,85532,2,0,P|336:110|293:125,3,87.5,0|0|8|0,0:0|0:0|0:0|0:0,0:0:0:0:
225,80,86809,6,0,P|231:127|215:175,2,87.5
149,123,87766,2,0,P|139:164|161:222,2,87.5,8|0|0,0:0|0:0|0:0,0:0:0:0:
220,165,88724,2,0,P|255:216|363:195,1,175,10|0,0:0|0:0,0:0:0:0:
299,137,89681,5,0,0:0:0:0:
383,112,90001,1,0,0:0:0:0:
444,173,90320,1,0,0:0:0:0:
420,257,90639,6,4,L|316:355,2,131.25,4|12|6,0:0|0:0|0:0,0:0:0:0:
361,206,91915,6,0,P|344:145|235:301,1,462.000014099122
264,148,94469,6,0,P|304:197|109:196,1,462.000014099122
256,176,97022,6,2,L|326:22,1,154.000004699707
299,188,98298,2,2,L|382:51,1,154.000004699707
301,189,99575,6,2,L|404:66,1,154.000004699707
321,203,100852,2,2,L|445:103,1,154.000004699707
256,192,102128,12,2,107235,0:0:0:0:
