osu file format v14

[General]
AudioFilename: 0x10c_C418.mp3
AudioLeadIn: 0
PreviewTime: 51064
Countdown: 0
SampleSet: Normal
StackLeniency: 0.7
Mode: 2
LetterboxInBreaks: 1
WidescreenStoryboard: 0

[Editor]
Bookmarks: 9575,71488
DistanceSpacing: 1
BeatDivisor: 4
GridSize: 4
TimelineZoom: 1.3

[Metadata]
Title:0x10c
TitleUnicode:0x10c
Artist:C418
ArtistUnicode:C418
Creator:sxy62146214
Version:Cup
Source:0x10c
Tags:C418 Sadness resem last game Notch black Mojang sxy62146214 cyxw SkeletonXB MEGAtive
BeatmapID:1024899
BeatmapSetID:480034

[Difficulty]
HPDrainRate:5
CircleSize:3.5
OverallDifficulty:5
ApproachRate:5
SliderMultiplier:1.4
SliderTickRate:1

[Events]
//Background and Video events
0,0,"BG.png",0,0
//Break Periods
//Storyboard Layer 0 (Background)
//Storyboard Layer 1 (Fail)
//Storyboard Layer 2 (Pass)
//Storyboard Layer 3 (Foreground)
//Storyboard Sound Samples

[TimingPoints]
1,638.297872340426,4,1,0,10,1,0
2554,-100,4,1,0,20,0,0
5107,-100,4,1,0,30,0,0
7660,-100,4,1,0,40,0,0
30639,-100,4,1,0,45,0,0
40852,-100,4,1,0,50,0,0
51065,-100,4,1,0,55,0,0
61277,-95.2380952380952,4,1,0,60,0,0
71490,-95.2380952380952,4,1,0,65,0,1
80426,-100,4,1,0,45,0,0
81703,-80,4,1,0,65,0,1
91916,-90.9090909090909,4,1,0,60,0,1
97022,-90.9090909090909,4,1,0,50,0,1
97660,-90.9090909090909,4,1,0,45,0,1
98298,-90.9090909090909,4,1,0,40,0,1
98937,-90.9090909090909,4,1,0,35,0,1
99575,-90.9090909090909,4,1,0,30,0,1
100213,-90.9090909090909,4,1,0,25,0,1
100852,-90.9090909090909,4,1,0,20,0,1
101490,-90.9090909090909,4,1,0,15,0,1
102128,-133.333333333333,4,1,0,10,0,0

[Colours]
Combo1 : 255,255,255
Combo2 : 31,31,31
Combo3 : 63,63,63
Combo4 : 95,95,95
Combo5 : 127,127,127
Combo6 : 159,159,159
Combo7 : 191,191,191
Combo8 : 223,223,223

[HitObjects]
88,240,10213,5,0,0:0:0:0:
137,190,10532,1,0,0:0:0:0:
186,140,10852,1,0,0:0:0:0:
255,140,11171,2,0,B|344:140|232:140|232:140,1,70,8|0,0:0|0:0,0:0:0:0:
393,140,12128,5,0,0:0:0:0:
323,140,12447,1,8,0:0:0:0:
393,140,12766,1,0,0:0:0:0:
322,140,13086,2,0,L|220:140,1,70
182,140,13724,5,8,0:0:0:0:
112,140,14043,1,0,0:0:0:0:
182,140,14362,1,0,0:0:0:0:
136,192,14681,2,0,P|172:132|256:100,1,140,8|0,0:0|0:0,0:0:0:0:
384,300,15958,5,0,0:0:0:0:
272,300,16277,1,0,0:0:0:0:
384,300,16596,1,0,0:0:0:0:
272,300,16915,2,0,L|180:300,1,70,0|8,0:0|0:0,0:0:0:0:
92,192,17873,6,0,L|244:192,1,140,0|8,0:0|0:0,0:0:0:0:
101,227,18830,1,0,0:0:0:0:
163,191,18990,1,0,0:0:0:0:
222,157,19149,1,8,0:0:0:0:
472,344,19788,6,0,L|408:344,4,35,0|0|0|0|10,0:0|0:0|0:0|0:0|0:0,0:0:0:0:
308,344,20745,1,0,0:0:0:0:
377,344,21064,1,0,0:0:0:0:
216,344,21383,1,8,0:0:0:0:
107,192,21703,5,0,0:0:0:0:
219,192,22022,1,0,0:0:0:0:
321,192,22341,1,0,0:0:0:0:
220,192,22660,2,0,L|220:280,1,70,0|8,0:0|0:0,0:0:0:0:
432,40,23618,6,0,L|496:40,2,35
296,40,24256,1,8,0:0:0:0:
296,40,24575,2,0,L|200:40,1,70,0|2,0:0|0:0,0:0:0:0:
88,40,25213,1,0,0:0:0:0:
220,192,25532,6,0,B|240:192|240:192|256:240|256:240|272:192|272:192|296:192,1,140
80,192,26809,1,8,0:0:0:0:
220,192,27128,1,0,0:0:0:0:
348,192,27447,1,8,0:0:0:0:
76,36,28086,6,0,L|148:36,1,70
296,36,28724,2,0,L|224:36,1,70
328,36,29362,2,0,L|496:36,1,140,0|4,0:0|0:0,0:0:0:0:
328,36,30320,1,0,0:0:0:0:
392,192,30639,6,0,L|300:192,2,70
256,192,31596,1,8,0:0:0:0:
120,192,31915,2,0,L|212:192,1,70
332,192,32554,1,8,0:0:0:0:
68,300,33192,6,0,L|452:78,1,420,0|6,0:3|0:3,0:3:0:0:
172,344,35745,5,0,0:0:0:0:
276,344,36064,1,0,0:0:0:0:
172,344,36383,1,0,0:0:0:0:
276,344,36703,1,8,0:0:0:0:
400,192,37022,5,0,0:0:0:0:
256,192,37341,1,0,0:0:0:0:
128,192,37660,1,0,0:0:0:0:
380,192,38298,2,0,L|292:192,1,70
112,192,38937,6,0,L|200:192,1,70,0|4,0:0|0:0,0:0:0:0:
58,192,40852,6,0,L|136:192,1,70
272,192,41490,2,0,L|192:192,1,70
332,40,42128,2,0,L|332:92,2,35,0|0|2,0:0|0:0|0:0,0:0:0:0:
179,40,42766,2,0,L|179:92,2,35,0|0|8,0:0|0:0|0:0,0:0:0:0:
312,192,43405,6,0,L|234:192,1,70
384,192,44043,2,0,L|464:192,1,70
332,344,44681,2,0,L|332:292,2,35,0|0|2,0:0|0:0|0:0,0:0:0:0:
179,344,45320,2,0,L|179:292,2,35,0|0|8,0:0|0:0|0:0,0:0:0:0:
36,192,45958,6,0,L|128:192,2,70
194,156,46915,1,0,0:0:0:0:
132,192,47075,1,0,0:0:0:0:
73,226,47235,1,8,0:0:0:0:
222,192,47554,5,0,0:0:0:0:
256,192,47873,1,0,0:0:0:0:
292,192,48192,2,0,L|212:192,2,70,8|2|8,0:0|0:0|0:0,0:0:0:0:
360,192,49149,1,0,0:0:0:0:
222,192,49469,5,0,0:0:0:0:
72,192,49788,2,0,L|140:116,2,70
208,140,50745,2,0,L|272:216,1,70
344,137,51383,5,8,0:0:0:0:
394,88,51703,1,2,0:0:0:0:
344,137,52022,1,0,0:0:0:0:
294,186,52341,2,0,L|226:186,2,35,0|0|2,0:0|0:0|0:0,0:0:0:0:
116,184,52979,6,0,L|180:184,2,35,0|0|8,0:0|0:0|0:0,0:0:0:0:
256,192,53618,5,0,0:0:0:0:
150,192,53937,1,0,0:0:0:0:
256,192,54256,1,0,0:0:0:0:
361,192,54575,1,8,0:0:0:0:
220,192,54894,6,0,L|156:192,2,35,0|0|2,0:0|0:0|0:0,0:0:0:0:
326,192,55532,2,0,L|394:192,2,35,0|0|8,0:0|0:0|0:0,0:0:0:0:
220,36,56171,5,0,0:0:0:0:
292,36,56490,1,0,0:0:0:0:
364,36,56809,1,0,0:0:0:0:
220,36,57128,2,0,L|220:136,1,70,2|4,0:0|0:0,0:0:0:0:
432,36,58086,6,0,L|376:80,1,70
220,36,58724,2,0,L|276:80,2,70,0|0|8,0:0|0:0|0:0,0:0:0:0:
448,36,60001,5,0,0:0:0:0:
392,36,60160,1,0,0:0:0:0:
324,36,60320,1,0,0:0:0:0:
392,36,60479,1,0,0:0:0:0:
448,36,60639,1,0,0:0:0:0:
256,36,60958,1,8,0:0:0:0:
125,264,61277,5,0,0:0:0:0:
230,264,61596,1,4,0:0:0:0:
125,264,61915,1,0,0:0:0:0:
230,264,62235,1,8,0:0:0:0:
125,264,62554,6,0,L|41:264,1,73.4999977569581,0|2,0:0|0:0,0:0:0:0:
230,264,63192,2,0,L|285:264,2,36.749998878479,0|0|8,0:0|0:0|0:0,0:0:0:0:
256,48,63830,5,0,0:0:0:0:
345,52,64149,1,6,0:0:0:0:
450,52,64469,1,0,0:0:0:0:
345,52,64788,1,8,0:0:0:0:
450,52,65107,6,0,L|391:125,1,73.4999977569581,0|2,0:0|0:0,0:0:0:0:
345,52,65745,2,0,L|306:104,2,36.749998878479,0|0|8,0:0|0:0|0:0,0:0:0:0:
208,40,66383,6,0,B|168:44|132:68|108:112|108:144,1,146.999995513916
256,140,67341,1,4,0:0:0:0:
392,140,67660,2,0,L|312:140,2,73.4999977569581,0|0|8,0:0|0:0|0:0,0:0:0:0:
137,228,68937,5,0,0:0:0:0:
242,228,69256,1,0,0:0:0:0:
137,228,69575,1,0,0:0:0:0:
242,228,69894,2,0,L|281:180,1,36.749998878479
164,156,70213,6,0,B|200:104|280:104|328:124,2,146.999995513916,4|12|2,0:0|0:0|0:0,0:0:0:0:
288,156,71809,1,4,0:0:0:0:
393,156,72128,1,0,0:0:0:0:
288,156,72447,1,8,0:0:0:0:
134,44,72766,6,0,L|212:44,1,73.4999977569581
374,48,73405,2,0,L|292:48,1,73.4999977569581
230,164,74043,5,0,0:0:0:0:
124,164,74362,1,6,0:0:0:0:
230,164,74681,1,0,0:0:0:0:
124,164,75001,1,14,0:0:0:0:
336,196,75320,6,0,P|308:224|308:264,1,73.4999977569581
164,196,75958,2,0,P|192:168|192:128,1,73.4999977569581
32,192,76596,6,0,B|104:192|104:192|24:192,1,146.999995513916,8|0,0:0|0:0,0:0:0:0:
184,192,77554,1,2,0:0:0:0:
256,192,77873,1,0,0:0:0:0:
256,192,78192,1,0,0:0:0:0:
368,192,78511,6,0,P|328:120|256:80,1,146.999995513916,8|0,0:0|0:0,0:0:0:0:
144,192,79469,1,2,0:0:0:0:
156,157,79628,1,2,0:0:0:0:
177,127,79788,1,2,0:0:0:0:
204,102,79947,1,2,0:0:0:0:
237,85,80107,1,10,0:0:0:0:
388,192,80426,6,0,L|304:192,1,70,4|0,0:0|0:0,0:0:0:0:
156,192,81064,1,4,0:0:0:0:
68,192,81383,1,4,0:0:0:0:
58,192,81703,6,0,L|152:192,1,87.5,0|8,0:0|0:0,0:0:0:0:
308,192,82341,2,0,L|216:192,1,87.5
342,40,82979,2,0,L|342:96,2,43.75,0|0|2,0:0|0:0|0:0,0:0:0:0:
169,40,83618,2,0,L|169:96,2,43.75,0|0|8,0:0|0:0|0:0,0:0:0:0:
380,192,84256,6,0,L|286:192,1,87.5,0|6,0:0|0:0,0:0:0:0:
132,192,84894,2,0,L|224:192,1,87.5
169,344,85532,2,0,L|169:288,2,43.75,0|0|2,0:0|0:0|0:0,0:0:0:0:
342,344,86171,2,0,L|342:288,2,43.75,0|0|8,0:0|0:0|0:0,0:0:0:0:
176,192,86809,6,0,L|360:192,2,175
311,192,88405,1,8,0:0:0:0:
192,84,88724,2,0,L|288:84,1,87.5
424,120,89362,2,0,B|392:152|392:152|360:184,2,87.5
132,192,90639,6,0,L|220:192,1,87.5
356,192,91277,1,4,0:0:0:0:
276,128,91596,1,4,0:0:0:0:
184,52,91915,70,0,B|300:20|376:12|484:20|548:60|524:180|428:240|356:256|264:272,1,612.5
284,104,94469,102,0,B|165:126|93:152|0:206|-39:270|34:368|147:379|218:362|320:328,1,616.000018798829
256,192,97660,5,0,0:0:0:0:
220,192,98298,1,0,0:0:0:0:
320,192,98937,1,0,0:0:0:0:
156,192,99575,1,0,0:0:0:0:
256,192,100213,101,0,0:0:0:0:
292,192,100852,1,0,0:0:0:0:
192,192,101490,1,0,0:0:0:0:
256,192,102128,12,0,107235,0:0:0:0:
