osu file format v14

[General]
AudioFilename: 0x10c_C418.mp3
AudioLeadIn: 0
PreviewTime: 51064
Countdown: 0
SampleSet: Soft
StackLeniency: 0.7
Mode: 3
LetterboxInBreaks: 1
SpecialStyle: 0
WidescreenStoryboard: 1

[Editor]
Bookmarks: 9574,40852,51064,61277,71487,81703
DistanceSpacing: 1
BeatDivisor: 4
GridSize: 4
TimelineZoom: 1.4

[Metadata]
Title:0x10c
TitleUnicode:0x10c
Artist:C418
ArtistUnicode:C418
Creator:sxy62146214
Version:7K Serenity
Source:0x10c
Tags:C418 Sadness resem last game Notch black Mojang sxy62146214 cyxw SkeletonXB MEGAtive
BeatmapID:1107565
BeatmapSetID:480034

[Difficulty]
HPDrainRate:8.5
CircleSize:7
OverallDifficulty:8.5
ApproachRate:7.5
SliderMultiplier:1.9
SliderTickRate:2

[Events]
//Background and Video events
0,0,"BG.png",0,0
//Break Periods
//Storyboard Layer 0 (Background)
//Storyboard Layer 1 (Fail)
//Storyboard Layer 2 (Pass)
//Storyboard Layer 3 (Foreground)
//Storyboard Sound Samples

[TimingPoints]
1,638.297872340426,4,2,0,0,1,0
71490,-100,4,2,0,0,0,1
80426,-100,4,2,0,0,0,0
81703,-100,4,2,0,0,0,1
102128,-100,4,2,0,0,0,0

[Colours]
Combo1 : 255,255,255
Combo2 : 31,31,31
Combo3 : 63,63,63
Combo4 : 95,95,95
Combo5 : 127,127,127
Combo6 : 159,159,159
Combo7 : 191,191,191
Combo8 : 191,191,191

[HitObjects]
475,192,1,5,0,0:0:0:0:
329,192,320,1,0,0:0:0:0:
36,192,639,1,0,0:0:0:0:
182,192,958,1,0,0:0:0:0:
402,192,1277,1,0,0:0:0:0:
36,192,2554,1,0,0:0:0:0:
182,192,2554,1,0,0:0:0:0:
475,192,5107,1,0,0:0:0:0:
329,192,5426,1,0,0:0:0:0:
36,192,5745,1,0,0:0:0:0:
256,192,6064,1,0,0:0:0:0:
475,192,6383,1,0,0:0:0:0:
182,192,6383,1,0,0:0:0:0:
36,192,7660,1,0,0:0:0:0:
182,192,7660,1,0,0:0:0:0:
256,192,9575,1,0,0:0:0:0:
256,192,10213,5,0,0:0:0:0:
475,192,10213,1,0,0:0:0:0:
182,192,10532,1,0,0:0:0:0:
109,192,10852,1,0,0:0:0:0:
329,192,11171,1,0,0:0:0:0:
475,192,11171,1,0,0:0:0:0:
182,192,11809,1,0,0:0:0:0:
36,192,11809,1,0,0:0:0:0:
256,192,12447,1,0,0:0:0:0:
475,192,12447,1,0,0:0:0:0:
109,192,12766,1,0,0:0:0:0:
402,192,12766,1,0,0:0:0:0:
256,192,13086,1,0,0:0:0:0:
36,192,13086,1,0,0:0:0:0:
329,192,13405,1,0,0:0:0:0:
402,192,13724,1,0,0:0:0:0:
109,192,13724,1,0,0:0:0:0:
256,192,14681,1,0,0:0:0:0:
475,192,14681,1,0,0:0:0:0:
329,192,15320,1,0,0:0:0:0:
36,192,15320,1,0,0:0:0:0:
475,192,15320,1,0,0:0:0:0:
256,192,15639,1,0,0:0:0:0:
182,192,15958,1,0,0:0:0:0:
109,192,16277,1,0,0:0:0:0:
402,192,16277,1,0,0:0:0:0:
402,192,16596,1,0,0:0:0:0:
109,192,16596,1,0,0:0:0:0:
182,192,17075,1,0,0:0:0:0:
475,192,17075,1,0,0:0:0:0:
36,192,17075,1,0,0:0:0:0:
329,192,17554,1,0,0:0:0:0:
475,192,17554,1,0,0:0:0:0:
256,192,17554,1,0,0:0:0:0:
182,192,17873,1,0,0:0:0:0:
36,192,17873,1,0,0:0:0:0:
402,192,17873,1,0,0:0:0:0:
475,192,18192,1,0,0:0:0:0:
256,192,18511,1,0,0:0:0:0:
109,192,18830,1,0,0:0:0:0:
36,192,18830,1,0,0:0:0:0:
329,192,18830,1,0,0:0:0:0:
402,192,19788,1,0,0:0:0:0:
475,192,19788,1,0,0:0:0:0:
182,192,19788,1,0,0:0:0:0:
36,192,20426,1,0,0:0:0:0:
256,192,20426,1,0,0:0:0:0:
475,192,20426,1,0,0:0:0:0:
182,192,20745,1,0,0:0:0:0:
109,192,21064,1,0,0:0:0:0:
256,192,21383,1,0,0:0:0:0:
329,192,21703,1,0,0:0:0:0:
475,192,21703,1,0,0:0:0:0:
182,192,21703,1,0,0:0:0:0:
402,192,22181,1,0,0:0:0:0:
256,192,22181,1,0,0:0:0:0:
109,192,22181,1,0,0:0:0:0:
329,192,22660,1,0,0:0:0:0:
182,192,22660,1,0,0:0:0:0:
36,192,22660,1,0,0:0:0:0:
182,192,22979,1,0,0:0:0:0:
36,192,22979,1,0,0:0:0:0:
256,192,22979,1,0,0:0:0:0:
109,192,23298,1,0,0:0:0:0:
402,192,23618,1,0,0:0:0:0:
256,192,23618,1,0,0:0:0:0:
182,192,23937,1,0,0:0:0:0:
402,192,23937,1,0,0:0:0:0:
182,192,24575,1,0,0:0:0:0:
109,192,24575,1,0,0:0:0:0:
402,192,25213,1,0,0:0:0:0:
475,192,25213,1,0,0:0:0:0:
256,192,25532,1,0,0:0:0:0:
36,192,25532,1,0,0:0:0:0:
182,192,25852,1,0,0:0:0:0:
256,192,26171,1,0,0:0:0:0:
475,192,26171,1,0,0:0:0:0:
109,192,26490,1,0,0:0:0:0:
402,192,26490,1,0,0:0:0:0:
182,192,26809,1,0,0:0:0:0:
329,192,26809,1,0,0:0:0:0:
256,192,27288,1,0,0:0:0:0:
402,192,27288,1,0,0:0:0:0:
329,192,27766,1,0,0:0:0:0:
475,192,27766,1,0,0:0:0:0:
475,192,28086,1,0,0:0:0:0:
402,192,28086,1,0,0:0:0:0:
109,192,28086,1,0,0:0:0:0:
329,192,28405,1,0,0:0:0:0:
256,192,28724,1,0,0:0:0:0:
36,192,28724,1,0,0:0:0:0:
109,192,29043,1,0,0:0:0:0:
182,192,29362,1,0,0:0:0:0:
475,192,29362,1,0,0:0:0:0:
329,192,29362,1,0,0:0:0:0:
256,192,30001,1,0,0:0:0:0:
109,192,30001,1,0,0:0:0:0:
36,192,30001,1,0,0:0:0:0:
182,192,30639,1,0,0:0:0:0:
402,192,30639,1,0,0:0:0:0:
329,192,30958,1,0,0:0:0:0:
109,192,31277,1,0,0:0:0:0:
256,192,31596,1,0,0:0:0:0:
475,192,31596,1,0,0:0:0:0:
402,192,32235,1,0,0:0:0:0:
182,192,32235,1,0,0:0:0:0:
182,192,32713,1,0,0:0:0:0:
475,192,32713,1,0,0:0:0:0:
475,192,33192,1,0,0:0:0:0:
256,192,33192,1,0,0:0:0:0:
109,192,33511,1,0,0:0:0:0:
402,192,33830,1,0,0:0:0:0:
256,192,34149,1,0,0:0:0:0:
36,192,34149,1,0,0:0:0:0:
182,192,35107,1,0,0:0:0:0:
329,192,35107,1,0,0:0:0:0:
402,192,35745,1,0,0:0:0:0:
256,192,36064,1,0,0:0:0:0:
36,192,36064,1,0,0:0:0:0:
475,192,36383,1,0,0:0:0:0:
329,192,36703,1,0,0:0:0:0:
182,192,37022,1,0,0:0:0:0:
36,192,37022,1,0,0:0:0:0:
329,192,37501,1,0,0:0:0:0:
475,192,37501,1,0,0:0:0:0:
402,192,37979,1,0,0:0:0:0:
256,192,37979,1,0,0:0:0:0:
329,192,38298,1,0,0:0:0:0:
182,192,38298,1,0,0:0:0:0:
36,192,38618,1,0,0:0:0:0:
475,192,38937,1,0,0:0:0:0:
329,192,39256,1,0,0:0:0:0:
182,192,39256,1,0,0:0:0:0:
109,192,40852,5,0,0:0:0:0:
256,192,40852,1,0,0:0:0:0:
329,192,41171,1,0,0:0:0:0:
475,192,41171,1,0,0:0:0:0:
182,192,41490,1,0,0:0:0:0:
256,192,41809,1,0,0:0:0:0:
402,192,41809,1,0,0:0:0:0:
329,192,43405,1,0,0:0:0:0:
475,192,43405,1,0,0:0:0:0:
36,192,43405,1,0,0:0:0:0:
109,192,43724,1,0,0:0:0:0:
256,192,43724,1,0,0:0:0:0:
402,192,44043,1,0,0:0:0:0:
329,192,44362,1,0,0:0:0:0:
182,192,44362,1,0,0:0:0:0:
36,192,44362,1,0,0:0:0:0:
475,192,44681,1,0,0:0:0:0:
475,192,45320,1,0,0:0:0:0:
402,192,45958,1,0,0:0:0:0:
182,192,45958,1,0,0:0:0:0:
329,192,45958,1,0,0:0:0:0:
36,192,46277,1,0,0:0:0:0:
475,192,46596,1,0,0:0:0:0:
329,192,46596,1,0,0:0:0:0:
182,192,46915,1,0,0:0:0:0:
256,192,47235,1,0,0:0:0:0:
256,192,47873,1,0,0:0:0:0:
109,192,47873,1,0,0:0:0:0:
475,192,47873,1,0,0:0:0:0:
402,192,48511,1,0,0:0:0:0:
182,192,48511,1,0,0:0:0:0:
36,192,48511,1,0,0:0:0:0:
329,192,48830,1,0,0:0:0:0:
256,192,49149,1,0,0:0:0:0:
475,192,49149,1,0,0:0:0:0:
402,192,49469,1,0,0:0:0:0:
329,192,49788,1,0,0:0:0:0:
109,192,49788,1,0,0:0:0:0:
182,192,50266,5,0,0:0:0:0:
402,192,50266,1,0,0:0:0:0:
475,192,50745,1,0,0:0:0:0:
256,192,50745,1,0,0:0:0:0:
36,192,51064,5,0,0:0:0:0:
182,192,51064,1,0,0:0:0:0:
475,192,51064,1,0,0:0:0:0:
256,192,51383,1,0,0:0:0:0:
402,192,51383,1,0,0:0:0:0:
329,192,51703,1,0,0:0:0:0:
182,192,51703,1,0,0:0:0:0:
256,192,52022,1,0,0:0:0:0:
109,192,52022,1,0,0:0:0:0:
475,192,52022,1,0,0:0:0:0:
329,192,52341,1,0,0:0:0:0:
182,192,52979,1,0,0:0:0:0:
36,192,52979,1,0,0:0:0:0:
109,192,53618,1,0,0:0:0:0:
256,192,53618,1,0,0:0:0:0:
475,192,53618,1,0,0:0:0:0:
329,192,53937,1,0,0:0:0:0:
182,192,53937,1,0,0:0:0:0:
256,192,54256,1,0,0:0:0:0:
109,192,54256,1,0,0:0:0:0:
329,192,54575,1,0,0:0:0:0:
475,192,54575,1,0,0:0:0:0:
36,192,54575,1,0,0:0:0:0:
182,192,54894,1,0,0:0:0:0:
256,192,55532,1,0,0:0:0:0:
182,192,55532,1,0,0:0:0:0:
36,192,56171,1,0,0:0:0:0:
182,192,56171,1,0,0:0:0:0:
402,192,56171,1,0,0:0:0:0:
329,192,56490,1,0,0:0:0:0:
256,192,56490,1,0,0:0:0:0:
109,192,56809,1,0,0:0:0:0:
36,192,56809,1,0,0:0:0:0:
475,192,56809,1,0,0:0:0:0:
402,192,57128,1,0,0:0:0:0:
182,192,57128,1,0,0:0:0:0:
256,192,57447,1,0,0:0:0:0:
329,192,58086,1,0,0:0:0:0:
109,192,58086,1,0,0:0:0:0:
182,192,58724,1,0,0:0:0:0:
36,192,58724,1,0,0:0:0:0:
475,192,58724,1,0,0:0:0:0:
402,192,59043,1,0,0:0:0:0:
256,192,59043,1,0,0:0:0:0:
182,192,59362,1,0,0:0:0:0:
475,192,59362,1,0,0:0:0:0:
329,192,59681,1,0,0:0:0:0:
109,192,59681,1,0,0:0:0:0:
36,192,60001,1,0,0:0:0:0:
256,192,60001,1,0,0:0:0:0:
402,192,60001,1,0,0:0:0:0:
109,192,60479,1,0,0:0:0:0:
329,192,60479,1,0,0:0:0:0:
475,192,60479,1,0,0:0:0:0:
475,192,60958,1,0,0:0:0:0:
402,192,60958,1,0,0:0:0:0:
182,192,60958,1,0,0:0:0:0:
36,192,61277,1,0,0:0:0:0:
182,192,61277,1,0,0:0:0:0:
475,192,61277,1,0,0:0:0:0:
256,192,61596,1,0,0:0:0:0:
402,192,61596,1,0,0:0:0:0:
329,192,61915,1,0,0:0:0:0:
182,192,61915,1,0,0:0:0:0:
256,192,62235,1,0,0:0:0:0:
109,192,62235,1,0,0:0:0:0:
475,192,62235,1,0,0:0:0:0:
329,192,62554,1,0,0:0:0:0:
182,192,63192,1,0,0:0:0:0:
36,192,63192,1,0,0:0:0:0:
109,192,63830,1,0,0:0:0:0:
256,192,63830,1,0,0:0:0:0:
475,192,63830,1,0,0:0:0:0:
329,192,64149,1,0,0:0:0:0:
182,192,64149,1,0,0:0:0:0:
256,192,64469,1,0,0:0:0:0:
109,192,64469,1,0,0:0:0:0:
329,192,64788,1,0,0:0:0:0:
475,192,64788,1,0,0:0:0:0:
36,192,64788,1,0,0:0:0:0:
182,192,65107,1,0,0:0:0:0:
256,192,65745,1,0,0:0:0:0:
182,192,65745,1,0,0:0:0:0:
36,192,66383,1,0,0:0:0:0:
182,192,66383,1,0,0:0:0:0:
402,192,66383,1,0,0:0:0:0:
329,192,66703,1,0,0:0:0:0:
256,192,66703,1,0,0:0:0:0:
109,192,67022,1,0,0:0:0:0:
36,192,67022,1,0,0:0:0:0:
475,192,67022,1,0,0:0:0:0:
402,192,67341,1,0,0:0:0:0:
182,192,67341,1,0,0:0:0:0:
256,192,67660,1,0,0:0:0:0:
329,192,68298,1,0,0:0:0:0:
109,192,68298,1,0,0:0:0:0:
182,192,68937,1,0,0:0:0:0:
36,192,68937,1,0,0:0:0:0:
475,192,68937,1,0,0:0:0:0:
402,192,69256,1,0,0:0:0:0:
256,192,69256,1,0,0:0:0:0:
182,192,69575,1,0,0:0:0:0:
475,192,69575,1,0,0:0:0:0:
329,192,69894,1,0,0:0:0:0:
109,192,69894,1,0,0:0:0:0:
36,192,70213,1,0,0:0:0:0:
256,192,70213,1,0,0:0:0:0:
402,192,70213,1,0,0:0:0:0:
109,192,70692,1,0,0:0:0:0:
329,192,70692,1,0,0:0:0:0:
475,192,70692,1,0,0:0:0:0:
475,192,71171,1,0,0:0:0:0:
402,192,71171,1,0,0:0:0:0:
182,192,71171,1,0,0:0:0:0:
475,192,71490,1,0,0:0:0:0:
256,192,71490,1,0,0:0:0:0:
36,192,71490,1,0,0:0:0:0:
402,192,71490,1,0,0:0:0:0:
402,192,71809,1,0,0:0:0:0:
182,192,71809,1,0,0:0:0:0:
329,192,71809,1,0,0:0:0:0:
109,192,72128,1,0,0:0:0:0:
329,192,72128,1,0,0:0:0:0:
36,192,72128,1,0,0:0:0:0:
475,192,72447,1,0,0:0:0:0:
109,192,72447,1,0,0:0:0:0:
182,192,72447,1,0,0:0:0:0:
329,192,72766,1,0,0:0:0:0:
36,192,73405,1,0,0:0:0:0:
182,192,73405,1,0,0:0:0:0:
475,192,74043,1,0,0:0:0:0:
256,192,74043,1,0,0:0:0:0:
109,192,74043,1,0,0:0:0:0:
329,192,74043,1,0,0:0:0:0:
182,192,74362,1,0,0:0:0:0:
329,192,74362,1,0,0:0:0:0:
402,192,74362,1,0,0:0:0:0:
109,192,74681,1,0,0:0:0:0:
256,192,74681,1,0,0:0:0:0:
36,192,74681,1,0,0:0:0:0:
475,192,75001,1,0,0:0:0:0:
109,192,75001,1,0,0:0:0:0:
182,192,75001,1,0,0:0:0:0:
182,192,75958,1,0,0:0:0:0:
256,192,75958,1,0,0:0:0:0:
182,192,76596,1,0,0:0:0:0:
36,192,76596,1,0,0:0:0:0:
475,192,76596,1,0,0:0:0:0:
256,192,76596,1,0,0:0:0:0:
256,192,76915,1,0,0:0:0:0:
329,192,76915,1,0,0:0:0:0:
109,192,76915,1,0,0:0:0:0:
329,192,77235,1,0,0:0:0:0:
182,192,77235,1,0,0:0:0:0:
402,192,77235,1,0,0:0:0:0:
402,192,77554,1,0,0:0:0:0:
256,192,77554,1,0,0:0:0:0:
475,192,77554,1,0,0:0:0:0:
36,192,77873,1,0,0:0:0:0:
109,192,78511,1,0,0:0:0:0:
329,192,78511,1,0,0:0:0:0:
475,192,78511,1,0,0:0:0:0:
475,192,79149,1,0,0:0:0:0:
36,192,79149,1,0,0:0:0:0:
402,192,79149,1,0,0:0:0:0:
182,192,79149,1,0,0:0:0:0:
402,192,79469,1,0,0:0:0:0:
329,192,79469,1,0,0:0:0:0:
109,192,79469,1,0,0:0:0:0:
329,192,79788,1,0,0:0:0:0:
256,192,79788,1,0,0:0:0:0:
36,192,79788,1,0,0:0:0:0:
475,192,80107,1,0,0:0:0:0:
402,192,80426,1,0,0:0:0:0:
182,192,80426,1,0,0:0:0:0:
109,192,80426,1,0,0:0:0:0:
475,192,80905,1,0,0:0:0:0:
329,192,80905,1,0,0:0:0:0:
109,192,80905,1,0,0:0:0:0:
182,192,81383,1,0,0:0:0:0:
402,192,81383,1,0,0:0:0:0:
475,192,81383,1,0,0:0:0:0:
36,192,81703,1,0,0:0:0:0:
256,192,81703,1,0,0:0:0:0:
475,192,81703,1,0,0:0:0:0:
109,192,81703,1,0,0:0:0:0:
109,192,82022,1,0,0:0:0:0:
329,192,82022,1,0,0:0:0:0:
182,192,82022,1,0,0:0:0:0:
402,192,82341,1,0,0:0:0:0:
182,192,82341,1,0,0:0:0:0:
475,192,82341,1,0,0:0:0:0:
36,192,82660,1,0,0:0:0:0:
402,192,82660,1,0,0:0:0:0:
329,192,82660,1,0,0:0:0:0:
182,192,82979,1,0,0:0:0:0:
256,192,82979,1,0,0:0:0:0:
475,192,83618,1,0,0:0:0:0:
329,192,83618,1,0,0:0:0:0:
109,192,83618,1,0,0:0:0:0:
36,192,84256,1,0,0:0:0:0:
256,192,84256,1,0,0:0:0:0:
402,192,84256,1,0,0:0:0:0:
182,192,84256,1,0,0:0:0:0:
329,192,84575,1,0,0:0:0:0:
182,192,84575,1,0,0:0:0:0:
109,192,84575,1,0,0:0:0:0:
402,192,84894,1,0,0:0:0:0:
256,192,84894,1,0,0:0:0:0:
475,192,84894,1,0,0:0:0:0:
36,192,85213,1,0,0:0:0:0:
402,192,85213,1,0,0:0:0:0:
329,192,85213,1,0,0:0:0:0:
182,192,85532,1,0,0:0:0:0:
329,192,86171,1,0,0:0:0:0:
256,192,86171,1,0,0:0:0:0:
109,192,86171,1,0,0:0:0:0:
329,192,86809,1,0,0:0:0:0:
475,192,86809,1,0,0:0:0:0:
36,192,86809,1,0,0:0:0:0:
256,192,86809,1,0,0:0:0:0:
256,192,87128,1,0,0:0:0:0:
182,192,87128,1,0,0:0:0:0:
402,192,87128,1,0,0:0:0:0:
182,192,87447,1,0,0:0:0:0:
329,192,87447,1,0,0:0:0:0:
109,192,87447,1,0,0:0:0:0:
109,192,87766,1,0,0:0:0:0:
256,192,87766,1,0,0:0:0:0:
36,192,87766,1,0,0:0:0:0:
475,192,88086,1,0,0:0:0:0:
402,192,88086,1,0,0:0:0:0:
402,192,88724,1,0,0:0:0:0:
182,192,88724,1,0,0:0:0:0:
36,192,88724,1,0,0:0:0:0:
36,192,89362,1,0,0:0:0:0:
475,192,89362,1,0,0:0:0:0:
109,192,89362,1,0,0:0:0:0:
329,192,89362,1,0,0:0:0:0:
109,192,89681,1,0,0:0:0:0:
182,192,89681,1,0,0:0:0:0:
402,192,89681,1,0,0:0:0:0:
182,192,90001,1,0,0:0:0:0:
256,192,90001,1,0,0:0:0:0:
475,192,90001,1,0,0:0:0:0:
109,192,90639,1,0,0:0:0:0:
329,192,90639,1,0,0:0:0:0:
402,192,90639,1,0,0:0:0:0:
36,192,91118,1,0,0:0:0:0:
182,192,91118,1,0,0:0:0:0:
402,192,91118,1,0,0:0:0:0:
329,192,91596,1,0,0:0:0:0:
109,192,91596,1,0,0:0:0:0:
36,192,91596,1,0,0:0:0:0:
182,192,91915,1,0,0:0:0:0:
329,192,91915,1,0,0:0:0:0:
475,192,91915,1,0,0:0:0:0:
36,192,92235,1,0,0:0:0:0:
256,192,92554,1,0,0:0:0:0:
402,192,92554,1,0,0:0:0:0:
475,192,92554,1,0,0:0:0:0:
109,192,92873,1,0,0:0:0:0:
256,192,93192,1,0,0:0:0:0:
329,192,93192,1,0,0:0:0:0:
475,192,93192,1,0,0:0:0:0:
182,192,93830,1,0,0:0:0:0:
256,192,93830,1,0,0:0:0:0:
402,192,93830,1,0,0:0:0:0:
182,192,94469,1,0,0:0:0:0:
109,192,94469,1,0,0:0:0:0:
402,192,94788,1,0,0:0:0:0:
256,192,95107,1,0,0:0:0:0:
109,192,95107,1,0,0:0:0:0:
475,192,95426,1,0,0:0:0:0:
329,192,95745,1,0,0:0:0:0:
182,192,95745,1,0,0:0:0:0:
36,192,95745,1,0,0:0:0:0:
182,192,96383,1,0,0:0:0:0:
329,192,96383,1,0,0:0:0:0:
475,192,96383,1,0,0:0:0:0:
402,192,97022,1,0,0:0:0:0:
256,192,97022,1,0,0:0:0:0:
256,192,97660,1,0,0:0:0:0:
256,192,98298,1,0,0:0:0:0:
256,192,98937,1,0,0:0:0:0:
256,192,99575,1,0,0:0:0:0:
256,192,100213,1,0,0:0:0:0:
256,192,100852,1,0,0:0:0:0:
256,192,101490,1,0,0:0:0:0:
256,192,102128,128,0,103405:0:0:0:0:
