osu file format v14

[General]
AudioFilename: 0x10c_C418.mp3
AudioLeadIn: 0
PreviewTime: 51064
Countdown: 0
SampleSet: Soft
StackLeniency: 0.7
Mode: 2
LetterboxInBreaks: 1
WidescreenStoryboard: 1

[Editor]
Bookmarks: 2554,9575,19947,39575,60001,71488,81703
DistanceSpacing: 1.5
BeatDivisor: 8
GridSize: 4
TimelineZoom: 3.699999

[Metadata]
Title:0x10c
TitleUnicode:0x10c
Artist:C418
ArtistUnicode:C418
Creator:sxy62146214
Version:10c
Source:0x10c
Tags:C418 Sadness resem last game Notch black Mojang sxy62146214 cyxw SkeletonXB MEGAtive
BeatmapID:1117825
BeatmapSetID:480034

[Difficulty]
HPDrainRate:8
CircleSize:4.5
OverallDifficulty:9
ApproachRate:9
SliderMultiplier:2
SliderTickRate:2

[Events]
//Background and Video events
0,0,"Insane BG.png",0,0
//Break Periods
//Storyboard Layer 0 (Background)
//Storyboard Layer 1 (Fail)
//Storyboard Layer 2 (Pass)
//Storyboard Layer 3 (Foreground)
//Storyboard Sound Samples

[TimingPoints]
1,638.297872340426,4,2,0,10,1,0
2554,-90.9090909090909,4,2,0,20,0,0
5107,-90.9090909090909,4,2,0,30,0,0
7660,-90.9090909090909,4,2,0,40,0,0
10213,-80,4,2,0,40,0,0
39575,-80,4,2,0,45,0,0
51065,-80,4,2,1,50,0,0
52341,-80,4,2,0,50,0,0
53618,-80,4,2,1,50,0,0
54894,-80,4,2,4,50,0,0
56171,-80,4,2,0,50,0,0
61277,-76.9230769230769,4,2,0,55,0,0
62554,-76.9230769230769,4,2,1,55,0,0
63830,-76.9230769230769,4,2,0,55,0,0
65107,-76.9230769230769,4,2,4,55,0,0
66383,-76.9230769230769,4,2,0,55,0,0
71490,-71.4285714285714,4,2,0,60,0,1
80426,-50,4,2,0,45,0,0
81703,-66.6666666666667,4,2,0,65,0,1
82979,-66.6666666666667,4,2,1,65,0,1
84256,-66.6666666666667,4,2,0,65,0,1
85532,-66.6666666666667,4,2,4,65,0,1
86809,-66.6666666666667,4,2,0,65,0,1
91916,-66.6666666666667,4,2,0,60,0,1
97022,-66.6666666666667,4,2,0,50,0,1
97660,-66.6666666666667,4,2,0,45,0,1
98298,-66.6666666666667,4,2,0,40,0,1
98937,-66.6666666666667,4,2,0,35,0,1
99575,-66.6666666666667,4,2,0,30,0,1
100213,-66.6666666666667,4,2,0,25,0,1
100852,-66.6666666666667,4,2,0,20,0,1
101490,-66.6666666666667,4,2,0,15,0,1
102128,-100,4,2,0,10,0,0

[Colours]
Combo1 : 255,255,255
Combo2 : 31,31,31
Combo3 : 63,63,63
Combo4 : 95,95,95
Combo5 : 127,127,127
Combo6 : 159,159,159
Combo7 : 191,191,191
Combo8 : 223,223,223

[HitObjects]
144,280,1,5,0,0:0:0:0:
108,224,320,1,0,0:0:0:0:
72,160,639,1,0,0:0:0:0:
48,96,958,1,0,0:0:0:0:
32,36,1277,2,0,L|148:36,1,100,2|0,0:0|0:0,0:0:0:0:
332,32,1915,2,0,L|228:32,1,100,2|0,0:0|0:0,0:0:0:0:
464,220,2554,2,4,P|260:216|152:28,2,440.000013427735,8|4|0,0:0|0:0|0:0,0:0:0:0:
328,104,5426,5,0,0:0:0:0:
488,136,5745,1,0,0:0:0:0:
280,160,6064,1,0,0:0:0:0:
500,208,6383,1,2,0:0:0:0:
392,260,7660,1,0,0:0:0:0:
360,204,7740,1,0,0:0:0:0:
0,272,7820,2,0,B|184:268|312:232|464:188|456:108|480:44|352:24,1,605.000018463135,2|4,0:0|0:0,0:0:0:0:
152,336,10213,5,2,0:0:0:0:
104,292,10293,1,0,0:0:0:0:
88,232,10373,1,0,0:0:0:0:
124,180,10453,1,0,0:0:0:0:
268,164,10532,1,2,0:0:0:0:
316,124,10612,1,0,0:0:0:0:
304,64,10692,1,0,0:0:0:0:
248,36,10772,1,0,0:0:0:0:
64,44,10852,1,2,0:0:0:0:
40,100,10931,1,0,0:0:0:0:
24,160,11011,1,0,0:0:0:0:
20,224,11091,1,0,0:0:0:0:
280,288,11171,1,2,0:0:0:0:
308,232,11251,1,0,0:0:0:0:
324,172,11330,1,0,0:0:0:0:
332,108,11410,1,0,0:0:0:0:
140,64,11490,6,0,L|32:64,1,93.75
204,64,11809,2,0,B|328:64|328:64|232:64,1,218.75
24,68,12447,2,0,L|144:68,1,93.75
144,68,12766,2,0,L|156:132,1,62.5,8|0,0:0|0:0,0:0:0:0:
320,92,13086,2,0,L|304:160,1,62.5
28,104,13405,2,0,L|56:176,1,62.5
412,100,13724,2,0,L|392:184,1,62.5,8|0,0:0|0:0,0:0:0:0:
112,160,14043,5,0,0:0:0:0:
160,200,14123,1,0,0:0:0:0:
208,240,14203,1,0,0:0:0:0:
256,280,14282,1,0,0:0:0:0:
304,320,14362,1,0,0:0:0:0:
360,292,14442,1,0,0:0:0:0:
328,240,14522,1,0,0:0:0:0:
296,188,14602,1,0,0:0:0:0:
260,80,14681,2,0,B|136:80|136:80|232:80,1,218.75
296,80,15320,5,2,0:0:0:0:
340,124,15399,1,0,0:0:0:0:
384,80,15479,1,0,0:0:0:0:
428,124,15559,1,0,0:0:0:0:
256,132,15639,1,2,0:0:0:0:
212,176,15718,1,0,0:0:0:0:
168,132,15798,1,0,0:0:0:0:
124,176,15878,1,0,0:0:0:0:
344,168,15958,1,2,0:0:0:0:
388,212,16037,1,0,0:0:0:0:
432,168,16117,1,0,0:0:0:0:
476,212,16197,1,0,0:0:0:0:
148,200,16277,1,2,0:0:0:0:
104,244,16356,1,0,0:0:0:0:
60,200,16436,1,0,0:0:0:0:
16,244,16516,1,0,0:0:0:0:
224,296,16596,6,0,B|316:296|316:296|252:296,1,156.25
116,248,17075,2,0,B|24:248|24:248|88:248,1,156.25
316,296,17554,2,0,L|416:296,1,93.75
288,292,17873,2,0,L|252:220,1,62.5,8|0,0:0|0:0,0:0:0:0:
432,296,18192,2,0,L|456:224,1,62.5
180,296,18511,2,0,L|140:236,1,62.5,0|8,0:0|0:0,0:0:0:0:
480,288,18830,2,0,L|512:228,1,62.5,4|0,0:0|0:0,0:0:0:0:
360,236,19149,5,0,0:0:0:0:
300,216,19229,1,0,0:0:0:0:
244,188,19309,1,0,0:0:0:0:
188,156,19389,1,0,0:0:0:0:
132,124,19469,1,0,0:0:0:0:
188,96,19548,1,0,0:0:0:0:
244,72,19628,1,0,0:0:0:0:
304,48,19708,1,0,0:0:0:0:
66,57,19788,2,0,B|186:93|186:93|130:125,1,187.5
428,300,20426,6,0,L|328:300,1,93.75,2|0,0:0|0:0,0:0:0:0:
240,244,20745,2,0,L|336:244,1,93.75,2|0,0:0|0:0,0:0:0:0:
472,196,21064,2,0,B|348:196|348:196|296:124,1,187.5,2|0,0:0|0:0,0:0:0:0:
60,68,21703,2,0,L|224:68,1,156.25,8|0,0:0|0:0,0:0:0:0:
372,68,22181,2,0,L|208:68,1,156.25,8|0,0:0|0:0,0:0:0:0:
215,68,22660,2,0,L|216:156,1,62.5,8|0,0:0|0:0,0:0:0:0:
76,236,22979,5,0,0:0:0:0:
108,292,23059,1,0,0:0:0:0:
140,240,23139,1,0,0:0:0:0:
172,292,23219,1,0,0:0:0:0:
352,236,23298,5,0,0:0:0:0:
320,292,23378,1,0,0:0:0:0:
288,240,23458,1,0,0:0:0:0:
256,292,23538,1,0,0:0:0:0:
68,228,23618,2,0,B|44:172|44:172|64:128,1,93.75
224,232,23937,2,0,B|304:136|304:136|244:56,1,218.75
84,56,24575,2,0,P|28:176|84:280,1,250,4|0,0:0|0:0,0:0:0:0:
364,304,25532,5,8,0:0:0:0:
316,264,25612,1,0,0:0:0:0:
268,224,25692,1,0,0:0:0:0:
220,184,25772,1,0,0:0:0:0:
448,224,25852,5,8,0:0:0:0:
400,184,25932,1,0,0:0:0:0:
352,144,26012,1,0,0:0:0:0:
304,104,26092,1,0,0:0:0:0:
148,304,26171,5,8,0:0:0:0:
196,264,26251,1,0,0:0:0:0:
244,224,26331,1,0,0:0:0:0:
292,184,26411,1,0,0:0:0:0:
64,224,26491,5,8,0:0:0:0:
112,184,26571,1,0,0:0:0:0:
160,144,26649,1,0,0:0:0:0:
208,100,26729,1,0,0:0:0:0:
441,151,26809,6,0,L|281:151,1,156.25,2|0,0:0|0:0,0:0:0:0:
212,148,27288,2,0,L|292:288,1,156.25,2|0,0:0|0:0,0:0:0:0:
326,345,27766,2,0,L|396:248,1,93.75,2|0,0:0|0:0,0:0:0:0:
240,112,28086,5,0,0:0:0:0:
184,84,28165,1,0,0:0:0:0:
120,80,28245,1,0,0:0:0:0:
60,100,28325,1,0,0:0:0:0:
184,84,28405,5,0,0:0:0:0:
240,56,28484,1,0,0:0:0:0:
304,52,28564,1,0,0:0:0:0:
364,72,28644,1,0,0:0:0:0:
120,80,28724,5,0,0:0:0:0:
92,136,28803,1,0,0:0:0:0:
88,200,28883,1,0,0:0:0:0:
108,260,28963,1,0,0:0:0:0:
308,128,29043,5,0,0:0:0:0:
336,184,29122,1,0,0:0:0:0:
340,248,29202,1,0,0:0:0:0:
320,308,29282,1,0,0:0:0:0:
80,296,29362,5,2,0:0:0:0:
124,252,29442,1,0,0:0:0:0:
148,192,29522,1,0,0:0:0:0:
148,128,29602,1,0,0:0:0:0:
120,72,29681,1,2,0:0:0:0:
64,40,29761,1,0,0:0:0:0:
128,40,29841,1,0,0:0:0:0:
192,40,29921,1,0,0:0:0:0:
432,296,30001,5,2,0:0:0:0:
388,252,30081,1,0,0:0:0:0:
364,192,30161,1,0,0:0:0:0:
364,128,30241,1,0,0:0:0:0:
392,72,30320,1,2,0:0:0:0:
448,40,30400,1,0,0:0:0:0:
384,40,30480,1,0,0:0:0:0:
320,40,30560,1,0,0:0:0:0:
108,56,30639,6,0,L|76:156,1,93.75,2|0,0:0|0:0,0:0:0:0:
220,64,30958,2,0,L|248:176,1,93.75,2|0,0:0|0:0,0:0:0:0:
40,56,31277,2,0,L|12:160,1,93.75,2|0,0:0|0:0,0:0:0:0:
300,56,31596,2,0,B|332:176|332:176|304:76,1,218.75,2|0,0:0|0:0,0:0:0:0:
160,84,32235,1,0,0:0:0:0:
100,104,32314,1,0,0:0:0:0:
40,124,32394,1,0,0:0:0:0:
100,136,32474,1,0,0:0:0:0:
160,152,32554,1,0,0:0:0:0:
220,168,32633,1,0,0:0:0:0:
352,104,32713,1,0,0:0:0:0:
412,124,32792,1,0,0:0:0:0:
472,144,32872,1,0,0:0:0:0:
412,156,32952,1,0,0:0:0:0:
352,172,33032,1,0,0:0:0:0:
412,192,33111,1,0,0:0:0:0:
200,276,33192,6,0,L|96:276,1,93.75,8|0,0:0|0:0,0:0:0:0:
232,276,33511,2,0,L|128:276,1,93.75
261,276,33830,2,0,L|157:276,1,93.75
293,276,34149,2,0,L|168:276,2,125,8|0|8,0:0|0:0|0:0,0:0:0:0:
420,264,35107,1,0,0:0:0:0:
472,228,35187,1,0,0:0:0:0:
420,196,35266,1,0,0:0:0:0:
368,160,35346,1,0,0:0:0:0:
420,124,35426,1,0,0:0:0:0:
472,92,35506,1,0,0:0:0:0:
420,60,35586,1,0,0:0:0:0:
368,28,35665,1,0,0:0:0:0:
152,76,35745,6,0,P|96:124|92:140,1,93.75,2|0,0:0|0:0,0:0:0:0:
252,76,36064,2,0,P|304:112|308:152,1,93.75,2|0,0:0|0:0,0:0:0:0:
96,56,36383,2,0,L|0:56,1,93.75,2|0,0:0|0:0,0:0:0:0:
308,48,36703,2,0,L|404:48,1,93.75,2|0,0:0|0:0,0:0:0:0:
216,124,37022,1,0,0:0:0:0:
176,172,37102,1,0,0:0:0:0:
164,232,37181,1,0,0:0:0:0:
180,292,37261,1,0,0:0:0:0:
220,340,37341,1,0,0:0:0:0:
276,368,37421,1,0,0:0:0:0:
480,328,37501,5,0,0:0:0:0:
464,268,37580,1,0,0:0:0:0:
448,208,37660,1,0,0:0:0:0:
432,148,37740,1,0,0:0:0:0:
416,88,37820,1,0,0:0:0:0:
400,28,37899,1,0,0:0:0:0:
56,84,37979,1,0,0:0:0:0:
100,84,38059,1,0,0:0:0:0:
56,84,38139,1,0,0:0:0:0:
100,84,38219,1,0,0:0:0:0:
480,88,38298,5,8,0:0:0:0:
32,88,38618,1,0,0:0:0:0:
512,88,38937,1,0,0:0:0:0:
0,88,39256,2,0,B|124:88|220:136|256:312,1,375,4|0,0:0|0:0,0:0:0:0:
344,292,40852,5,2,0:0:0:0:
432,292,41011,1,0,0:0:0:0:
335,292,41171,1,2,0:0:0:0:
440,292,41330,1,0,0:0:0:0:
188,292,41490,1,2,0:0:0:0:
61,292,41649,1,0,0:0:0:0:
201,292,41809,1,2,0:0:0:0:
48,292,41968,1,0,0:0:0:0:
308,244,42128,5,0,0:0:0:0:
364,212,42208,1,0,0:0:0:0:
412,168,42288,1,0,0:0:0:0:
436,112,42368,1,0,0:0:0:0:
440,52,42447,1,0,0:0:0:0:
380,36,42527,1,0,0:0:0:0:
320,52,42607,1,0,0:0:0:0:
348,108,42687,1,0,0:0:0:0:
204,244,42766,5,0,0:0:0:0:
148,212,42846,1,0,0:0:0:0:
100,168,42926,1,0,0:0:0:0:
76,112,43006,1,0,0:0:0:0:
72,52,43085,1,0,0:0:0:0:
132,36,43165,1,0,0:0:0:0:
192,52,43245,1,0,0:0:0:0:
164,108,43325,1,0,0:0:0:0:
168,292,43405,5,2,0:0:0:0:
80,292,43564,1,0,0:0:0:0:
177,292,43724,1,2,0:0:0:0:
72,292,43883,1,0,0:0:0:0:
324,292,44043,1,2,0:0:0:0:
451,292,44202,1,0,0:0:0:0:
311,292,44362,1,2,0:0:0:0:
464,292,44521,1,0,0:0:0:0:
64,244,44681,5,0,0:0:0:0:
112,204,44761,1,0,0:0:0:0:
160,164,44841,1,0,0:0:0:0:
208,124,44921,1,0,0:0:0:0:
172,176,45001,1,0,0:0:0:0:
136,228,45080,1,0,0:0:0:0:
100,280,45160,1,0,0:0:0:0:
64,332,45240,1,0,0:0:0:0:
448,244,45320,5,0,0:0:0:0:
400,204,45400,1,0,0:0:0:0:
352,164,45480,1,0,0:0:0:0:
304,124,45560,1,0,0:0:0:0:
340,176,45640,1,0,0:0:0:0:
376,228,45719,1,0,0:0:0:0:
412,280,45799,1,0,0:0:0:0:
448,332,45879,1,0,0:0:0:0:
56,284,45958,6,0,P|52:248|88:188,1,93.75,2|0,0:0|0:0,0:0:0:0:
180,228,46277,2,0,P|184:192|148:132,1,93.75,2|0,0:0|0:0,0:0:0:0:
56,136,46596,2,0,L|44:64,1,62.5,2|0,0:0|0:0,0:0:0:0:
128,48,46836,1,0,0:0:0:0:
384,56,46915,2,0,L|460:156,2,125,8|0|8,0:0|0:0|0:0,0:0:0:0:
300,60,47713,1,0,0:0:0:0:
84,180,47873,2,0,B|64:304|64:304|164:276,1,218.75,4|0,0:0|0:0,0:0:0:0:
336,296,48511,1,8,0:0:0:0:
440,236,48830,1,0,0:0:0:0:
256,132,49149,1,0,0:0:0:0:
496,72,49469,1,8,0:0:0:0:
272,96,49788,6,14,B|192:192|192:192|316:192|316:192|232:296,1,375,2|10,0:0|0:0,0:0:0:0:
76,296,51064,5,8,0:0:0:0:
184,296,51224,1,0,0:0:0:0:
32,296,51383,1,0,0:0:0:0:
228,296,51543,1,0,0:0:0:0:
443,296,51703,1,8,0:0:0:0:
320,296,51863,1,0,0:0:0:0:
493,296,52022,1,8,0:0:0:0:
270,296,52182,1,0,0:0:0:0:
64,240,52341,5,0,0:0:0:0:
96,184,52421,1,0,0:0:0:0:
128,132,52501,1,0,0:0:0:0:
160,80,52580,1,0,0:0:0:0:
348,240,52660,5,0,0:0:0:0:
316,184,52740,1,0,0:0:0:0:
284,132,52820,1,0,0:0:0:0:
252,80,52899,1,0,0:0:0:0:
35,256,52979,1,0,0:0:0:0:
73,189,53059,1,0,0:0:0:0:
112,126,53139,1,0,0:0:0:0:
150,64,53218,1,0,0:0:0:0:
376,256,53298,1,0,0:0:0:0:
338,189,53378,1,0,0:0:0:0:
299,126,53458,1,0,0:0:0:0:
261,64,53537,1,0,0:0:0:0:
436,296,53618,5,8,0:0:0:0:
328,296,53778,1,0,0:0:0:0:
480,296,53937,1,0,0:0:0:0:
284,296,54097,1,8,0:0:0:0:
68,296,54257,1,8,0:0:0:0:
191,296,54415,1,0,0:0:0:0:
18,296,54576,1,4,0:0:0:0:
241,296,54736,1,0,0:0:0:0:
400,240,54894,5,0,0:0:0:0:
444,196,54974,1,0,0:0:0:0:
456,136,55054,1,0,0:0:0:0:
436,76,55133,1,0,0:0:0:0:
284,240,55213,1,0,0:0:0:0:
240,196,55293,1,0,0:0:0:0:
228,136,55373,1,0,0:0:0:0:
248,76,55452,1,0,0:0:0:0:
411,255,55532,1,0,0:0:0:0:
464,202,55612,1,0,0:0:0:0:
478,130,55692,1,0,0:0:0:0:
454,58,55771,1,0,0:0:0:0:
272,255,55851,1,0,0:0:0:0:
219,202,55931,1,0,0:0:0:0:
205,130,56011,1,0,0:0:0:0:
229,58,56090,1,0,0:0:0:0:
396,136,56171,6,0,B|460:136|460:136|424:136,1,93.75,2|0,0:0|0:0,0:0:0:0:
296,136,56490,2,0,B|232:136|232:136|268:136,1,93.75,2|0,0:0|0:0,0:0:0:0:
406,136,56809,2,0,B|482:136|482:136|439:136,1,93.75,2|0,0:0|0:0,0:0:0:0:
286,136,57128,2,0,B|209:136|209:136,1,62.5,2|0,0:0|0:0,0:0:0:0:
408,136,57368,1,0,0:0:0:0:
223,136,57447,2,0,L|88:136,2,125,0|0|4,0:0|0:0|0:0,0:0:0:0:
348,136,58245,1,0,0:0:0:0:
472,132,58405,2,0,L|512:184,1,62.5
176,160,58724,2,0,L|176:260,1,93.75,8|0,0:0|0:0,0:0:0:0:
324,128,59043,2,0,L|324:236,1,93.75
104,112,59362,2,0,L|72:208,1,93.75,8|0,0:0|0:0,0:0:0:0:
388,88,59681,2,0,L|428:200,1,93.75,8|0,0:0|0:0,0:0:0:0:
168,280,60001,6,0,B|228:304|228:304|264:304,1,93.75,4|0,0:0|0:0,0:0:0:0:
404,236,60320,2,0,B|404:112|404:112|336:40,1,218.75
160,80,60958,2,0,B|96:80|96:80|68:100,1,93.75,4|0,0:0|0:0,0:0:0:0:
320,320,61277,5,2,0:0:0:0:
384,320,61357,1,0,0:0:0:0:
448,320,61437,1,0,0:0:0:0:
376,320,61516,1,0,0:0:0:0:
307,320,61596,1,2,0:0:0:0:
384,320,61676,1,0,0:0:0:0:
460,320,61756,1,0,0:0:0:0:
368,320,61836,1,0,0:0:0:0:
192,320,61915,5,2,0:0:0:0:
128,320,61995,1,0,0:0:0:0:
64,320,62075,1,0,0:0:0:0:
136,320,62154,1,0,0:0:0:0:
205,320,62235,1,2,0:0:0:0:
128,320,62314,1,0,0:0:0:0:
52,320,62394,1,0,0:0:0:0:
144,320,62474,1,0,0:0:0:0:
328,256,62554,5,0,0:0:0:0:
384,224,62633,1,0,0:0:0:0:
440,188,62713,1,0,0:0:0:0:
408,132,62793,1,0,0:0:0:0:
212,132,62873,1,0,0:0:0:0:
160,96,62953,1,0,0:0:0:0:
408,132,63032,1,0,0:0:0:0:
460,96,63112,1,0,0:0:0:0:
184,256,63192,1,0,0:0:0:0:
128,224,63271,1,0,0:0:0:0:
72,188,63351,1,0,0:0:0:0:
104,132,63431,1,0,0:0:0:0:
300,132,63511,1,0,0:0:0:0:
352,96,63591,1,0,0:0:0:0:
104,132,63670,1,0,0:0:0:0:
52,96,63750,1,0,0:0:0:0:
179,320,63830,5,2,0:0:0:0:
102,320,63910,1,0,0:0:0:0:
25,320,63990,1,2,0:0:0:0:
111,320,64069,1,0,0:0:0:0:
194,320,64149,1,2,0:0:0:0:
102,320,64229,1,0,0:0:0:0:
11,320,64309,1,2,0:0:0:0:
121,320,64389,1,0,0:0:0:0:
332,320,64468,5,2,0:0:0:0:
409,320,64548,1,0,0:0:0:0:
486,320,64628,1,2,0:0:0:0:
400,320,64707,1,0,0:0:0:0:
317,320,64787,1,4,0:0:0:0:
409,320,64867,1,0,0:0:0:0:
500,320,64947,1,0,0:0:0:0:
390,320,65027,1,0,0:0:0:0:
152,192,65107,5,0,0:0:0:0:
92,164,65187,1,0,0:0:0:0:
276,124,65266,1,0,0:0:0:0:
216,96,65346,1,0,0:0:0:0:
32,148,65426,1,0,0:0:0:0:
76,100,65506,1,0,0:0:0:0:
120,52,65586,1,0,0:0:0:0:
180,32,65665,1,0,0:0:0:0:
364,196,65745,5,0,0:0:0:0:
424,168,65825,1,0,0:0:0:0:
240,128,65904,1,0,0:0:0:0:
300,100,65984,1,0,0:0:0:0:
484,152,66064,1,0,0:0:0:0:
440,104,66144,1,0,0:0:0:0:
396,56,66224,1,0,0:0:0:0:
336,36,66303,1,0,0:0:0:0:
92,96,66383,5,8,0:0:0:0:
64,156,66463,1,0,0:0:0:0:
36,216,66543,1,0,0:0:0:0:
12,276,66623,1,0,0:0:0:0:
208,120,66703,1,8,0:0:0:0:
228,180,66782,1,0,0:0:0:0:
248,244,66862,1,0,0:0:0:0:
280,300,66942,1,0,0:0:0:0:
0,304,67022,1,8,0:0:0:0:
24,244,67102,1,0,0:0:0:0:
36,180,67181,1,0,0:0:0:0:
16,116,67261,1,0,0:0:0:0:
324,120,67341,2,0,P|408:68|364:160,1,259.999988098145,8|0,0:0|0:0,0:0:0:0:
152,164,68139,1,0,0:0:0:0:
373,161,68298,2,0,P|457:109|413:201,1,259.999988098145,8|0,0:0|0:0,0:0:0:0:
292,200,69096,5,0,0:0:0:0:
428,200,69256,1,0,0:0:0:0:
284,208,69415,1,0,0:0:0:0:
436,204,69575,1,0,0:0:0:0:
280,208,69735,1,0,0:0:0:0:
444,208,69894,1,0,0:0:0:0:
276,204,70054,1,0,0:0:0:0:
452,208,70213,1,4,0:0:0:0:
420,152,70293,1,0,0:0:0:0:
404,88,70373,1,0,0:0:0:0:
420,152,70453,1,0,0:0:0:0:
452,208,70532,1,0,0:0:0:0:
256,192,70612,1,0,0:0:0:0:
256,192,70692,1,0,0:0:0:0:
256,192,70772,1,0,0:0:0:0:
256,192,70852,1,0,0:0:0:0:
256,192,70931,1,0,0:0:0:0:
256,192,71011,1,0,0:0:0:0:
256,192,71091,1,0,0:0:0:0:
60,176,71171,1,0,0:0:0:0:
92,232,71251,1,0,0:0:0:0:
108,296,71331,1,0,0:0:0:0:
92,232,71411,1,0,0:0:0:0:
408,328,71490,5,2,0:0:0:0:
444,268,71570,1,0,0:0:0:0:
304,328,71649,1,0,0:0:0:0:
268,268,71729,1,0,0:0:0:0:
418,328,71809,1,2,0:0:0:0:
461,268,71889,1,0,0:0:0:0:
293,328,71968,1,0,0:0:0:0:
250,268,72048,1,0,0:0:0:0:
93,328,72128,5,2,0:0:0:0:
50,268,72208,1,0,0:0:0:0:
218,328,72287,1,0,0:0:0:0:
261,268,72367,1,0,0:0:0:0:
81,328,72447,1,2,0:0:0:0:
29,268,72527,1,0,0:0:0:0:
231,328,72606,1,0,0:0:0:0:
283,268,72686,1,0,0:0:0:0:
104,220,72766,5,0,0:0:0:0:
40,192,72846,1,0,0:0:0:0:
28,124,72926,1,0,0:0:0:0:
72,72,73006,1,0,0:0:0:0:
212,168,73086,1,0,0:0:0:0:
252,112,73165,1,0,0:0:0:0:
24,96,73245,1,0,0:0:0:0:
68,40,73325,1,0,0:0:0:0:
408,220,73405,5,0,0:0:0:0:
472,192,73485,1,0,0:0:0:0:
484,124,73565,1,0,0:0:0:0:
440,72,73645,1,0,0:0:0:0:
300,168,73725,1,0,0:0:0:0:
260,112,73804,1,0,0:0:0:0:
488,96,73884,1,0,0:0:0:0:
444,40,73964,1,0,0:0:0:0:
84,328,74043,5,2,0:0:0:0:
44,268,74123,1,0,0:0:0:0:
201,328,74202,1,0,0:0:0:0:
242,268,74282,1,0,0:0:0:0:
73,328,74362,1,2,0:0:0:0:
24,268,74442,1,0,0:0:0:0:
214,328,74521,1,0,0:0:0:0:
262,268,74601,1,0,0:0:0:0:
439,328,74681,5,2,0:0:0:0:
488,268,74761,1,0,0:0:0:0:
298,328,74840,1,0,0:0:0:0:
250,268,74920,1,0,0:0:0:0:
453,328,75000,1,2,0:0:0:0:
511,268,75080,1,0,0:0:0:0:
284,328,75159,1,0,0:0:0:0:
225,268,75239,1,0,0:0:0:0:
436,208,75320,5,0,0:0:0:0:
416,140,75399,1,0,0:0:0:0:
288,152,75479,1,0,0:0:0:0:
268,84,75559,1,0,0:0:0:0:
504,200,75639,1,0,0:0:0:0:
472,140,75719,1,0,0:0:0:0:
436,80,75798,1,0,0:0:0:0:
392,32,75878,1,0,0:0:0:0:
76,208,75958,5,0,0:0:0:0:
96,140,76037,1,0,0:0:0:0:
224,152,76117,1,0,0:0:0:0:
244,84,76197,1,0,0:0:0:0:
8,200,76277,1,0,0:0:0:0:
40,140,76357,1,0,0:0:0:0:
76,80,76436,1,0,0:0:0:0:
120,32,76516,1,0,0:0:0:0:
312,216,76596,5,2,0:0:0:0:
376,188,76676,1,0,0:0:0:0:
440,156,76756,1,0,0:0:0:0:
508,136,76836,1,0,0:0:0:0:
312,216,76915,1,2,0:0:0:0:
248,188,76995,1,0,0:0:0:0:
184,156,77075,1,0,0:0:0:0:
252,120,77155,1,0,0:0:0:0:
476,116,77235,1,2,0:0:0:0:
424,68,77314,1,0,0:0:0:0:
372,20,77394,1,0,0:0:0:0:
320,64,77474,1,0,0:0:0:0:
124,64,77554,2,0,B|44:188|204:352|364:200,1,419.999987182618,4|12,0:0|0:0,0:0:0:0:
460,180,78830,1,0,0:0:0:0:
440,120,78910,1,0,0:0:0:0:
420,64,78990,1,0,0:0:0:0:
216,76,79149,5,2,0:0:0:0:
160,76,79229,1,0,0:0:0:0:
104,76,79309,1,0,0:0:0:0:
48,76,79389,1,0,0:0:0:0:
108,76,79469,1,2,0:0:0:0:
168,76,79548,1,0,0:0:0:0:
228,76,79628,1,0,0:0:0:0:
288,76,79708,1,0,0:0:0:0:
216,76,79788,1,2,0:0:0:0:
144,80,79868,1,0,0:0:0:0:
76,80,79947,1,0,0:0:0:0:
4,80,80027,1,0,0:0:0:0:
76,80,80107,2,0,L|156:80,1,69.9999978637696,4|0,0:0|0:0,0:0:0:0:
476,168,80426,2,0,L|224:168,1,250
36,168,80905,2,0,L|292:168,1,250
512,168,81383,2,0,L|408:168,1,100
64,320,81703,5,8,0:0:0:0:
140,320,81782,1,0,0:0:0:0:
292,320,81862,1,8,0:0:0:0:
216,320,81941,1,0,0:0:0:0:
41,320,82022,1,8,0:0:0:0:
132,320,82101,1,0,0:0:0:0:
314,320,82181,1,8,0:0:0:0:
223,320,82260,1,0,0:0:0:0:
448,320,82341,5,8,0:0:0:0:
372,320,82420,1,0,0:0:0:0:
220,320,82500,1,8,0:0:0:0:
296,320,82579,1,0,0:0:0:0:
471,320,82660,1,8,0:0:0:0:
380,320,82740,1,0,0:0:0:0:
198,320,82819,1,8,0:0:0:0:
289,320,82898,1,0,0:0:0:0:
428,208,82979,5,0,0:0:0:0:
468,144,83059,1,0,0:0:0:0:
312,212,83139,1,0,0:0:0:0:
272,148,83219,1,0,0:0:0:0:
439,208,83298,1,0,0:0:0:0:
487,144,83378,1,0,0:0:0:0:
300,212,83458,1,0,0:0:0:0:
252,148,83538,1,0,0:0:0:0:
84,208,83618,5,0,0:0:0:0:
44,144,83698,1,0,0:0:0:0:
200,212,83778,1,0,0:0:0:0:
240,148,83858,1,0,0:0:0:0:
72,208,83937,1,0,0:0:0:0:
24,144,84017,1,0,0:0:0:0:
211,212,84097,1,0,0:0:0:0:
259,148,84177,1,0,0:0:0:0:
448,64,84256,5,8,0:0:0:0:
372,64,84336,1,0,0:0:0:0:
220,64,84415,1,8,0:0:0:0:
296,64,84494,1,0,0:0:0:0:
471,64,84575,1,8,0:0:0:0:
380,64,84655,1,0,0:0:0:0:
198,64,84734,1,8,0:0:0:0:
289,64,84814,1,0,0:0:0:0:
64,64,84894,5,8,0:0:0:0:
140,64,84973,1,0,0:0:0:0:
292,64,85053,1,8,0:0:0:0:
216,64,85132,1,0,0:0:0:0:
41,64,85213,1,8,0:0:0:0:
132,64,85292,1,0,0:0:0:0:
314,64,85372,1,12,0:0:0:0:
223,64,85453,1,0,0:0:0:0:
84,176,85532,5,0,0:0:0:0:
44,240,85612,1,0,0:0:0:0:
200,172,85692,1,0,0:0:0:0:
240,236,85772,1,0,0:0:0:0:
73,176,85851,1,0,0:0:0:0:
25,240,85931,1,0,0:0:0:0:
212,172,86011,1,0,0:0:0:0:
260,236,86091,1,0,0:0:0:0:
428,176,86171,5,0,0:0:0:0:
468,240,86251,1,0,0:0:0:0:
312,172,86331,1,0,0:0:0:0:
272,236,86411,1,0,0:0:0:0:
440,176,86490,1,0,0:0:0:0:
488,240,86570,1,0,0:0:0:0:
301,172,86650,1,0,0:0:0:0:
253,236,86730,1,0,0:0:0:0:
36,260,86809,5,2,0:0:0:0:
40,192,86889,1,0,0:0:0:0:
68,128,86969,1,0,0:0:0:0:
128,96,87048,1,0,0:0:0:0:
292,152,87128,1,2,0:0:0:0:
336,96,87208,1,0,0:0:0:0:
444,164,87288,1,2,0:0:0:0:
488,100,87368,1,0,0:0:0:0:
256,68,87447,1,2,0:0:0:0:
196,68,87527,1,0,0:0:0:0:
136,68,87607,1,0,0:0:0:0:
76,72,87687,1,0,0:0:0:0:
312,136,87766,2,0,L|468:136,2,150.000005722046,4|0|8,0:0|0:0|0:0,0:0:0:0:
256,128,88485,1,0,0:0:0:0:
204,96,88564,1,0,0:0:0:0:
168,32,88644,1,0,0:0:0:0:
512,0,88724,1,0,0:0:0:0:
0,384,89043,1,0,0:0:0:0:
308,288,89362,5,2,0:0:0:0:
328,216,89442,1,0,0:0:0:0:
348,144,89522,1,0,0:0:0:0:
356,68,89602,1,0,0:0:0:0:
204,288,89681,1,2,0:0:0:0:
184,216,89761,1,0,0:0:0:0:
164,144,89841,1,0,0:0:0:0:
156,68,89921,1,0,0:0:0:0:
323,96,90001,1,8,0:0:0:0:
349,168,90081,1,0,0:0:0:0:
375,240,90161,1,0,0:0:0:0:
385,316,90241,1,0,0:0:0:0:
188,96,90320,1,8,0:0:0:0:
162,168,90400,1,0,0:0:0:0:
136,240,90480,1,0,0:0:0:0:
126,316,90560,1,0,0:0:0:0:
392,304,90639,5,0,0:0:0:0:
412,236,90719,1,0,0:0:0:0:
432,168,90798,1,0,0:0:0:0:
272,188,90878,1,0,0:0:0:0:
248,124,90958,1,0,0:0:0:0:
220,60,91038,1,0,0:0:0:0:
64,216,91118,1,0,0:0:0:0:
40,152,91197,1,0,0:0:0:0:
12,92,91277,1,0,0:0:0:0:
208,240,91357,1,0,0:0:0:0:
232,172,91437,1,0,0:0:0:0:
248,104,91516,1,0,0:0:0:0:
416,56,91596,1,0,0:0:0:0:
448,116,91676,1,0,0:0:0:0:
464,184,91756,1,0,0:0:0:0:
444,248,91836,1,0,0:0:0:0:
160,320,91915,5,8,0:0:0:0:
120,280,91995,1,0,0:0:0:0:
96,228,92075,1,0,0:0:0:0:
108,172,92155,1,0,0:0:0:0:
148,132,92235,1,8,0:0:0:0:
200,116,92314,1,0,0:0:0:0:
256,112,92394,1,0,0:0:0:0:
308,132,92474,1,0,0:0:0:0:
352,320,92554,1,8,0:0:0:0:
392,280,92634,1,0,0:0:0:0:
416,228,92714,1,0,0:0:0:0:
404,172,92794,1,0,0:0:0:0:
364,132,92874,1,8,0:0:0:0:
312,116,92953,1,0,0:0:0:0:
256,112,93033,1,0,0:0:0:0:
204,132,93113,1,0,0:0:0:0:
56,152,93192,5,0,0:0:0:0:
68,208,93272,1,0,0:0:0:0:
80,264,93352,1,0,0:0:0:0:
92,320,93431,1,0,0:0:0:0:
456,152,93511,1,0,0:0:0:0:
444,208,93591,1,0,0:0:0:0:
432,264,93671,1,0,0:0:0:0:
420,320,93750,1,0,0:0:0:0:
128,232,93830,1,0,0:0:0:0:
135,176,93910,1,0,0:0:0:0:
143,119,93990,1,0,0:0:0:0:
151,64,94069,1,0,0:0:0:0:
384,232,94149,1,0,0:0:0:0:
376,176,94229,1,0,0:0:0:0:
368,119,94309,1,0,0:0:0:0:
360,64,94388,1,0,0:0:0:0:
361,320,94469,5,8,0:0:0:0:
405,280,94549,1,0,0:0:0:0:
431,228,94629,1,0,0:0:0:0:
418,172,94709,1,0,0:0:0:0:
374,132,94789,1,8,0:0:0:0:
317,116,94868,1,0,0:0:0:0:
255,112,94948,1,0,0:0:0:0:
198,132,95028,1,0,0:0:0:0:
150,320,95108,1,8,0:0:0:0:
106,280,95188,1,0,0:0:0:0:
79,228,95266,1,0,0:0:0:0:
93,172,95346,1,0,0:0:0:0:
137,132,95426,1,8,0:0:0:0:
194,116,95505,1,0,0:0:0:0:
255,112,95585,1,0,0:0:0:0:
313,132,95665,1,0,0:0:0:0:
475,152,95746,5,0,0:0:0:0:
462,208,95826,1,0,0:0:0:0:
449,264,95906,1,0,0:0:0:0:
436,320,95985,1,0,0:0:0:0:
35,152,96065,1,0,0:0:0:0:
49,208,96145,1,0,0:0:0:0:
62,264,96225,1,0,0:0:0:0:
75,320,96304,1,0,0:0:0:0:
396,232,96384,1,0,0:0:0:0:
389,176,96464,1,0,0:0:0:0:
380,119,96544,1,0,0:0:0:0:
371,64,96623,1,0,0:0:0:0:
115,232,96703,1,0,0:0:0:0:
123,176,96783,1,0,0:0:0:0:
132,119,96863,1,0,0:0:0:0:
141,64,96942,1,0,0:0:0:0:
300,256,97022,5,0,0:0:0:0:
336,196,97102,1,0,0:0:0:0:
212,256,97181,1,0,0:0:0:0:
176,196,97261,1,0,0:0:0:0:
308,256,97341,1,0,0:0:0:0:
352,196,97421,1,0,0:0:0:0:
203,256,97500,1,0,0:0:0:0:
160,196,97580,1,0,0:0:0:0:
308,255,97660,1,0,0:0:0:0:
352,196,97740,1,0,0:0:0:0:
203,255,97819,1,0,0:0:0:0:
160,196,97899,1,0,0:0:0:0:
319,255,97979,1,0,0:0:0:0:
371,196,98059,1,0,0:0:0:0:
192,255,98138,1,0,0:0:0:0:
140,196,98218,1,0,0:0:0:0:
336,184,98298,5,0,0:0:0:0:
300,128,98378,1,0,0:0:0:0:
176,184,98458,1,0,0:0:0:0:
212,128,98538,1,0,0:0:0:0:
352,184,98618,1,0,0:0:0:0:
308,128,98698,1,0,0:0:0:0:
160,184,98778,1,0,0:0:0:0:
203,128,98858,1,0,0:0:0:0:
352,184,98937,1,0,0:0:0:0:
308,128,99017,1,0,0:0:0:0:
160,184,99097,1,0,0:0:0:0:
203,128,99177,1,0,0:0:0:0:
371,184,99257,1,0,0:0:0:0:
319,128,99337,1,0,0:0:0:0:
140,184,99415,1,0,0:0:0:0:
192,128,99495,1,0,0:0:0:0:
291,256,99575,5,0,0:0:0:0:
319,196,99655,1,0,0:0:0:0:
220,256,99734,1,0,0:0:0:0:
191,196,99814,1,0,0:0:0:0:
297,256,99894,1,0,0:0:0:0:
332,196,99974,1,0,0:0:0:0:
213,256,100053,1,0,0:0:0:0:
179,196,100133,1,0,0:0:0:0:
297,255,100213,1,0,0:0:0:0:
332,196,100293,1,0,0:0:0:0:
213,255,100372,1,0,0:0:0:0:
179,196,100452,1,0,0:0:0:0:
306,255,100532,1,0,0:0:0:0:
347,196,100612,1,0,0:0:0:0:
204,255,100691,1,0,0:0:0:0:
163,196,100771,1,0,0:0:0:0:
319,184,100851,5,0,0:0:0:0:
291,128,100931,1,0,0:0:0:0:
191,184,101011,1,0,0:0:0:0:
220,128,101091,1,0,0:0:0:0:
332,184,101171,1,0,0:0:0:0:
298,128,101251,1,0,0:0:0:0:
179,184,101331,1,0,0:0:0:0:
213,128,101411,1,0,0:0:0:0:
332,184,101490,1,0,0:0:0:0:
298,128,101570,1,0,0:0:0:0:
179,184,101650,1,0,0:0:0:0:
213,128,101730,1,0,0:0:0:0:
348,184,101810,1,0,0:0:0:0:
306,128,101890,1,0,0:0:0:0:
163,184,101970,1,0,0:0:0:0:
205,128,102048,1,0,0:0:0:0:
256,192,102128,12,0,103245,0:0:0:0:
176,192,103405,5,0,0:0:0:0:
256,192,103564,12,0,104522,0:0:0:0:
360,192,104681,5,0,0:0:0:0:
256,192,104841,12,0,106118,0:0:0:0:
112,184,106277,5,0,0:0:0:0:
256,192,106437,12,4,109788,0:0:0:0:
