osu file format v14

[General]
AudioFilename: 0x10c_C418.mp3
AudioLeadIn: 0
PreviewTime: 51064
Countdown: 0
SampleSet: Soft
StackLeniency: 0.7
Mode: 0
LetterboxInBreaks: 1
WidescreenStoryboard: 1

[Editor]
Bookmarks: 9574,40852,51064,61277,71487,81703
DistanceSpacing: 1.4
BeatDivisor: 8
GridSize: 4
TimelineZoom: 2.3

[Metadata]
Title:0x10c
TitleUnicode:0x10c
Artist:C418
ArtistUnicode:C418
Creator:sxy62146214
Version:0x
Source:0x10c
Tags:C418 Sadness resem last game Notch black Mojang sxy62146214 cyxw SkeletonXB MEGAtive
BeatmapID:1117824
BeatmapSetID:480034

[Difficulty]
HPDrainRate:8.5
CircleSize:4.5
OverallDifficulty:8
ApproachRate:9
SliderMultiplier:2.1
SliderTickRate:2

[Events]
//Background and Video events
0,0,"Insane BG.png",0,0
//Break Periods
//Storyboard Layer 0 (Background)
//Storyboard Layer 1 (Fail)
//Storyboard Layer 2 (Pass)
//Storyboard Layer 3 (Foreground)
//Storyboard Sound Samples

[TimingPoints]
1,638.297872340426,4,2,0,35,1,0
9575,-100,4,2,0,15,0,0
10213,-100,4,2,0,40,0,0
15160,-100,4,2,0,15,0,0
15320,-100,4,2,0,40,0,0
18990,-100,4,2,0,15,0,0
19070,-100,4,2,0,30,0,0
20426,-100,4,2,0,40,0,0
30639,-100,4,2,0,45,0,0
39575,-100,4,2,0,20,0,0
40692,-100,4,2,0,20,0,0
40772,-100,4,2,0,30,0,0
40852,-100,4,2,0,50,0,0
49788,-200,4,2,0,45,0,0
51064,-100,4,2,0,55,0,0
61118,-100,4,2,4,60,0,0
61277,-83.3333333333333,4,2,1,60,0,0
62554,-83.3333333333333,4,2,0,60,0,0
63830,-83.3333333333333,4,2,1,60,0,0
65107,-83.3333333333333,4,2,4,60,0,0
66383,-83.3333333333333,4,1,0,60,0,0
67022,-83.3333333333333,4,2,4,60,0,0
67181,-83.3333333333333,4,1,0,60,0,0
67979,-83.3333333333333,4,2,1,60,0,0
68219,-83.3333333333333,4,1,0,60,0,0
68937,-83.3333333333333,4,2,4,60,0,0
69256,-83.3333333333333,4,1,0,60,0,0
69575,-83.3333333333333,4,2,0,60,0,0
70612,-83.3333333333333,4,2,1,60,0,0
70852,-83.3333333333333,4,1,0,60,0,0
71490,-83.3333333333333,4,1,0,65,0,1
77235,-83.3333333333333,4,2,4,65,0,1
77474,-83.3333333333333,4,1,0,65,0,1
78192,-83.3333333333333,4,2,1,65,0,1
78511,-50,4,2,4,65,0,1
78830,-83.3333333333333,4,1,0,65,0,1
80426,-200,4,1,0,50,0,0
81703,-66.6666666666667,4,1,0,65,0,1
82979,-66.6666666666667,4,2,0,65,0,1
84256,-66.6666666666667,4,1,0,65,0,1
85532,-66.6666666666667,4,2,4,65,0,1
86809,-66.6666666666667,4,2,0,65,0,1
91915,-76.9230769230769,4,2,0,63,0,1
94469,-76.9230769230769,4,2,0,60,0,1
97022,-76.9230769230769,4,2,0,55,0,1
97660,-76.9230769230769,4,2,0,50,0,1
98298,-76.9230769230769,4,2,0,45,0,1
98937,-76.9230769230769,4,2,0,40,0,1
99575,-76.9230769230769,4,2,0,35,0,1
100213,-76.9230769230769,4,2,0,30,0,1
100852,-76.9230769230769,4,2,0,25,0,1
101490,-76.9230769230769,4,2,0,20,0,1
102128,-133.333333333333,4,2,0,10,0,0

[Colours]
Combo1 : 255,255,255
Combo2 : 31,31,31
Combo3 : 63,63,63
Combo4 : 95,95,95
Combo5 : 127,127,127
Combo6 : 159,159,159
Combo7 : 191,191,191
Combo8 : 191,191,191

[HitObjects]
124,200,1,6,0,L|112:144,1,52.5
144,176,320,2,0,L|160:116,1,52.5
176,152,639,2,0,P|216:104|272:96,2,105,0|2|0,0:0|0:0|0:0,0:0:0:0:
248,168,1437,2,0,L|292:212,1,52.5
132,300,1915,6,0,L|120:236,3,52.5
208,320,2554,2,0,B|249:322|455:207|277:143|189:173|295:308|387:294|449:175|371:89,1,420
375,94,4149,1,0,0:0:0:0:
375,94,4469,1,0,0:0:0:0:
375,94,4788,1,8,0:0:0:0:
220,68,5107,6,0,L|180:112,1,52.5
220,108,5426,2,0,L|196:164,1,52.5
236,152,5745,2,0,P|240:216|292:236,2,105,0|0|8,0:0|0:0|0:0,0:0:0:0:
300,172,6703,2,0,L|356:140,2,52.5
88,316,7660,5,0,0:0:0:0:
128,300,7740,1,0,0:0:0:0:
176,284,7820,2,0,B|152:248|140:44|284:136|320:224|224:248|76:220|32:204|64:64|88:80,1,420,0|2,0:0|0:0,0:0:0:0:
72,94,9415,1,0,0:0:0:0:
72,94,9735,1,0,0:0:0:0:
72,94,10054,1,8,0:0:0:0:
228,54,10213,5,0,0:0:0:0:
180,290,10373,1,0,0:0:0:0:
356,164,10532,1,0,0:0:0:0:
80,104,10692,1,0,0:0:0:0:
90,186,10852,2,0,P|126:174|152:146,2,52.5,0|0|8,0:0|0:0|0:0,0:0:0:0:
312,324,11490,6,0,P|272:320|252:300,2,52.5
300,256,11889,1,0,0:0:0:0:
312,340,11969,2,0,P|272:336|252:316,2,52.5
304,240,12447,1,8,0:0:0:0:
204,132,12766,5,0,0:0:0:0:
295,57,12846,1,0,0:0:0:0:
266,168,12926,1,0,0:0:0:0:
218,62,13006,1,0,0:0:0:0:
323,124,13086,1,0,0:0:0:0:
264,108,13245,1,0,0:0:0:0:
142,200,13405,2,0,P|110:182|97:154,2,52.5,0|0|8,0:0|0:0|0:0,0:0:0:0:
38,212,14043,5,0,0:0:0:0:
56,251,14123,1,0,0:0:0:0:
88,287,14203,1,0,0:0:0:0:
124,314,14282,1,0,0:0:0:0:
165,326,14362,2,0,P|201:328|228:319,1,52.5
178,175,14681,1,8,0:0:0:0:
297,91,14841,2,0,P|314:113|316:131,2,26.25,0|0|8,0:0|0:0|0:0,0:0:0:0:
118,150,15320,5,0,0:0:0:0:
144,195,15399,1,0,0:0:0:0:
155,246,15479,1,0,0:0:0:0:
135,297,15559,1,0,0:0:0:0:
67,202,15639,2,0,P|49:181|46:139,1,52.5
63,64,15958,2,0,P|84:49|94:47,2,26.25
152,37,16277,1,2,0:0:0:0:
265,72,16596,6,0,P|257:107|342:176,2,157.5
329,105,17713,1,8,0:0:0:0:
382,122,17873,5,0,0:0:0:0:
403,171,17953,1,0,0:0:0:0:
378,229,18032,1,0,0:0:0:0:
327,244,18112,1,0,0:0:0:0:
266,227,18192,2,0,P|243:214|215:180,1,52.5
220,128,18511,2,0,P|189:140|162:171,2,52.5,0|0|8,0:0|0:0|0:0,0:0:0:0:
123,272,19149,6,0,P|150:256|184:255,1,52.5,0|8,0:0|0:0,0:0:0:0:
369,317,19469,2,0,P|348:288|349:260,1,52.5,0|8,0:0|0:0,0:0:0:0:
378,65,19788,1,8,0:0:0:0:
171,61,19947,2,0,P|178:80|178:95,2,26.25,0|0|8,0:0|0:0|0:0,0:0:0:0:
72,269,20426,6,0,L|61:302,2,26.25
131,311,20745,2,0,L|127:346,2,26.25
203,334,21064,2,0,L|213:367,2,26.25
277,327,21383,2,0,L|301:349,2,26.25
417,293,21703,5,0,0:0:0:0:
371,94,21862,1,0,0:0:0:0:
200,85,22022,2,0,P|207:112|207:128,2,26.25,0|0|8,0:0|0:0|0:0,0:0:0:0:
136,116,22341,1,0,0:0:0:0:
67,99,22501,2,0,P|67:137|80:161,1,52.5,8|0,0:0|0:0,0:0:0:0:
173,319,22820,1,0,0:0:0:0:
321,314,22979,5,0,0:0:0:0:
246,131,23139,1,0,0:0:0:0:
173,319,23298,1,0,0:0:0:0:
369,173,23458,1,0,0:0:0:0:
122,172,23618,2,0,P|116:211|123:236,2,52.5,0|0|8,0:0|0:0|0:0,0:0:0:0:
186,203,24096,1,0,0:0:0:0:
235,255,24256,2,0,P|254:228|242:157,1,105,0|8,0:0|0:0,0:0:0:0:
186,203,24735,1,0,0:0:0:0:
171,108,24894,2,0,L|165:81,3,26.25
232,32,25213,1,8,0:0:0:0:
378,98,25532,5,2,0:0:0:0:
400,127,25612,1,0,0:0:0:0:
409,167,25692,1,0,0:0:0:0:
418,202,25772,1,0,0:0:0:0:
418,238,25852,5,2,0:0:0:0:
401,270,25931,1,0,0:0:0:0:
384,302,26011,1,0,0:0:0:0:
357,327,26091,1,0,0:0:0:0:
287,317,26171,6,0,P|290:286|284:242,1,52.5
219,288,26490,1,8,0:0:0:0:
357,327,26649,1,0,0:0:0:0:
359,214,26809,6,0,P|325:192|213:212,2,157.5,0|4|0,0:0|0:0|0:0,0:0:0:0:
288,264,27926,1,0,0:0:0:0:
66,295,28086,5,2,0:0:0:0:
123,107,28245,1,0,0:0:0:0:
186,295,28405,1,0,0:0:0:0:
29,163,28564,1,0,0:0:0:0:
211,158,28724,5,0,0:0:0:0:
66,295,28883,1,0,0:0:0:0:
29,163,29043,1,0,0:0:0:0:
186,295,29203,1,0,0:0:0:0:
270,207,29362,6,0,L|256:181,3,26.25
344,219,29681,2,0,L|345:189,3,26.25
405,265,30001,2,0,L|427:236,3,26.25
414,331,30320,2,0,P|386:330|355:305,1,52.5,2|0,0:0|0:0,0:0:0:0:
170,169,30639,5,0,0:0:0:0:
318,129,30798,1,0,0:0:0:0:
278,277,30958,1,0,0:0:0:0:
170,169,31118,1,0,0:0:0:0:
234,228,31277,2,0,P|263:212|294:212,2,52.5,0|0|8,0:0|0:0|0:0,0:0:0:0:
441,101,31915,6,0,L|411:84,2,26.25
323,29,32235,1,0,0:0:0:0:
407,178,32394,1,0,0:0:0:0:
418,88,32554,2,0,L|414:124,2,26.25
406,249,32873,1,12,0:0:0:0:
406,249,33032,1,0,0:0:0:0:
258,313,33192,5,0,0:0:0:0:
233,256,33272,1,0,0:0:0:0:
240,195,33352,1,0,0:0:0:0:
275,153,33431,1,0,0:0:0:0:
317,126,33511,2,0,P|345:120|379:125,1,52.5
349,189,33830,2,0,P|354:221|353:265,2,52.5,0|0|8,0:0|0:0|0:0,0:0:0:0:
335,52,34309,1,0,0:0:0:0:
159,114,34469,5,0,0:0:0:0:
254,296,34628,1,8,0:0:0:0:
300,106,34788,1,0,0:0:0:0:
128,233,34947,1,8,0:0:0:0:
360,221,35107,1,8,0:0:0:0:
182,193,35266,2,0,P|193:224|193:234,2,26.25
306,334,35745,6,0,L|336:311,3,26.25,2|0|0|0,0:0|0:0|0:0|0:0,0:0:0:0:
303,295,36064,2,0,L|326:263,3,26.25,2|0|0|0,0:0|0:0|0:0|0:0,0:0:0:0:
292,265,36383,2,0,L|302:225,3,26.25,2|0|0|0,0:0|0:0|0:0|0:0,0:0:0:0:
268,244,36703,2,0,L|270:203,3,26.25,2|0|0|0,0:0|0:0|0:0|0:0,0:0:0:0:
218,220,37022,5,0,0:0:0:0:
189,109,37181,1,0,0:0:0:0:
391,130,37341,1,0,0:0:0:0:
385,58,37501,2,0,P|353:68|351:189,1,157.5,8|0,0:0|0:0,0:0:0:0:
391,130,38139,1,0,0:0:0:0:
345,337,38298,5,0,0:0:0:0:
229,160,38458,1,0,0:0:0:0:
432,221,38618,1,0,0:0:0:0:
197,299,38777,1,8,0:0:0:0:
349,129,38937,1,0,0:0:0:0:
247,248,39096,2,0,P|265:276|267:307,1,52.5,0|6,0:0|0:0,0:0:0:0:
432,221,39415,1,0,0:0:0:0:
341,95,39575,5,2,0:0:0:0:
323,100,39894,1,2,0:0:0:0:
305,106,40213,1,2,0:0:0:0:
287,112,40532,1,2,0:0:0:0:
98,144,40852,6,0,P|83:180|84:213,1,52.5
151,191,41171,1,0,0:0:0:0:
38,103,41330,1,0,0:0:0:0:
44,249,41490,2,0,P|80:261|105:257,2,52.5,0|0|8,0:0|0:0|0:0,0:0:0:0:
233,227,41969,5,0,0:0:0:0:
420,240,42128,6,0,L|407:202,3,26.25,2|0|0|0,0:0|0:0|0:0|0:0,0:0:0:0:
385,256,42447,2,0,L|361:241,3,26.25,2|0|0|0,0:0|0:0|0:0|0:0,0:0:0:0:
370,283,42766,2,0,L|337:285,3,26.25,2|0|0|0,0:0|0:0|0:0|0:0,0:0:0:0:
372,312,43086,2,0,L|347:327,3,26.25,2|0|0|0,0:0|0:0|0:0|0:0,0:0:0:0:
439,301,43405,6,0,P|440:328|427:356,1,52.5
503,342,43724,1,0,0:0:0:0:
372,312,43883,1,0,0:0:0:0:
439,301,44043,2,0,P|433:269|439:249,2,52.5,0|0|4,0:0|0:0|0:0,0:0:0:0:
474,193,44522,1,0,0:0:0:0:
258,82,44681,6,0,L|298:99,3,26.25,2|0|0|0,0:0|0:0|0:0|0:0,0:0:0:0:
253,134,45001,2,0,L|276:156,3,26.25,2|0|0|0,0:0|0:0|0:0|0:0,0:0:0:0:
232,184,45320,2,0,L|240:216,3,26.25,2|0|0|0,0:0|0:0|0:0|0:0,0:0:0:0:
188,220,45639,2,0,L|184:249,3,26.25,2|0|0|0,0:0|0:0|0:0|0:0,0:0:0:0:
249,303,45958,5,0,0:0:0:0:
353,180,46118,1,0,0:0:0:0:
350,331,46277,1,0,0:0:0:0:
258,206,46437,1,0,0:0:0:0:
394,240,46596,2,0,P|421:210|409:135,1,105,0|12,0:0|0:0,0:0:0:0:
477,112,47075,1,0,0:0:0:0:
353,180,47235,1,0,0:0:0:0:
174,170,47554,2,0,L|157:139,2,26.25
135,222,47873,6,0,P|167:236|230:208,1,105,0|8,0:0|0:0,0:0:0:0:
174,170,48352,1,2,0:0:0:0:
258,302,48511,6,0,L|242:276,3,26.25
317,224,48830,2,0,L|311:253,3,26.25
395,307,49149,2,0,L|377:274,3,26.25
446,218,49469,2,0,L|437:260,3,26.25
395,307,49788,6,0,L|377:274,1,26.25,0|8,0:0|0:0,0:0:0:0:
301,257,50107,2,0,L|295:275,2,13.125
364,204,50426,2,0,L|387:207,2,13.125
289,162,50745,2,0,L|274:139,1,26.25,2|0,0:0|0:0,0:0:0:0:
106,78,51064,6,0,P|121:117|120:150,1,52.5
190,252,51383,2,0,P|180:279|157:302,1,52.5,2|0,0:0|0:0,0:0:0:0:
387,304,51703,2,0,P|353:305|323:290,1,52.5
446,163,52022,2,0,P|425:140|417:107,1,52.5,8|0,0:0|0:0,0:0:0:0:
246,114,52341,5,0,0:0:0:0:
165,226,52501,1,0,0:0:0:0:
308,314,52660,5,0,0:0:0:0:
291,157,52820,1,0,0:0:0:0:
220,102,52979,5,0,0:0:0:0:
161,257,53139,1,0,0:0:0:0:
285,138,53298,5,0,0:0:0:0:
354,315,53458,1,0,0:0:0:0:
463,275,53618,6,0,L|404:290,1,52.5
161,319,53937,2,0,L|137:267,1,52.5,8|0,0:0|0:0,0:0:0:0:
68,104,54256,2,0,L|129:83,1,52.5
356,49,54575,2,0,L|387:103,1,52.5,4|0,0:0|0:0,0:0:0:0:
190,125,54894,5,0,0:0:0:0:
322,259,55054,1,0,0:0:0:0:
248,98,55213,5,0,0:0:0:0:
263,285,55373,1,0,0:0:0:0:
316,120,55532,5,0,0:0:0:0:
195,263,55692,1,0,0:0:0:0:
350,192,55852,5,0,0:0:0:0:
161,191,56012,1,2,0:0:0:0:
284,72,56171,6,0,P|303:100|308:129,1,52.5
240,124,56490,2,0,L|218:138,2,26.25,0|8|0,0:0|0:0|0:0,0:0:0:0:
373,109,56809,6,0,P|366:153|346:174,1,52.5
364,45,57128,2,0,L|350:19,2,26.25,0|8|0,0:0|0:0|0:0,0:0:0:0:
362,158,57447,2,0,P|344:185|363:257,1,105
410,207,57926,1,0,0:0:0:0:
296,282,58086,2,0,L|270:256,4,26.25,8|0|0|0|0,0:0|0:0|0:0|0:0|0:0,0:0:0:0:
77,147,58724,6,0,P|104:108|123:100,1,52.5
94,336,59043,2,0,P|124:317|151:315,1,52.5
357,291,59362,2,0,P|382:307|401:343,1,52.5,0|8,0:0|0:0,0:0:0:0:
398,72,59681,2,0,P|392:119|371:138,1,52.5
236,218,60001,6,0,P|200:202|184:174,1,52.5,4|0,0:0|0:0,0:0:0:0:
247,152,60320,2,0,L|271:128,2,26.25,0|12|0,0:0|0:0|0:0,0:0:0:0:
185,272,60639,2,0,L|197:305,3,26.25,0|12|0|0,0:0|0:0|0:0|0:0,0:0:0:0:
173,360,60958,2,0,P|207:364|237:351,1,52.5,6|0,0:0|0:0,0:0:0:0:
347,228,61277,5,0,0:0:0:0:
183,97,61437,1,0,0:0:0:0:
236,237,61596,1,0,0:0:0:0:
327,71,61756,1,0,0:0:0:0:
236,237,61915,2,0,L|222:276,2,31.4999990386963
265,103,62235,2,0,P|298:136|338:142,1,62.9999980773926
355,319,62554,5,0,0:0:0:0:
140,120,62713,1,0,0:0:0:0:
355,319,62873,1,0,0:0:0:0:
372,68,63032,1,0,0:0:0:0:
184,299,63192,5,0,0:0:0:0:
126,83,63352,1,0,0:0:0:0:
360,277,63511,1,0,0:0:0:0:
126,83,63671,1,0,0:0:0:0:
328,123,63830,6,0,P|338:155|333:199,1,62.9999980773926
118,165,64149,2,0,P|110:200|124:246,1,62.9999980773926
309,243,64469,2,0,L|293:272,2,31.4999990386963
100,288,64788,2,0,P|140:285|163:263,1,62.9999980773926,4|0,0:0|0:0,0:0:0:0:
212,138,65107,5,0,0:0:0:0:
298,235,65266,1,0,0:0:0:0:
297,134,65426,5,0,0:0:0:0:
185,248,65586,1,0,0:0:0:0:
356,292,65745,5,0,0:0:0:0:
168,106,65905,1,0,0:0:0:0:
323,107,66064,6,0,L|291:152,2,31.4999990386963
373,305,66383,6,0,P|337:298|299:308,1,62.9999980773926
250,332,66703,2,0,L|214:350,2,31.4999990386963,0|8|0,0:0|0:0|0:0,0:0:0:0:
432,340,67022,1,0,0:0:0:0:
409,214,67181,6,0,P|387:184|387:141,1,62.9999980773926
452,162,67501,2,0,L|481:144,2,31.4999990386963,0|12|0,0:0|0:0|0:0,0:0:0:0:
317,141,67820,2,0,P|338:107|365:95,1,62.9999980773926
383,159,68139,1,0,0:0:0:0:
183,166,68298,6,0,B|202:201|175:234|209:263|189:303,1,125.999996154785,8|0,0:0|0:0,0:0:0:0:
129,273,68697,1,0,0:0:0:0:
256,221,68777,1,0,0:0:0:0:
399,167,68937,6,0,L|370:110,1,62.9999980773926
256,221,69256,2,0,L|293:160,1,62.9999980773926
408,275,69575,2,0,L|370:216,1,62.9999980773926
268,319,69894,2,0,L|302:267,1,62.9999980773926
125,137,70213,6,0,P|145:110|188:96,1,62.9999980773926,4|8,0:0|0:0,0:0:0:0:
191,166,70532,2,0,L|222:192,2,31.4999990386963,0|12|0,0:0|0:0|0:0,0:0:0:0:
93,194,70852,2,0,L|78:225,3,31.4999990386963,0|12|0|0,0:0|0:0|0:0|0:0,0:0:0:0:
132,265,71171,2,0,P|162:238|194:248,1,62.9999980773926,6|0,0:0|0:0,0:0:0:0:
413,89,71490,5,0,0:0:0:0:
147,322,71649,1,0,0:0:0:0:
261,34,71809,1,0,0:0:0:0:
394,332,71969,1,0,0:0:0:0:
95,106,72128,2,0,P|129:133|137:178,2,62.9999980773926,0|0|8,0:0|0:0|0:0,0:0:0:0:
256,192,72607,1,0,0:0:0:0:
388,118,72766,5,0,0:0:0:0:
416,184,72846,1,0,0:0:0:0:
424,253,72926,1,0,0:0:0:0:
398,315,73006,1,0,0:0:0:0:
347,353,73086,2,0,L|313:362,3,31.4999990386963
242,353,73405,5,0,0:0:0:0:
186,323,73485,1,0,0:0:0:0:
145,266,73564,1,0,0:0:0:0:
128,203,73644,1,0,0:0:0:0:
127,140,73724,2,0,L|135:99,3,31.4999990386963
128,203,74043,5,0,0:0:0:0:
364,101,74203,1,0,0:0:0:0:
231,340,74362,1,8,0:0:0:0:
217,71,74522,1,0,0:0:0:0:
385,300,74681,2,0,P|385:263|408:229,2,62.9999980773926,0|8|6,0:0|0:0|0:0,0:0:0:0:
452,284,75160,1,0,0:0:0:0:
313,157,75320,6,0,L|278:180,3,31.4999990386963
219,216,75639,1,0,0:0:0:0:
155,186,75719,1,0,0:0:0:0:
112,132,75798,1,0,0:0:0:0:
133,65,75878,1,0,0:0:0:0:
190,25,75958,6,0,L|156:4,3,31.4999990386963
259,59,76277,1,0,0:0:0:0:
322,106,76357,1,0,0:0:0:0:
311,184,76437,1,0,0:0:0:0:
246,228,76516,1,0,0:0:0:0:
194,335,76596,6,0,P|218:315|259:307,1,62.9999980773926
411,218,76915,2,0,P|398:185|400:138,1,62.9999980773926,8|0,0:0|0:0,0:0:0:0:
344,73,77235,2,0,L|308:102,2,31.4999990386963,0|8|0,0:0|0:0|0:0,0:0:0:0:
221,107,77554,6,0,P|246:136|251:175,1,62.9999980773926
182,169,77873,2,0,P|189:205|175:246,1,62.9999980773926,8|0,0:0|0:0,0:0:0:0:
120,200,78192,2,0,L|89:187,2,31.4999990386963,0|8|0,0:0|0:0|0:0,0:0:0:0:
254,251,78511,6,0,B|260:247|260:247|257:249|257:249|267:243|267:243|264:245|264:245|274:239|274:239|271:241|271:241|281:235|281:235|278:237|278:237|288:231|288:231|285:233|285:233|295:227|295:227|302:223|302:223|292:229|292:229|299:225|299:225|309:219|309:219|306:221|306:221|316:215|316:215|312:217|312:217|322:211|322:211|319:213|319:213|330:207|330:207|326:209|326:209|337:203|337:203|333:205|333:205|344:198|344:198|340:200|340:200|350:195|350:195|347:196,1,210
410,193,79149,6,0,P|399:158|364:138,1,62.9999980773926
188,243,79469,2,0,P|192:278|216:308,1,62.9999980773926
353,290,79788,1,0,0:0:0:0:
253,159,79947,1,8,0:0:0:0:
383,337,80107,1,0,0:0:0:0:
222,124,80266,1,0,0:0:0:0:
150,264,80426,5,4,0:0:0:0:
168,229,80506,1,0,0:0:0:0:
186,194,80586,1,0,0:0:0:0:
204,159,80665,1,0,0:0:0:0:
222,124,80745,5,0,0:0:0:0:
266,152,80825,1,12,0:0:0:0:
307,184,80905,1,0,0:0:0:0:
343,222,80985,1,0,0:0:0:0:
364,270,81064,1,0,0:0:0:0:
372,320,81144,1,12,0:0:0:0:
299,351,81224,5,0,0:0:0:0:
220,340,81304,1,0,0:0:0:0:
147,311,81383,1,6,0:0:0:0:
87,258,81463,1,0,0:0:0:0:
53,186,81543,1,0,0:0:0:0:
129,104,81703,5,0,0:0:0:0:
345,324,81862,1,0,0:0:0:0:
272,44,82022,1,8,0:0:0:0:
152,318,82181,1,0,0:0:0:0:
370,117,82341,1,0,0:0:0:0:
339,178,82501,1,0,0:0:0:0:
408,12,82660,1,8,0:0:0:0:
370,117,82820,1,0,0:0:0:0:
194,186,82979,6,0,L|163:218,3,39.3750015020371,2|0|0|0,0:0|0:0|0:0|0:0,0:0:0:0:
225,239,83298,2,0,L|214:281,3,39.3750015020371,2|0|0|0,0:0|0:0|0:0|0:0,0:0:0:0:
294,263,83618,2,0,L|279:213,3,39.3750015020371,2|0|0|0,0:0|0:0|0:0|0:0,0:0:0:0:
344,206,83937,2,0,L|313:180,3,39.3750015020371,2|0|0|0,0:0|0:0|0:0|0:0,0:0:0:0:
129,96,84256,5,0,0:0:0:0:
354,315,84415,1,0,0:0:0:0:
346,86,84575,1,8,0:0:0:0:
135,322,84735,1,0,0:0:0:0:
217,191,84894,1,0,0:0:0:0:
322,190,85054,1,0,0:0:0:0:
131,162,85213,1,4,0:0:0:0:
398,225,85373,1,0,0:0:0:0:
231,76,85532,5,0,0:0:0:0:
263,134,85612,1,0,0:0:0:0:
279,199,85692,1,0,0:0:0:0:
267,265,85772,1,0,0:0:0:0:
224,316,85852,2,0,L|181:349,3,39.3750015020371
22,311,86171,5,0,0:0:0:0:
60,256,86251,1,0,0:0:0:0:
126,234,86331,1,0,0:0:0:0:
191,264,86411,1,0,0:0:0:0:
224,316,86491,2,0,L|267:349,3,39.3750015020371
385,73,86809,5,0,0:0:0:0:
274,277,86969,1,0,0:0:0:0:
237,64,87128,5,0,0:0:0:0:
160,291,87288,1,0,0:0:0:0:
51,60,87447,5,0,0:0:0:0:
76,200,87527,1,8,0:0:0:0:
104,333,87607,1,0,0:0:0:0:
160,291,87766,6,0,P|168:247|145:211,1,78.7500030040742
347,64,88086,5,0,0:0:0:0:
273,254,88245,1,0,0:0:0:0:
190,46,88405,5,0,0:0:0:0:
178,163,88485,1,8,0:0:0:0:
160,291,88564,1,0,0:0:0:0:
63,307,88724,5,0,0:0:0:0:
190,46,88883,1,0,0:0:0:0:
169,116,89043,2,0,P|128:84|117:52,1,78.7500030040742,8|0,0:0|0:0,0:0:0:0:
353,131,89362,6,0,P|337:172|349:213,1,78.7500030040742
274,217,89681,2,0,P|303:260|341:272,1,78.7500030040742
322,335,90001,2,0,L|364:306,3,39.3750015020371
397,350,90320,2,0,L|408:306,3,39.3750015020371
409,166,90639,6,0,P|394:127|343:103,1,78.7500030040742,4|8,0:0|0:0,0:0:0:0:
340,173,90958,2,0,L|306:200,2,39.3750015020371,0|12|0,0:0|0:0|0:0,0:0:0:0:
450,87,91277,2,0,L|498:105,2,39.3750015020371,0|12|0,0:0|0:0|0:0,0:0:0:0:
298,119,91596,2,0,P|304:78|333:52,1,78.7500030040742,6|0,0:0|0:0,0:0:0:0:
100,99,91915,5,0,0:0:0:0:
152,191,92075,1,0,0:0:0:0:
60,156,92235,1,0,0:0:0:0:
185,115,92394,1,0,0:0:0:0:
415,276,92554,5,0,0:0:0:0:
303,230,92713,1,0,0:0:0:0:
342,306,92873,1,0,0:0:0:0:
381,197,93032,1,0,0:0:0:0:
317,32,93192,5,0,0:0:0:0:
259,43,93272,1,0,0:0:0:0:
219,85,93352,1,0,0:0:0:0:
209,141,93431,1,0,0:0:0:0:
218,201,93511,2,0,P|231:240|256:266,1,68.2499968757631
432,170,93830,2,0,L|467:96,2,68.2499968757631,0|0|8,0:0|0:0|0:0,0:0:0:0:
53,332,94469,5,0,0:0:0:0:
194,229,94628,1,0,0:0:0:0:
171,352,94788,1,0,0:0:0:0:
86,217,94947,1,0,0:0:0:0:
345,81,95107,5,0,0:0:0:0:
427,205,95266,1,0,0:0:0:0:
444,69,95426,1,0,0:0:0:0:
326,206,95586,1,0,0:0:0:0:
310,321,95745,5,0,0:0:0:0:
233,307,95825,1,0,0:0:0:0:
164,278,95905,1,0,0:0:0:0:
121,217,95985,1,0,0:0:0:0:
111,148,96064,2,0,P|114:105|131:78,1,68.2499968757631
461,108,96383,2,0,L|426:182,2,68.2499968757631,0|0|8,0:0|0:0|0:0,0:0:0:0:
148,229,97022,6,0,L|130:184,3,34.1249984378815,2|0|0|0,0:0|0:0|0:0|0:0,0:0:0:0:
239,209,97341,2,0,P|242:175|268:142,1,68.2499968757631
146,252,97660,6,0,L|117:207,3,34.1249984378815,2|0|0|0,0:0|0:0|0:0|0:0,0:0:0:0:
240,213,97979,2,0,P|237:176|259:135,1,68.2499968757631
138,286,98298,6,0,L|96:238,3,34.1249984378815,2|0|0|0,0:0|0:0|0:0|0:0,0:0:0:0:
242,220,98617,2,0,P|230:177|248:127,1,68.2499968757631
137,328,98937,6,0,L|85:288,3,34.1249984378815,2|0|0|0,0:0|0:0|0:0|0:0,0:0:0:0:
246,228,99256,2,0,P|223:179|226:134,1,68.2499968757631
412,334,99575,6,0,L|473:308,3,34.1249984378815,2|0|0|0,0:0|0:0|0:0|0:0,0:0:0:0:
332,209,99894,2,0,P|367:168|376:123,1,68.2499968757631
416,293,100213,6,0,L|466:261,3,34.1249984378815,2|0|0|0,0:0|0:0|0:0|0:0,0:0:0:0:
326,195,100532,2,0,P|351:153|352:112,1,68.2499968757631
413,256,100852,6,0,L|453:220,3,34.1249984378815,2|0|0|0,0:0|0:0|0:0|0:0,0:0:0:0:
319,184,101171,2,0,P|334:143|328:106,1,68.2499968757631,0|0,0:0|0:0,0:0:0:0:
406,224,101490,6,0,L|435:186,3,34.1249984378815,2|0|0|0,0:0|0:0|0:0|0:0,0:0:0:0:
310,175,101809,2,0,P|317:136|307:104,1,68.2499968757631,0|0,0:0|0:0,0:0:0:0:
256,192,102128,12,0,103086,0:0:0:0:
344,124,103245,5,0,0:0:0:0:
256,192,103405,12,0,104362,0:0:0:0:
404,320,104522,5,0,0:0:0:0:
256,192,104681,12,0,105639,0:0:0:0:
64,232,105798,5,0,0:0:0:0:
256,192,105958,12,0,106915,0:0:0:0:
116,68,107075,5,0,0:0:0:0:
196,144,107235,1,2,0:0:0:0:
