osu file format v9

[General]
AudioFilename: FujinRaijin.mp3
AudioLeadIn: 0
PreviewTime: 56644
Countdown: 0
SampleSet: Normal
StackLeniency: 0.7
Mode: 0
LetterboxInBreaks: 1

[Editor]
DistanceSpacing: 1.3
BeatDivisor: 4
GridSize: 4

[Metadata]
Title:FujinRaijin
Artist:C.S.port
Creator:eXseeD
Version:gowww
Source:BMS
Tags:gowww TW-KUMA01

[Difficulty]
HPDrainRate:7
CircleSize:4
OverallDifficulty:6
ApproachRate:8
SliderMultiplier:1.6
SliderTickRate:1

[Events]
//Background and Video events
0,0,"20110404023511c7b.png"
//Break Periods
//Storyboard Layer 0 (Background)
//Storyboard Layer 1 (Fail)
//Storyboard Layer 2 (Pass)
//Storyboard Layer 3 (Foreground)
//Storyboard Sound Samples
//Background Colour Transformations
3,100,163,162,255

[TimingPoints]
2137,422.535211267606,4,1,1,50,1,0
6257,-100,4,2,0,5,0,0
6362,-100,4,1,1,50,0,0
6679,-100,4,2,0,5,0,0
6785,-100,4,1,1,50,0,0
7102,-100,4,2,0,5,0,0
7207,-100,4,1,1,50,0,0
7524,-100,4,2,0,5,0,0
7630,-100,4,1,1,50,0,0
7947,-100,4,2,0,5,0,0
8052,-100,4,1,1,60,0,0
8369,-100,4,2,0,5,0,0
8475,-100,4,1,1,70,0,0
8792,-100,4,2,0,5,0,0
8898,-100,4,1,1,50,0,0
11855,-200,4,1,1,50,0,0
12278,-100,4,1,1,50,0,0
12912,-100,4,2,0,5,0,0
13017,-100,4,1,1,30,0,0
13334,-100,4,2,0,5,0,0
13440,-100,4,1,1,40,0,0
13757,-100,4,2,0,5,0,0
13862,-100,4,1,1,50,0,0
14179,-100,4,1,1,60,0,0
14390,-100,4,1,1,60,0,1
14496,-100,4,1,1,60,0,0
27912,-133.333333333333,4,1,1,40,0,0
31609,-133.333333333333,4,2,1,5,0,0
31714,-133.333333333333,4,1,1,40,0,0
32031,-133.333333333333,4,2,1,5,0,0
32137,-133.333333333333,4,1,1,40,0,0
32454,-133.333333333333,4,2,1,5,0,0
32560,-133.333333333333,4,1,1,40,0,0
32876,-133.333333333333,4,2,1,5,0,0
32982,-133.333333333333,4,1,1,40,0,0
34355,-133.333333333333,4,2,1,5,0,0
34672,-133.333333333333,4,1,1,40,0,0
38475,-133.333333333333,4,2,1,5,0,0
38581,-133.333333333333,4,1,1,40,0,0
39743,-133.333333333333,4,2,1,20,0,0
41433,-100,4,1,1,70,0,1
41538,-100,4,1,1,70,0,0
54954,-50,4,1,1,70,0,0
56221,-66.6666666666667,4,1,1,70,0,0
56644,-83.3333333333333,4,1,1,80,0,1
60024,-83.3333333333333,4,1,1,60,0,1
60447,-71.4285714285714,4,1,1,65,0,1
60869,-62.5,4,1,1,70,0,1
61292,-55.5555555555556,4,1,1,80,0,1
61714,-50,4,1,1,90,0,1
62982,-83.3333333333333,4,1,1,70,0,1
63088,-83.3333333333333,4,1,1,75,0,1
63299,-83.3333333333333,4,1,1,80,0,0
63405,-83.3333333333333,4,1,1,80,0,1
71221,-66.6666666666667,4,1,1,80,0,1
71750,-66.6666666666667,4,1,1,80,0,0
71855,-100,4,1,1,80,0,1
72383,-100,4,2,1,40,0,0
72489,-100,4,1,1,80,0,1
72806,-100,4,1,1,80,0,0
72912,-100,4,1,1,80,0,1
73334,-100,4,2,1,5,0,1
73545,-100,4,1,1,60,0,0
73862,-100,4,2,1,5,0,0
73968,-100,4,1,1,60,0,0
74285,-100,4,2,1,5,0,0
74390,-100,4,1,1,60,0,0
74707,-100,4,2,1,5,0,0
74813,-100,4,1,1,60,0,0
75130,-100,4,2,1,5,0,0
75236,-100,4,1,1,60,0,0
75552,-100,4,2,1,5,0,0
75658,-100,4,1,1,60,0,0
75975,-100,4,2,1,5,0,0
76081,-100,4,1,1,60,0,0
76398,-100,4,2,1,5,0,0
76503,-100,4,1,1,60,0,0
77243,-100,4,2,1,5,0,0
77348,-100,4,1,1,60,0,0
77665,-100,4,2,1,5,0,0
77771,-100,4,1,1,60,0,0
87067,447.761194029851,4,1,1,70,1,0
87290,-100,4,2,0,5,0,0
87402,-100,4,1,1,65,0,0
87738,-100,4,2,0,5,0,0
87850,-100,4,1,1,60,0,0
88186,-100,4,2,1,5,0,0
88298,-100,4,1,1,55,0,0
88634,-100,4,2,1,5,0,0
88858,500,4,1,1,50,1,0
88858,-133.333333333333,4,1,1,50,0,0
89108,-133.333333333333,4,2,1,5,0,0
89233,-133.333333333333,4,1,1,40,0,0
89608,-133.333333333333,4,2,1,5,0,0
89733,-200,4,1,1,30,0,0
90108,-200,4,2,1,5,0,0
90233,-200,4,1,1,20,0,0
90608,-100,4,2,1,5,0,0
90858,666.666666666667,4,1,1,10,1,0
91024,-100,4,2,0,10,0,0
93524,-100,4,2,1,5,0,0

[Colours]
Combo1 : 255,255,255
Combo2 : 0,0,0

[HitObjects]
368,248,2560,2,0,B|344:288|352:352,1,80,4|0
432,336,2982,2,0,B|456:296|448:232,1,80,8|0
416,184,3405,2,0,B|416:120|416:120|400:72|360:56,1,120
352,88,3827,2,0,B|304:80|304:80|288:56|272:32,1,80,8|0
248,56,4144,1,0
208,48,4250,2,0,B|168:32|104:48,1,80
48,192,4672,2,0,B|152:192,1,80,8|0
208,336,5095,2,0,B|168:352|104:336,1,80,4|0
48,192,5517,5,8
8,192,5729,5,0
80,96,5940,2,0,B|112:48|112:48|151:52|200:40,1,120,4|0
192,104,6362,2,0,B|224:152|224:152|263:148|312:160,1,120,8|0
328,112,6785,2,0,B|360:64|360:64|399:68|448:56,1,120,4|0
456,112,7207,2,0,B|480:168|464:256,1,120,8|0
416,264,7630,6,0,B|368:288|296:288,1,120,4|0
96,264,8052,2,0,B|144:288|216:288,1,120,12|0
256,136,8475,2,0,B|256:168|256:168|248:192|248:192|264:192|264:192|256:216|256:216|256:256,1,120,4|0
256,280,8898,5,8
256,320,9109,1,0
256,360,9320,5,4
256,24,9954,5,0
256,24,10165,1,4
192,192,10588,5,0
320,192,10799,1,0
256,104,11010,1,0
256,280,11221,1,0
104,192,11433,1,0
408,192,11644,1,0
256,24,11855,2,0,B|256:112,1,80,4|0
256,144,12489,5,0
256,184,12700,6,0,B|256:280,1,80
136,248,13123,2,0,B|136:304|168:336,1,80
376,248,13545,2,0,B|376:304|344:336,1,80,4|0
256,24,13968,2,0,B|256:104,1,80,8|12
256,184,14390,5,4
256,208,14496,1,0
240,224,14602,1,0
216,224,14707,1,0
192,208,14813,2,0,B|160:184|160:184|144:192|104:192,1,80,8|0
56,240,15236,2,0,B|32:208|32:208|40:192|40:152,1,80
40,88,15658,2,0,B|40:48|40:48|72:32|88:8,1,80,8|0
128,88,16081,6,0,B|208:56|208:56|233:88|296:88,2,160,0|8|0
128,88,17137,1,0
272,8,17348,1,8
400,104,17560,1,0
416,64,17665,1,0
416,24,17771,6,0,B|360:16|328:64,1,80
384,184,18193,2,0,B|440:192|472:144,1,80,8|0
312,128,18616,2,0,B|256:120|224:168,1,80
104,240,19038,2,0,B|160:248|192:200,1,80,8|0
120,160,19461,5,0
296,208,19672,1,0
184,96,19883,1,8
216,256,20095,1,0
280,112,20306,1,0
280,112,20412,1,0
280,112,20517,1,0
400,216,20729,1,8
440,64,20940,1,8
248,40,21151,5,0
224,48,21257,1,0
208,64,21363,1,0
200,88,21468,1,0
200,112,21574,2,0,B|200:176|200:216|216:240|272:248,2,160,12|0|8
120,104,22630,1,0
64,160,22841,6,0,B|48:208|48:248,1,80
199,318,23264,2,0,B|200:288|184:240,1,80,8|0
264,64,23686,2,0,B|248:112|248:152,1,80,0|0
248,168,24003,1,0
256,192,24109,1,12
272,208,24214,1,0
296,216,24320,1,0
320,216,24426,1,0
344,208,24531,1,4
344,208,24954,5,4
404,156,25165,1,0
372,132,25271,1,0
332,132,25376,1,8
112,216,25588,1,0
144,240,25694,1,0
184,240,25799,1,8
328,240,26010,1,0
256,144,26221,6,0,B|248:120,4,20,4|0|0|0|0
184,240,26644,1,8
136,128,26855,1,8
136,128,26961,1,0
32,248,27172,1,0
32,248,27278,1,8
176,179,27489,1,8
216,160,27595,1,0
256,144,27700,2,0,B|280:152,3,20
296,128,27912,6,0,B|328:96|376:96|376:96|416:112,1,119.999996423721,4|8
464,168,28545,1,0
488,248,28757,2,0,B|501:278|496:320,1,59.9999982118607
408,232,29179,2,0,B|384:256|352:272,1,59.9999982118607,8|0
408,232,29602,2,0,B|368:208|312:208|280:216,1,119.999996423721,0|8
291,213,30236,1,0
104,232,30447,2,0,B|144:208|200:208|232:216,1,119.999996423721,0|8
220,213,31081,1,0
232,128,31292,6,0,B|224:72|208:56|208:56|168:48,1,89.9999973177911
280,128,31714,2,0,B|288:72|304:56|304:56|344:48,1,89.9999973177911,8|0
184,136,32137,2,0,B|136:152|116:152|116:152|96:144,1,89.9999973177911
328,136,32560,2,0,B|376:152|396:152|396:152|416:144,1,89.9999973177911,8|0
256,176,32982,2,0,B|256:216|256:216|248:232|248:232|264:232|264:232|256:248|256:248|256:288,1,119.999996423721,0|8
256,352,33616,5,0
256,352,33721,1,0
256,352,33827,1,0
176,264,34038,1,0
400,168,34250,1,8
288,216,34461,6,0,B|288:200,3,14.9999995529652
256,176,34672,6,0,B|232:144|160:144|136:184,1,119.999996423721,4|8
200,240,35306,1,0
256,88,35517,6,0,B|232:56|160:56|136:96,1,119.999996423721,0|8
200,240,36151,1,0
144,304,36362,6,0,B|168:336|240:336|264:296,1,119.999996423721,0|8
200,240,36996,1,0
256,176,37207,2,0,B|232:144|160:152|152:168,1,89.9999973177911
136,176,37630,2,0,B|112:208|120:240,1,59.9999982118607,8|0
200,240,38052,2,0,B|224:272|296:272|320:232,1,119.999996423721
392,240,38686,5,0
424,160,38898,1,8
384,72,39109,1,0
280,48,39320,1,8
192,128,39531,1,8
256,232,39743,6,0,B|304:280|456:248|440:96|392:32|264:16|192:80|208:176|232:192,1,479.999985694886,0|14
304,160,41644,5,0
168,248,41855,1,8
104,304,42067,5,0
132,324,42172,1,0
172,332,42278,1,0
304,328,42489,1,0
256,256,42700,1,8
344,240,42912,1,0
216,176,43123,1,0
216,320,43334,1,0
248,296,43440,1,0
256,256,43545,1,8
312,144,43757,5,0
312,144,43862,1,0
312,144,43968,1,0
232,88,44179,1,0
144,120,44390,2,0,B|120:160|128:208,1,80,8|0
392,88,44813,2,0,B|416:128|408:176,1,80
392,200,45130,5,0
392,200,45236,2,0,B|384:256|400:312,1,80,8|0
120,200,45658,2,0,B|128:256|112:312,1,80
256,32,46081,2,0,B|256:136,1,80,8|0
256,152,46398,1,0
256,192,46503,5,0
120,200,46714,1,0
392,200,46926,1,8
184,272,47137,1,0
184,272,47243,1,0
184,272,47348,1,0
328,272,47560,1,0
256,336,47771,1,8
256,328,47876,1,0
256,320,47982,1,0
256,312,48088,1,0
256,304,48193,2,0,B|184:272,1,80,6|0
256,304,48616,2,0,B|328:272,1,80
328,232,48933,5,0
328,232,49038,2,0,B|224:182,1,80
184,232,49461,2,0,B|288:182,1,80,8|0
184,232,49883,2,0,B|80:182,1,80
328,232,50306,2,0,B|432:182,1,80,8|0
432,176,50623,5,0
432,176,50729,2,0,B|424:136|424:136|376:80,1,80,4|0
80,176,51151,2,0,B|88:136|88:136|136:80,1,80,8|0
256,32,51574,2,0,B|256:128,1,80,4|0
168,168,51996,2,0,B|160:208|160:208|168:256,1,80,8|0
344,168,52419,2,0,B|352:208|352:208|344:256,1,80,4|0
256,192,52841,1,8
256,192,53052,1,0
168,168,53264,5,4
200,120,53369,1,0
256,104,53475,1,0
312,120,53581,1,0
344,168,53686,1,12
256,192,53898,5,4
256,200,54003,1,0
256,208,54109,1,8
256,216,54214,1,0
256,224,54320,1,0
256,232,54426,1,0
256,240,54531,1,12
256,248,54637,1,0
256,256,54743,1,0
256,264,54848,1,0
240,280,54954,6,0,B|224:320|184:336,3,80,12|0|0|0
272,280,55376,2,0,B|288:320|328:336,3,80,12|0|0|0
352,344,55799,1,4
376,344,55905,1,0
400,336,56010,1,0
416,320,56116,1,0
424,288,56221,6,0,B|440:256|432:200,1,59.9999982118607,4|0
424,168,56433,2,0,B|424:128|400:96,1,59.9999982118607,4|0
368,64,56644,6,0,B|320:88|272:88,1,96.0000022888184,6|0
144,320,57067,2,0,B|192:296|240:296,1,96.0000022888184,10|0
256,192,57489,1,0
168,160,57700,1,0
344,224,57912,1,10
344,224,58017,1,0
344,224,58123,2,0,B|352:160|312:120,1,96.0000022888184,0|2
288,104,58440,5,0
288,104,58545,2,0,B|224:88|176:144,1,96.0000022888184,0|10
168,160,58862,1,0
168,160,58968,2,0,B|152:216|200:264,1,96.0000022888184,0|2
256,192,59390,1,0
200,80,59602,1,10
312,304,59813,1,0
256,192,60024,6,0,B|232:232|232:232|176:240,1,96.0000022888184,6|0
256,192,60447,2,0,B|272:160|272:160|376:144,1,111.999997329712,10|0
200,80,60869,2,0,B|168:32|168:32|88:16,1,128,6|0
312,304,61292,2,0,B|344:352|344:352|472:376,1,143.999993133545,10|0
168,160,61714,2,0,B|112:160|88:184|88:184|64:160|-24:160,1,160,6|0
344,224,62137,2,0,B|400:223|424:200|424:200|448:224|536:224,1,160,14|0
256,192,62560,1,6
256,192,62665,1,0
256,192,62771,1,0
256,96,62982,5,12
208,184,63193,1,0
304,184,63405,1,0
152,120,63616,1,0
360,120,63827,1,10
256,8,64038,1,0
256,272,64250,1,4
256,272,64355,1,0
256,272,64461,1,0
256,96,64672,5,10
256,352,64883,1,0
256,192,65095,1,0
256,168,65200,1,0
256,144,65306,1,0
256,120,65412,1,0
256,96,65517,1,10
256,192,65729,1,0
472,192,65940,6,0,B|496:232|496:288|464:336|384:344,1,192.000004577637,4|10
256,192,66574,1,0
40,192,66785,2,0,B|16:232|16:288|48:336|128:344,2,192.000004577637,0|10|0
148,84,67841,5,0
256,192,68052,1,10
364,84,68264,1,0
472,192,68475,1,0
476,240,68581,1,0
448,280,68686,2,0,B|420:332|376:336,1,96.0000022888184,0|10
328,336,69003,1,0
280,348,69109,1,0
236,332,69214,2,0,B|164:316|164:316|172:280|144:236,1,144.000003433228,2|0
144,200,69637,5,0
144,200,69743,1,10
368,200,69954,1,0
256,16,70165,2,0,B|240:60|240:60|272:108|272:108|256:144,1,144.000003433228,6|0
256,192,70588,1,14
78,260,70799,6,0,B|102:216|102:216|166:192,1,96.0000022888184
144,200,71116,1,0
144,200,71221,2,0,B|160:256|224:264,1,59.9999982118607
228,284,71433,2,0,B|260:300|296:280,1,59.9999982118607,14|0
332,248,71644,2,0,B|364:224|372:186,1,59.9999982118607,4|0
372,160,71855,5,6
360,120,71961,1,0
328,96,72067,1,0
296,72,72172,1,0
256,80,72278,1,14
216,72,72383,1,0
184,96,72489,1,0
152,120,72595,1,0
140,160,72700,1,6
256,192,72912,5,0
256,192,73017,1,0
256,192,73123,2,0,B|256:280,1,80,14|0
312,336,73545,6,0,B|280:344|256:360|256:360|232:344|172:324,1,120,4|0
156,320,73968,2,0,B|116:348|64:340|28:320,1,120,8|0
16,284,74390,2,0,B|-12:244|-4:192|16:156,1,120
32,124,74813,2,0,B|72:96|124:104|160:124,1,120,8|0
160,164,75236,2,0,B|200:192|252:184|288:164,1,120
284,124,75658,2,0,B|324:96|376:104|412:124,1,120,8|0
428,156,76081,2,0,B|456:196|448:248|428:284,1,120
396,300,76503,5,8
256,224,76714,1,0
116,300,76926,2,0,B|80:280|56:280|56:280|64:248|36:216,1,120
80,192,77348,2,0,B|128:208|128:208|152:184|208:184,1,120,8|0
232,152,77771,5,0
168,80,77982,1,0
256,120,78193,1,8
256,24,78405,1,0
280,152,78616,1,0
344,80,78827,1,0
376,168,79038,1,8
440,56,79250,1,0
420,324,79461,2,0,B|360:312|360:312|328:328|276:324,1,120,4|8
256,336,79883,1,8
92,324,80095,1,0
92,244,80306,6,0,B|140:244|172:300,1,80,4|0
420,244,80729,2,0,B|372:244|340:300,1,80,8|0
88,164,81151,2,0,B|40:164|16:204,1,80
424,164,81574,2,0,B|472:164|496:204,1,80,8|0
164,124,81996,2,0,B|140:76|76:76,1,80
348,124,82419,2,0,B|372:76|436:76,1,80,8|0
256,192,82841,2,0,B|256:288,1,80
256,280,83158,1,0
256,288,83264,1,12
256,296,83369,1,0
256,304,83475,1,0
256,312,83581,1,0
256,320,83686,6,0,B|248:376|184:384,1,80,4|0
256,64,84109,2,0,B|264:8|328:0,1,80,8|0
256,192,84531,1,0
176,192,84743,1,0
336,192,84954,1,8
96,192,85165,1,0
416,192,85376,2,0,B|440:240|440:280|432:296,1,80,4|0
96,192,85799,2,0,B|72:240|72:280|80:296,1,80,0|0
152,104,86221,5,0
184,80,86327,1,0
216,56,86433,2,0,B|256:32|328:64,2,80,8|8|8
256,120,87067,6,0,B|256:200,1,80,4|0
40,288,87514,2,0,B|48:328|48:328|88:360,1,80,0|0
472,288,87962,2,0,B|464:328|464:328|424:360,1,80,4|0
256,156,88410,2,0,B|256:244,1,80,0|0
144,260,88858,6,0,B|152:292|152:292|160:296|192:328,1,59.9999982118607,4|0
368,260,89358,2,0,B|360:292|360:292|352:296|320:328,1,59.9999982118607,4|0
256,192,89858,2,0,B|256:240,1,40,4|0
256,352,90358,2,0,B|256:304,1,40,4|0
256,232,90858,5,0
256,192,91024,12,0,93358
256,192,93524,12,0,96191
