osu file format v9

[General]
AudioFilename: FujinRaijin.mp3
AudioLeadIn: 0
PreviewTime: 56644
Countdown: 0
SampleSet: Normal
StackLeniency: 0.7
Mode: 0
LetterboxInBreaks: 1

[Editor]
DistanceSpacing: 0.8
BeatDivisor: 4
GridSize: 8

[Metadata]
Title:FujinRaijin
Artist:C.S.port
Creator:eXseeD
Version:Normal
Source:BMS
Tags:gowww TW-KUMA01

[Difficulty]
HPDrainRate:3
CircleSize:4
OverallDifficulty:4
ApproachRate:4
SliderMultiplier:1.3
SliderTickRate:1

[Events]
//Background and Video events
0,0,"20110404023511c7b.png"
//Break Periods
//Storyboard Layer 0 (Background)
//Storyboard Layer 1 (Fail)
//Storyboard Layer 2 (Pass)
//Storyboard Layer 3 (Foreground)
//Storyboard Sound Samples
//Background Colour Transformations
3,100,163,162,255

[TimingPoints]
2137,422.535211267606,4,1,0,70,1,0
2559,-200,4,2,0,70,0,0
9320,-200,4,1,1,70,0,0
9425,-200,4,2,1,70,0,0
14390,-100,4,1,1,80,0,0
26221,-100,4,1,1,5,0,0
27911,-200,4,2,1,60,0,0
34672,-200,4,1,1,60,0,0
34777,-200,4,2,1,60,0,0
41432,-100,4,1,1,70,0,0
56644,-100,4,1,1,80,0,1
71010,-200,4,1,1,80,0,1
71644,-100,4,1,1,5,0,1
73545,-100,4,1,1,80,0,0
87067,447.761194029851,4,1,1,80,1,0
87067,-133.333333333333,4,1,1,80,0,0
88858,500,4,1,1,70,1,0
88858,-200,4,1,1,70,0,0
90858,666.666666666667,4,1,1,5,1,0
91024,-100,4,1,1,5,0,0

[Colours]
Combo1 : 255,255,255
Combo2 : 0,0,0

[HitObjects]
88,264,2559,2,0,B|80:232|112:200|112:200,1,65
128,192,3193,1,0
152,192,3405,1,8
176,240,3827,6,0,B|216:240|216:240,1,32.5
208,264,4250,2,0,B|248:264|248:264,1,32.5
240,288,4672,2,0,B|280:288|280:288,1,32.5
272,312,5095,2,0,B|304:328|344:312|344:312,1,65,8|0
360,296,5729,1,0
352,272,5940,2,0,B|328:240|352:208|352:208,1,65
400,184,6785,6,0,B|384:152|344:152|344:152,1,65,8|0
304,176,7630,2,0,B|264:176|240:144|240:144,1,65
246,150,8475,1,8
208,112,8898,5,0
184,120,9109,1,0
160,128,9320,2,0,B|112:128|96:160|96:160,1,65,6|0
88,176,9954,1,0
96,200,10165,1,8
104,248,10588,6,0,B|144:248|144:248,1,32.5
160,248,11010,2,0,B|200:248|200:248,1,32.5
192,224,11433,2,0,B|232:224|232:224,1,32.5
224,200,11855,2,0,B|296:200|296:200,1,65,8|0
312,200,12489,1,0
312,200,12700,1,0
352,168,13123,6,0,B|360:144|360:144|384:144|384:144|400:120|400:120,2,65,0|8|0
256,120,14390,6,0,B|184:104|184:104|136:152|136:152,1,130,12|2
72,224,15236,2,0,B|128:256|128:256|200:232|200:232,1,130,0|2
280,184,16081,1,0
264,80,16503,1,2
160,64,16926,1,0
120,160,17348,5,2
120,160,17560,1,0
120,160,17771,2,0,B|184:176|184:176|224:232|224:232,1,130,0|2
120,264,18616,2,0,B|48:248|48:248|24:192|24:192,1,130,0|2
48,96,19461,2,0,B|24:80|24:80|48:48|48:48|8:48|8:48|16:16|16:16,2,130,0|2|0
256,88,21151,6,0,B|320:80|320:80|376:128|376:128,1,130,14|2
408,216,21996,1,0
344,296,22419,1,2
248,264,22841,2,0,B|176:264|176:264|136:208|136:208,1,130,0|2
88,128,23686,1,0
160,56,24109,5,2
160,56,24320,1,0
160,56,24531,2,0,B|104:24|104:24|32:40|32:40,2,130,0|2|8
192,96,25588,2,0,B|240:80|240:80,2,32.5,0|0|10
184,144,26010,1,0
256,192,26221,12,0,27700
416,296,28334,6,0,B|392:264|352:264|352:264,1,65
312,288,29179,1,0
312,288,29390,1,0
312,288,29602,2,0,B|272:280|256:240|256:240,1,65
248,224,30236,1,0
248,200,30447,2,0,B|256:160|296:152|296:152,1,65
312,160,31081,5,0
336,176,31292,2,0,B|368:192|408:168|408:168,1,65
424,128,32137,1,0
408,80,32560,1,0
360,64,32982,2,0,B|296:64|296:128|296:128,1,97.5
297,123,33827,1,0
192,96,34672,6,0,B|152:96|128:128|128:128,1,65,6|0
104,168,35517,1,0
96,216,35940,1,0
104,264,36362,1,0
144,296,36785,1,0
168,248,37207,2,0,B|184:216|224:208|224:208,1,65
248,208,37841,1,0
272,224,38052,1,0
336,264,38686,5,0
360,256,38898,1,0
376,232,39109,1,0
368,208,39320,1,0
344,192,39531,1,0
320,192,39743,2,0,B|248:232|184:168|184:88|240:56|288:64|288:64,1,260,0|14
376,112,41855,5,2
416,144,42067,2,0,B|440:176|424:224|424:224,1,65
384,232,42489,2,0,B|336:232|320:280|320:280,1,65,0|2
296,304,42912,1,0
248,328,43123,2,0,B|192:368|120:336|120:336,1,130,0|2
80,248,43968,6,0,B|72:208|120:184|120:184,1,65
160,184,44390,2,0,B|200:160|200:120|200:120,1,65,2|0
197,133,44813,1,0
152,40,45236,1,2
256,32,45658,2,0,B|344:32|352:112|352:112,1,130,0|2
328,152,46292,1,0
336,200,46503,6,0,B|256:208|240:296|240:296,4,130,0|2|0|2|14
360,304,48616,5,2
360,304,48827,1,0
408,280,49038,2,0,B|448:256|440:208|440:208,1,65
400,192,49461,2,0,B|392:152|416:120|416:120,1,65,2|0
440,88,49883,2,0,B|392:40|312:48|312:48,1,130,0|2
224,16,50728,2,0,B|160:72|160:72,1,65
224,72,51151,2,0,B|168:120|168:120,1,65,2|0
224,128,51574,2,0,B|240:208|160:248|160:248,1,130,0|2
120,160,52419,2,0,B|112:80|184:48|184:48,1,130,0|2
280,48,53264,2,0,B|392:128|296:232|296:232,1,195
256,240,54109,2,0,B|184:272|128:200|128:200,1,130,0|2
88,120,54953,5,0
144,32,55376,1,0
248,16,55799,1,0
336,72,56221,1,0
336,72,56433,1,0
384,88,56644,6,0,B|376:128|416:152|416:152,3,65,6|0|2|0
448,176,57489,2,0,B|496:248|416:304|416:304,1,130,0|2
328,328,58334,1,0
256,256,58757,5,0
304,168,59179,2,0,B|272:96|192:112|192:112,1,130,0|2
144,128,59813,1,0
120,176,60024,5,0
184,256,60447,1,2
288,248,60869,1,0
336,152,61292,1,2
272,64,61714,1,0
168,56,62137,1,2
120,136,62560,2,0,B|200:152|248:96|248:96,1,130,0|2
272,64,63193,5,0
320,40,63405,2,0,B|360:48|376:88|376:88,1,65,12|0
352,128,63827,2,0,B|360:168|400:176|400:176,1,65,2|0
448,168,64250,2,0,B|512:208|488:288|488:288,1,130,0|2
408,344,65095,1,0
320,288,65517,6,0,B|288:264|296:232|296:232,1,65,2|0
312,184,65940,2,0,B|296:96|200:104|200:104,1,130,0|2
168,112,66574,1,0
136,152,66785,2,0,B|56:136|64:56|64:56,2,130,0|2|0
168,112,67841,1,0
216,88,68052,1,2
264,104,68263,1,0
304,136,68475,2,0,B|344:112|352:72|352:72,2,65,0|0|2
288,184,69109,6,0,B|232:232|144:200|144:200,1,130
120,232,69743,1,2
120,280,69954,1,0
160,320,70165,2,0,B|224:352|304:312|304:312,1,130,0|2
328,288,70799,1,0
328,288,71010,1,6
256,192,71115,12,0,73122
256,352,73545,6,0,B|184:352|184:352|144:304|144:304,1,130,14|2
88,216,74390,1,0
120,120,74813,1,2
200,56,75236,2,0,B|256:24|256:24|328:64|328:64,1,130,0|2
400,120,76081,1,0
448,216,76503,6,0,B|408:224|408:224|392:256|392:256,1,65,2|0
416,296,76926,2,0,B|368:344|368:344|296:328|296:328,1,130,0|2
216,288,77771,2,0,B|256:240|256:240|328:240|328:240,1,130,0|2
328,136,78616,2,0,B|256:136|256:136|200:88|200:88,1,130,0|2
168,192,79461,1,0
376,192,80306,5,0
464,128,80729,2,0,B|416:88|416:88|336:88|336:88,1,130,2|0
376,192,81574,2,0,B|304:192|304:192|256:144|256:144,1,130,2|0
184,216,82419,2,0,B|240:264|240:264|240:336|240:336,2,130,2|0|2
136,200,83475,1,0
104,240,83686,2,0,B|96:312|96:312|144:360|144:360,1,130,0|2
128,144,84954,5,2
128,144,85376,2,0,B|176:104|256:72|328:96|384:160|384:160,1,260
366,144,86644,1,2
400,208,87067,6,0,B|352:216|352:216|336:272|336:272,1,97.4999970942737
296,328,87962,2,0,B|256:352|256:352|208:328|208:328,1,97.4999970942737
256,312,88858,6,0,B|256:240|256:240,1,65
224,208,89858,2,0,B|256:200|256:200|288:208|288:208,1,65
256,192,90858,12,0,96191
