osu file format v12

[General]
AudioFilename: Fujin Raijin.mp3
AudioLeadIn: 1000
PreviewTime: 56235
Countdown: 0
SampleSet: Soft
StackLeniency: 0.7
Mode: 0
LetterboxInBreaks: 0

[Editor]
DistanceSpacing: 1.2
BeatDivisor: 4
GridSize: 4

[Metadata]
Title:Fuujin Raijin
TitleUnicode:風仁雷仁
Artist:C.S.Port
ArtistUnicode:C.S.Port
Creator:Beren
Version:alacat
Source:BMS
Tags:colorful sounds port hs714 Kiiwa alacat tutuhaha
BeatmapID:210678
BeatmapSetID:71480

[Difficulty]
HPDrainRate:4
CircleSize:4
OverallDifficulty:5
ApproachRate:7
SliderMultiplier:1.5
SliderTickRate:1

[Events]
//Background and Video events
0,0,"yande_re%20203800%2024_%2824unk%29%20kimono.jpg",0,0
//Break Periods
//Storyboard Layer 0 (Background)
//Storyboard Layer 1 (Fail)
//Storyboard Layer 2 (Pass)
//Storyboard Layer 3 (Foreground)
//Storyboard Sound Samples
//Background Colour Transformations
3,100,163,162,255

[TimingPoints]
883,422.535211267606,4,2,2,60,1,0
2150,-133.333333333333,4,2,2,60,0,0
2573,-133.333333333333,4,2,2,50,0,0
2784,-133.333333333333,4,2,2,60,0,0
4685,-133.333333333333,4,2,2,50,0,0
5108,-133.333333333333,4,2,2,40,0,0
5953,-133.333333333333,4,2,2,45,0,0
6375,-133.333333333333,4,2,2,50,0,0
6798,-133.333333333333,4,2,2,55,0,0
7221,-133.333333333333,4,2,2,60,0,0
7643,-133.333333333333,4,2,2,65,0,0
8911,-133.333333333333,4,2,2,50,0,0
9333,-133.333333333333,4,2,2,60,0,0
13981,-133.333333333333,4,2,2,40,0,0
14404,-100,4,2,2,60,0,0
14509,-100,4,2,1,60,0,0
15249,-100,4,2,2,60,0,0
15354,-100,4,2,1,60,0,0
16094,-100,4,2,2,60,0,0
16199,-100,4,2,1,60,0,0
16939,-100,4,2,2,60,0,0
17044,-100,4,2,1,60,0,0
17784,-100,4,2,2,60,0,0
17890,-100,4,2,1,60,0,0
18629,-100,4,2,2,60,0,0
18735,-100,4,2,1,60,0,0
19474,-100,4,2,2,60,0,0
19580,-100,4,2,1,60,0,0
20319,-100,4,2,2,60,0,0
20425,-100,4,2,1,60,0,0
21164,-100,4,2,2,60,0,0
21587,-100,4,2,1,60,0,0
22009,-100,4,2,2,60,0,0
22115,-100,4,2,1,60,0,0
22854,-100,4,2,2,60,0,0
22960,-100,4,2,1,60,0,0
23699,-100,4,2,2,60,0,0
23805,-100,4,2,1,60,0,0
24544,-100,4,2,2,60,0,0
24650,-100,4,2,1,60,0,0
25178,-100,4,2,1,50,0,0
25601,-100,4,2,1,40,0,0
27925,-100,4,1,1,60,0,0
28347,-100,4,2,2,50,0,0
34685,-100,4,2,2,40,0,0
34791,-100,4,2,2,50,0,0
39756,-100,4,2,2,30,0,0
40601,-100,4,2,2,40,0,0
41446,-100,4,2,2,50,0,0
41552,-100,4,2,1,60,0,0
44826,-100,4,2,1,50,0,0
48206,-100,4,2,2,50,0,0
48312,-100,4,2,1,60,0,0
51587,-100,4,2,1,50,0,0
53277,-100,4,2,1,60,0,0
54967,-100,4,2,2,40,0,0
55390,-100,4,2,2,50,0,0
55812,-100,4,2,2,60,0,0
56235,-100,4,2,2,70,0,0
56657,-100,4,2,2,80,0,0
56763,-100,4,2,1,80,0,0
57502,-100,4,2,2,80,0,0
57608,-100,4,2,1,80,0,0
58347,-100,4,2,2,80,0,0
58453,-100,4,2,1,80,0,0
59192,-100,4,2,2,80,0,0
59615,-100,4,2,1,50,0,0
60037,-100,4,2,2,50,0,0
60460,-100,4,2,1,50,0,0
60883,-100,4,2,2,60,0,0
61305,-100,4,2,1,60,0,0
61728,-100,4,2,2,70,0,0
62150,-100,4,2,1,70,0,0
62573,-100,4,2,2,80,0,0
62995,-100,4,2,1,50,0,0
63418,-100,4,2,2,80,0,0
63523,-100,4,2,1,80,0,0
64263,-100,4,2,2,80,0,0
64368,-100,4,2,1,80,0,0
65108,-100,4,2,2,80,0,0
65213,-100,4,2,1,80,0,0
65953,-100,4,2,2,80,0,0
66059,-100,4,2,1,80,0,0
66798,-100,4,2,2,70,0,0
67221,-100,4,2,1,70,0,0
67643,-100,4,2,2,70,0,0
67749,-100,4,2,1,70,0,0
68488,-100,4,2,2,70,0,0
68594,-100,4,2,1,70,0,0
69333,-100,4,2,2,70,0,0
69439,-100,4,2,1,70,0,0
70178,-100,4,2,2,70,0,0
70284,-100,4,2,1,70,0,0
71023,-100,4,2,2,70,0,0
71868,-100,4,2,2,60,0,0
73559,-100,4,2,2,70,0,0
73981,-100,4,2,1,70,0,0
74404,-100,4,2,2,70,0,0
74826,-100,4,2,1,70,0,0
75249,-100,4,2,2,70,0,0
75671,-100,4,2,1,70,0,0
76094,-100,4,2,2,70,0,0
76516,-100,4,2,1,70,0,0
76939,-100,4,2,2,70,0,0
77361,-100,4,2,1,70,0,0
77784,-100,4,2,2,70,0,0
78206,-100,4,2,1,70,0,0
78629,-100,4,2,2,70,0,0
79052,-100,4,2,1,70,0,0
79474,-100,4,2,2,70,0,0
79897,-100,4,2,1,70,0,0
80319,-100,4,2,2,70,0,0
80742,-100,4,2,1,70,0,0
81164,-100,4,2,2,70,0,0
81587,-100,4,2,1,70,0,0
82009,-100,4,2,2,70,0,0
82432,-100,4,2,1,70,0,0
82854,-100,4,2,2,70,0,0
83277,-100,4,2,1,70,0,0
83699,-100,4,2,2,70,0,0
84122,-100,4,2,1,70,0,0
84544,-100,4,2,2,70,0,0
84967,-100,4,2,1,70,0,0
85390,-100,4,2,2,70,0,0
85812,-100,4,2,1,70,0,0
86235,-100,4,2,2,70,0,0
86657,-100,4,2,1,70,0,0
87080,452.830188679245,4,2,2,60,1,0
88438,459.770114942529,4,2,2,60,1,0
88885,512.820512820513,4,2,2,40,1,0
89409,476.190476190476,4,2,2,40,1,0
89885,521.739130434783,4,2,2,40,1,0
90928,662.983425414365,4,2,1,20,1,0
93248,-100,4,2,1,5,0,0
93579,-100,4,2,1,20,0,0
96231,-100,4,2,1,5,0,0

[Colours]
Combo1 : 128,128,192
Combo2 : 255,128,192
Combo3 : 213,0,0
Combo4 : 227,202,113
Combo5 : 236,176,19
Combo6 : 123,222,33
Combo7 : 32,223,190
Combo8 : 49,139,193

[HitObjects]
164,340,2150,2,0,P|172:308|172:284,1,56.2500021457673,2|0,0:0|0:0,0:0:0:0:
164,188,2573,5,4,0:0:0:0:
84,164,2784,2,0,P|52:172|28:172,2,56.2500021457673,0|2|0,0:0|0:0|0:0,0:0:0:0:
52,72,3418,2,0,P|108:64|136:52,1,84.3750032186509,2|0,0:0|0:0,0:0:0:0:
172,36,3840,2,0,L|228:44,1,56.2500021457673,2|0,0:0|0:0,0:0:0:0:
288,104,4263,6,0,P|300:136|304:160,1,56.2500021457673,2|0,0:0|0:0,0:0:0:0:
376,200,4685,2,0,P|369:233|360:256,1,56.2500021457673,2|0,0:0|0:0,0:0:0:0:
292,304,5108,1,2,0:0:0:0:
292,304,5530,2,0,L|348:312,1,56.2500021457673
420,356,5953,5,2,0:0:0:0:
500,236,6375,1,0,0:0:0:0:
444,100,6798,1,2,0:0:0:0:
300,116,7221,1,0,0:0:0:0:
192,216,7643,6,0,P|132:228|80:232,2,112.500004291535,2|0|2,0:0|0:0|0:0,0:0:0:0:
180,72,8911,2,0,P|192:100|204:124,1,56.2500021457673
284,172,9333,6,0,P|344:184|392:164,1,112.500004291535,4|0,0:0|0:0,0:0:0:0:
448,104,9967,2,0,L|468:156,1,56.2500021457673,0|8,0:0|0:0,0:0:0:0:
344,236,10601,2,0,L|324:288,1,56.2500021457673
232,320,11023,5,2,0:0:0:0:
148,340,11235,1,0,0:0:0:0:
168,260,11446,1,2,0:0:0:0:
88,280,11657,1,0,0:0:0:0:
20,212,11868,2,0,P|40:172|68:144,1,84.3750032186509,8|0,0:0|0:0,0:0:0:0:
108,136,12291,1,0,0:0:0:0:
196,176,12502,6,0,L|252:168,1,56.2500021457673,0|0,0:0|0:0,0:0:0:0:
388,200,13136,2,0,L|328:192,2,56.2500021457673,0|0|8,0:0|0:0|0:0,0:0:0:0:
476,344,13981,2,0,P|468:296|476:260,1,84.3750032186509
500,208,14404,22,0,L|488:132,1,75,4|0,0:0|0:0,0:0:0:0:
416,80,14826,2,0,P|376:80|344:68,1,75,2|0,0:0|0:0,0:0:0:0:
236,32,15249,2,0,L|220:108,1,75,2|0,0:0|0:0,0:0:0:0:
172,180,15671,1,2,0:0:0:0:
228,252,15882,1,0,0:0:0:0:
116,252,16094,6,0,P|104:288|104:324,1,75,2|0,0:0|0:0,0:0:0:0:
176,380,16516,2,0,L|252:376,1,75,2|0,0:0|0:0,0:0:0:0:
320,288,16939,1,2,0:0:0:0:
400,252,17150,1,0,0:0:0:0:
472,164,17361,2,0,P|488:204|488:236,1,75,2|0,0:0|0:0,0:0:0:0:
440,336,17784,6,0,L|368:356,1,75,2|0,0:0|0:0,0:0:0:0:
284,320,18206,2,0,P|276:280|284:248,1,75,2|0,0:0|0:0,0:0:0:0:
256,136,18629,2,0,P|294:149|318:172,1,75,2|0,0:0|0:0,0:0:0:0:
384,108,19052,2,0,P|410:138|420:170,1,75,2|0,0:0|0:0,0:0:0:0:
388,280,19474,5,2,0:0:0:0:
300,320,19685,1,0,0:0:0:0:
200,272,19897,1,2,0:0:0:0:
144,344,20108,1,0,0:0:0:0:
120,236,20319,1,2,0:0:0:0:
68,164,20530,2,0,L|32:144,2,37.5,0|0|2,0:0|0:0|0:0,0:0:0:0:
156,152,20953,5,0,0:0:0:0:
156,152,21059,1,0,0:0:0:0:
156,152,21164,2,0,P|176:116|184:80,1,75,4|0,0:0|0:0,0:0:0:0:
124,16,21587,2,0,P|104:52|96:88,1,75,2|0,0:0|0:0,0:0:0:0:
120,196,22009,2,0,L|136:272,1,75,2|0,0:0|0:0,0:0:0:0:
124,360,22432,2,0,P|164:360|200:352,1,75,2|0,0:0|0:0,0:0:0:0:
256,284,22854,5,2,0:0:0:0:
432,364,23277,1,2,0:0:0:0:
340,192,23699,1,2,0:0:0:0:
164,276,24122,1,2,0:0:0:0:
388,260,24544,6,0,B|425:223|419:181|419:181|453:178|477:199,1,150,2|2,0:0|0:0,0:0:0:0:
492,288,25178,2,0,L|488:328,2,37.5
404,344,25601,2,0,L|389:381,2,37.5
284,336,26023,2,0,L|272:356,4,18.75
136,232,26657,22,0,B|96:236|96:236|60:232|24:240,2,112.5
284,148,27608,2,0,L|308:164,6,18.75,0|0|0|0|0|0|4,0:0|0:0|0:0|0:0|0:0|0:0|0:0,0:0:0:0:
144,96,28347,5,2,0:0:0:0:
224,224,28770,1,0,0:0:0:0:
172,364,29192,1,2,0:0:0:0:
36,304,29615,2,0,P|108:284|184:288,1,150,0|2,0:0|0:0,0:0:0:0:
244,328,30249,2,0,P|284:332|320:328,1,75,0|2,0:0|0:0,0:0:0:0:
248,120,30882,1,0,0:0:0:0:
292,180,31094,1,0,0:0:0:0:
368,168,31305,6,0,B|400:188|400:188|384:244|416:296,1,150,2|2,0:0|0:0,0:0:0:0:
272,252,32150,1,0,0:0:0:0:
136,188,32573,1,2,0:0:0:0:
196,52,32995,2,0,B|236:40|272:48|272:48|308:56|344:48,1,150,0|2,0:0|0:0,0:0:0:0:
436,84,33629,1,0,0:0:0:0:
436,84,33735,1,0,0:0:0:0:
436,84,33840,2,0,B|472:132|440:116|468:152,1,75,2|0,0:0|0:0,0:0:0:0:
416,243,34263,2,0,B|380:195|412:211|384:175,1,75,2|0,0:0|0:0,0:0:0:0:
280,132,34685,5,4,0:0:0:0:
136,82,35108,1,2,0:0:0:0:
45,200,35530,1,0,0:0:0:0:
131,325,35953,1,2,0:0:0:0:
275,282,36375,2,0,P|356:272|424:284,1,150,0|2,0:0|0:0,0:0:0:0:
252,132,37221,2,0,P|171:142|103:130,1,150,2|0,0:0|0:0,0:0:0:0:
52,80,37854,1,0,0:0:0:0:
0,136,38066,6,0,B|12:212|12:212|44:228|56:272,1,150,2|2,0:0|0:0,0:0:0:0:
112,316,38699,2,0,P|80:336|44:340,2,75
172,360,39333,2,0,P|185:326|182:288,1,75,2|0,0:0|0:0,0:0:0:0:
256,192,39756,12,4,41446,0:0:0:0:
256,308,41868,5,2,0:0:0:0:
172,276,42080,2,0,L|132:284,2,37.5
244,220,42502,1,0,0:0:0:0:
344,168,42713,2,0,L|332:242,1,75,2|0,0:0|0:0,0:0:0:0:
264,136,43136,2,0,P|200:96|128:104,1,150,0|2,0:0|0:0,0:0:0:0:
96,188,43770,1,0,0:0:0:0:
96,188,43875,1,0,0:0:0:0:
96,188,43981,2,0,L|28:224,1,75
132,276,44404,2,0,L|96:344,1,75,2|2,0:0|0:0,0:0:0:0:
224,320,44826,6,0,P|292:283|363:284,1,150,0|2,0:0|0:0,0:0:0:0:
288,64,45671,2,0,P|219:100|148:99,1,150,0|2,0:0|0:0,0:0:0:0:
92,32,46305,1,0,0:0:0:0:
20,88,46516,2,0,B|0:164|0:164|4:240,1,150,0|2,0:0|0:0,0:0:0:0:
88,264,47150,1,0,0:0:0:0:
128,344,47361,2,0,P|156:320|176:288,1,75
252,336,47784,2,0,P|263:301|264:263,1,75,2|0,0:0|0:0,0:0:0:0:
220,160,48206,6,0,P|292:144|368:132,1,150,4|2,0:0|0:0,0:0:0:0:
448,168,48840,2,0,L|488:176,2,37.5
372,216,49263,1,0,0:0:0:0:
400,324,49474,2,0,P|428:296|444:264,1,75,2|0,0:0|0:0,0:0:0:0:
316,280,49897,2,0,P|240:288|164:304,1,150,0|2,0:0|0:0,0:0:0:0:
92,252,50530,2,0,L|84:292,1,37.5
76,332,50742,2,0,P|36:336|0:328,1,75
8,216,51164,1,2,0:0:0:0:
92,252,51375,1,0,0:0:0:0:
176,216,51587,5,0,0:0:0:0:
288,356,52009,1,2,0:0:0:0:
368,192,52432,1,0,0:0:0:0:
256,52,52854,1,2,0:0:0:0:
76,76,53277,2,0,B|124:120|188:108|188:108|204:140,1,150,0|2,0:0|0:0,0:0:0:0:
284,172,53911,1,0,0:0:0:0:
284,172,54016,1,0,0:0:0:0:
284,172,54122,2,0,L|272:248,1,75
344,352,54544,2,0,L|356:276,1,75,2|0,0:0|0:0,0:0:0:0:
412,180,54967,5,4,0:0:0:0:
268,344,55390,5,2,0:0:0:0:
228,344,55812,5,2,0:0:0:0:
188,344,56235,6,0,B|140:348|160:336|112:340,1,75,2|0,0:0|0:0,0:0:0:0:
60,268,56657,5,4,0:0:0:0:
16,188,56868,2,0,L|24:112,2,75,0|2|0,0:0|0:0|0:0,0:0:0:0:
128,208,57502,2,0,P|184:220|244:216,1,112.5,2|0,0:0|0:0,0:0:0:0:
272,196,57925,2,0,L|260:120,1,75,2|0,0:0|0:0,0:0:0:0:
288,36,58347,5,2,0:0:0:0:
376,44,58559,1,0,0:0:0:0:
348,128,58770,1,2,0:0:0:0:
433,149,58981,1,0,0:0:0:0:
348,128,59192,1,2,0:0:0:0:
332,336,59615,2,0,L|256:344,1,75,2|0,0:0|0:0,0:0:0:0:
364,356,60037,5,2,0:0:0:0:
468,244,60460,1,2,0:0:0:0:
408,104,60883,1,2,0:0:0:0:
260,132,61305,1,2,0:0:0:0:
356,248,61728,5,2,0:0:0:0:
324,72,62150,1,2,0:0:0:0:
144,96,62573,1,2,0:0:0:0:
88,332,62995,2,0,L|68:260,1,75,2|0,0:0|0:0,0:0:0:0:
124,352,63418,5,4,0:0:0:0:
204,312,63629,1,0,0:0:0:0:
172,228,63840,1,2,0:0:0:0:
260,244,64052,2,0,L|336:248,1,75,0|2,0:0|0:0,0:0:0:0:
495,85,64685,2,0,L|492:160,1,75,2|0,0:0|0:0,0:0:0:0:
424,216,65108,5,2,0:0:0:0:
352,164,65319,1,0,0:0:0:0:
388,84,65530,1,2,0:0:0:0:
316,28,65742,1,0,0:0:0:0:
244,80,65953,2,0,P|168:88|128:84,1,112.5,2|0,0:0|0:0,0:0:0:0:
100,64,66375,1,2,0:0:0:0:
28,116,66587,1,0,0:0:0:0:
56,200,66798,6,0,L|40:352,2,150,2|2|2,0:0|0:0|0:0,0:0:0:0:
140,168,67854,1,0,0:0:0:0:
220,208,68066,1,2,0:0:0:0:
236,296,68277,1,0,0:0:0:0:
184,368,68488,6,0,L|108:360,2,75,2|0|2,0:0|0:0|0:0,0:0:0:0:
324,316,69122,2,0,L|360:332,1,37.5
396,352,69333,2,0,B|436:356|436:356|472:352,1,75,2|0,0:0|0:0,0:0:0:0:
480,264,69756,2,0,L|460:192,1,75,2|0,0:0|0:0,0:0:0:0:
484,104,70178,6,0,P|432:160|360:172,1,150,2|0,0:0|0:0,0:0:0:0:
280,132,70812,1,0,0:0:0:0:
160,168,71023,2,0,P|168:132|192:104,1,75,2|0,0:0|0:0,0:0:0:0:
288,224,71446,2,0,L|296:300,1,75,2|0,0:0|0:0,0:0:0:0:
256,192,71868,12,4,73559,0:0:0:0:
206,339,73981,5,2,0:0:0:0:
66,287,74404,1,2,0:0:0:0:
180,192,74826,1,2,0:0:0:0:
314,259,75249,5,2,0:0:0:0:
495,191,75671,1,2,0:0:0:0:
347,68,76094,1,2,0:0:0:0:
180,192,76516,1,2,0:0:0:0:
252,172,76728,1,0,0:0:0:0:
328,176,76939,6,0,P|365:190|391:215,1,75,2|0,0:0|0:0,0:0:0:0:
452,256,77361,2,0,P|420:280|386:291,1,75,2|0,0:0|0:0,0:0:0:0:
380,368,77784,2,0,P|342:353|316:328,1,75,2|0,0:0|0:0,0:0:0:0:
256,288,78206,2,0,P|287:263|321:252,1,75,2|0,0:0|0:0,0:0:0:0:
388,292,78629,5,2,0:0:0:0:
248,364,79052,1,2,0:0:0:0:
148,244,79474,1,2,0:0:0:0:
60,220,79685,2,0,L|48:256,2,37.5
32,136,80108,5,0,0:0:0:0:
32,136,80213,1,0,0:0:0:0:
32,136,80319,2,0,B|40:96|40:96|52:64,1,75,4|0,0:0|0:0,0:0:0:0:
148,48,80742,2,0,B|140:88|140:88|128:120,1,75,2|0,0:0|0:0,0:0:0:0:
196,208,81164,2,0,B|204:168|204:168|216:136,1,75,2|0,0:0|0:0,0:0:0:0:
320,60,81587,2,0,B|312:100|312:100|300:132,1,75,2|0,0:0|0:0,0:0:0:0:
288,220,82009,5,2,0:0:0:0:
288,220,82221,1,0,0:0:0:0:
328,300,82432,1,2,0:0:0:0:
328,300,82643,1,0,0:0:0:0:
408,340,82854,2,0,L|488:336,1,75,2|0,0:0|0:0,0:0:0:0:
452,228,83277,2,0,L|372:232,1,75,2|0,0:0|0:0,0:0:0:0:
288,220,83699,6,0,P|220:204|140:212,1,150,2|2,0:0|0:0,0:0:0:0:
44,364,84544,2,0,P|112:380|192:372,1,150,2|2,0:0|0:0,0:0:0:0:
440,316,85390,2,0,P|456:248|448:168,1,150,2|2,0:0|0:0,0:0:0:0:
296,72,86235,2,0,P|280:140|288:220,1,150,2|2,0:0|0:0,0:0:0:0:
76,340,87080,6,0,B|76:280|76:280|60:252|60:252|60:192,1,150,4|0,0:0|0:0,0:0:0:0:
172,44,87985,2,0,B|172:104|172:104|188:132|188:132|188:192,1,150,2|0,0:0|0:0,0:0:0:0:
312,340,88885,6,0,B|312:284|312:284|328:248|328:248|328:192,1,150,2|0,0:0|0:0,0:0:0:0:
436,44,89885,2,0,B|436:100|436:100|452:132|452:132|452:192,1,150,2|0,0:0|0:0,0:0:0:0:
256,192,90928,12,0,93248,0:0:0:0:
256,192,93579,12,0,96231,0:0:0:0:
