osu file format v12

[General]
AudioFilename: Fujin Raijin.mp3
AudioLeadIn: 1000
PreviewTime: 56235
Countdown: 0
SampleSet: Soft
StackLeniency: 0.7
Mode: 0
LetterboxInBreaks: 0

[Editor]
DistanceSpacing: 1
BeatDivisor: 1
GridSize: 4

[Metadata]
Title:Fuujin Raijin
TitleUnicode:風仁雷仁
Artist:C.S.Port
ArtistUnicode:C.S.Port
Creator:Beren
Version:TuNormal
Source:BMS
Tags:colorful sounds port hs714 Kiiwa alacat tutuhaha
BeatmapID:212554
BeatmapSetID:71480

[Difficulty]
HPDrainRate:4
CircleSize:3
OverallDifficulty:4
ApproachRate:5
SliderMultiplier:1.2
SliderTickRate:1

[Events]
//Background and Video events
0,0,"yande_re%20203800%2024_%2824unk%29%20kimono.jpg",0,0
//Break Periods
//Storyboard Layer 0 (Background)
//Storyboard Layer 1 (Fail)
//Storyboard Layer 2 (Pass)
//Storyboard Layer 3 (Foreground)
//Storyboard Sound Samples
//Background Colour Transformations
3,100,163,162,255

[TimingPoints]
883,422.535211267606,4,2,2,60,1,0
10178,-100,4,2,1,60,0,0
10601,-100,4,2,2,60,0,0
11868,-100,4,2,1,60,0,0
12291,-100,4,2,2,60,0,0
13559,-100,4,2,1,60,0,0
13981,-100,4,2,2,60,0,0
14826,-100,4,2,1,60,0,0
21164,-100,4,2,2,60,0,0
21375,-100,4,2,1,60,0,0
27925,-100,4,2,2,60,0,0
41868,-100,4,2,1,60,0,0
56446,-100,4,2,2,60,0,0
57080,-100,4,2,1,60,0,0
73559,-100,4,2,2,60,0,0
73770,-100,4,2,0,60,0,0
74826,-100,4,2,1,60,0,0
76094,-100,4,2,0,60,0,0
76516,-100,4,2,1,60,0,0
77361,-100,4,2,0,60,0,0
78206,-100,4,2,1,60,0,0
79474,-100,4,2,0,60,0,0
79897,-100,4,2,1,60,0,0
87080,452.830188679245,4,2,2,60,1,0
88438,459.770114942529,4,2,2,60,1,0
88885,512.820512820513,4,2,2,40,1,0
89409,476.190476190476,4,2,1,40,1,0
89885,521.739130434783,4,2,2,40,1,0
90928,662.983425414365,4,2,1,40,1,0
96231,-100,4,2,1,5,0,0

[Colours]
Combo1 : 128,128,192
Combo2 : 255,128,192
Combo3 : 213,0,0
Combo4 : 227,202,113
Combo5 : 236,176,19
Combo6 : 123,222,33
Combo7 : 32,223,190
Combo8 : 49,139,193

[HitObjects]
104,76,2150,1,2,0:0:0:0:
104,76,2573,2,0,P|104:160|232:248,1,240,4|2,0:0|0:0,0:0:0:0:
320,180,3840,2,0,P|320:144|308:104,1,60,0|0,0:0|0:0,0:0:0:0:
304,60,4263,2,0,P|260:100|184:96,1,120
84,80,5108,1,2,0:0:0:0:
44,192,5530,2,0,P|68:232|68:260,1,60,0|0,0:0|0:0,0:0:0:0:
88,304,5953,6,0,P|204:332|296:244,1,240,4|2,0:0|0:0,0:0:0:0:
256,144,7221,1,0,0:0:0:0:
372,168,7643,2,0,P|440:152|468:96,2,120,4|0|4,0:0|0:0|0:0,0:0:0:0:
316,64,8911,2,0,P|284:48|248:40,1,60,2|0,0:0|0:0,0:0:0:0:
200,48,9333,6,0,P|108:72|92:200,1,240,4|8,0:0|0:0,0:0:0:0:
104,320,10601,2,0,P|148:304|172:272,1,60
196,248,11023,2,0,P|216:184|272:156,2,120,0|0|8,0:0|0:0|0:0,0:0:0:0:
304,304,12291,1,0,0:0:0:0:
408,360,12713,6,0,P|480:328|488:224,1,180,4|0,0:0|0:0,0:0:0:0:
444,200,13559,2,0,P|380:184|344:144,1,120,8|0,0:0|0:0,0:0:0:0:
260,60,14404,5,4,0:0:0:0:
140,68,14826,1,0,0:0:0:0:
56,152,15249,1,0,0:0:0:0:
48,272,15671,1,2,0:0:0:0:
136,352,16094,2,0,P|188:344|236:280,1,120,0|0,0:0|0:0,0:0:0:0:
276,184,16939,2,0,P|288:104|332:72,1,120
368,52,17573,1,0,0:0:0:0:
424,32,17784,6,0,P|484:100|464:244,2,240,0|0|0,0:0|0:0|0:0,0:0:0:0:
304,48,19897,1,2,0:0:0:0:
184,68,20319,1,0,0:0:0:0:
68,96,20742,1,2,0:0:0:0:
20,208,21164,6,0,P|80:216|140:192,1,120,4|0,0:0|0:0,0:0:0:0:
252,172,22009,2,0,P|284:128|360:96,1,120,0|2,0:0|0:0,0:0:0:0:
448,44,22854,1,0,0:0:0:0:
464,164,23277,1,0,0:0:0:0:
400,264,23699,1,0,0:0:0:0:
292,316,24122,2,0,P|264:296|224:284,1,60,2|0,0:0|0:0,0:0:0:0:
180,284,24544,6,0,P|168:224|112:188,2,120,0|0|0,0:0|0:0|0:0,0:0:0:0:
60,292,25812,1,2,0:0:0:0:
256,192,26235,12,4,27925,0:0:0:0:
256,312,28770,5,8,0:0:0:0:
148,256,29192,2,0,B|140:224|108:192|104:188,1,60,0|0,0:0|0:0,0:0:0:0:
80,160,29615,2,0,P|136:152|200:92,1,120,0|0,0:0|0:0,0:0:0:0:
284,48,30460,1,8,0:0:0:0:
300,168,30882,2,0,P|288:216|292:244,1,60,0|0,0:0|0:0,0:0:0:0:
296,284,31305,6,0,P|364:264|408:212,2,120,4|0|8,0:0|0:0|0:0,0:0:0:0:
180,308,32573,1,0,0:0:0:0:
64,340,32995,2,0,P|32:232|128:140,1,240,0|8,0:0|0:0,0:0:0:0:
208,76,34263,1,0,0:0:0:0:
188,196,34685,6,0,P|200:252|256:304,1,120,4|0,0:0|0:0,0:0:0:0:
360,320,35530,1,8,0:0:0:0:
476,296,35953,1,0,0:0:0:0:
456,180,36375,2,0,P|428:136|356:112,1,120
256,68,37221,2,0,P|224:104|152:116,1,120,8|0,0:0|0:0,0:0:0:0:
100,140,37854,1,0,0:0:0:0:
44,160,38066,6,0,P|12:236|120:344,2,240,4|8|0,0:0|0:0|0:0,0:0:0:0:
104,56,40178,1,0,0:0:0:0:
168,156,40601,2,0,P|208:204|284:220,1,120,8|0,0:0|0:0,0:0:0:0:
380,248,41446,6,0,P|376:196|324:136,1,120,4|2,0:0|0:0,0:0:0:0:
292,104,42080,1,0,0:0:0:0:
260,52,42291,2,0,P|212:80|136:84,2,120,0|2|0,0:0|0:0|0:0,0:0:0:0:
380,52,43559,1,2,0:0:0:0:
448,152,43981,2,0,P|456:216|448:296,1,120,0|2,0:0|0:0,0:0:0:0:
396,288,44615,1,0,0:0:0:0:
344,320,44826,6,0,P|272:284|116:308,2,240,6|0|4,0:0|0:0|0:0,0:0:0:0:
436,240,46939,1,2,0:0:0:0:
476,128,47361,2,0,P|476:84|456:56,1,60
412,56,47784,2,0,P|372:76|332:80,1,60,2|0,0:0|0:0,0:0:0:0:
316,120,48206,6,0,P|256:92|100:144,1,240,6|0,0:0|0:0,0:0:0:0:
52,256,49474,1,2,0:0:0:0:
136,344,49897,2,0,P|176:320|200:240,1,120,0|2,0:0|0:0,0:0:0:0:
216,192,50530,1,0,0:0:0:0:
248,144,50742,2,0,P|272:88|336:40,1,120,0|2,0:0|0:0,0:0:0:0:
376,44,51375,1,0,0:0:0:0:
436,40,51587,6,0,P|432:128|528:240,1,240,6|0,0:0|0:0,0:0:0:0:
444,328,52854,1,2,0:0:0:0:
328,356,53277,2,0,P|288:300|324:188,1,180,4|0,0:0|0:0,0:0:0:0:
296,140,54122,2,0,P|284:96|224:24,1,120,0|2,0:0|0:0,0:0:0:0:
124,60,54967,1,6,0:0:0:0:
56,328,56235,5,2,0:0:0:0:
156,260,56657,2,0,P|232:256|284:220,1,120,4|2,0:0|0:0,0:0:0:0:
300,184,57291,1,0,0:0:0:0:
332,132,57502,2,0,P|360:80|432:44,1,120,0|2,0:0|0:0,0:0:0:0:
476,148,58347,2,0,L|424:280,1,120,0|2,0:0|0:0,0:0:0:0:
312,244,59192,2,0,L|260:376,1,120,0|2,0:0|0:0,0:0:0:0:
156,316,60037,6,0,P|164:208|60:136,1,240,6|0,0:0|0:0,0:0:0:0:
52,256,61305,1,2,0:0:0:0:
152,188,61728,2,0,P|212:168|244:100,1,120,4|2,0:0|0:0,0:0:0:0:
344,60,62573,1,0,0:0:0:0:
388,172,62995,2,0,P|372:220|368:256,1,60,2|0,0:0|0:0,0:0:0:0:
336,276,63418,6,0,P|296:304|204:304,1,120,6|2,0:0|0:0,0:0:0:0:
168,304,64052,1,0,0:0:0:0:
108,292,64263,2,0,P|64:248|0:236,1,120,0|2,0:0|0:0,0:0:0:0:
48,120,65108,2,0,P|148:152|244:60,1,240
360,60,66375,1,2,0:0:0:0:
352,180,66798,6,0,P|396:220|464:224,2,120,6|2|0,0:0|0:0|0:0,0:0:0:0:
240,136,68066,2,0,P|184:80|32:128,1,240,2|2,0:0|0:0,0:0:0:0:
20,232,69333,2,0,P|96:240|144:216,1,120,0|2,0:0|0:0,0:0:0:0:
192,236,69967,1,0,0:0:0:0:
244,264,70178,6,0,P|304:264|356:312,1,120,6|2,0:0|0:0,0:0:0:0:
416,200,71023,1,0,0:0:0:0:
416,200,71446,1,2,0:0:0:0:
256,192,71868,12,4,73559,0:0:0:0:
256,80,74404,5,2,0:0:0:0:
308,316,75249,2,0,P|416:300|436:172,1,240,0|2,0:0|0:0,0:0:0:0:
328,152,76516,2,0,P|288:156|256:168,1,60,2|0,0:0|0:0,0:0:0:0:
212,176,76939,1,6,0:0:0:0:
40,344,77784,1,2,0:0:0:0:
280,356,78629,2,0,P|224:260|96:248,1,240,0|2,0:0|0:0,0:0:0:0:
104,124,79897,2,0,P|144:92|156:64,1,60,2|0,0:0|0:0,0:0:0:0:
184,36,80319,6,0,P|220:80|296:92,1,120,6|0,0:0|0:0,0:0:0:0:
344,196,81164,2,0,P|400:224|464:212,1,120,0|2,0:0|0:0,0:0:0:0:
456,96,82009,1,0,0:0:0:0:
336,104,82432,1,0,0:0:0:0:
232,164,82854,1,0,0:0:0:0:
164,264,83277,2,0,P|160:304|176:336,1,60,2|0,0:0|0:0,0:0:0:0:
176,380,83699,6,0,P|144:360|48:368,2,120,6|0|0,0:0|0:0|0:0,0:0:0:0:
292,344,84967,1,2,0:0:0:0:
368,252,85390,2,0,P|348:144|220:88,1,240
132,140,86657,1,2,0:0:0:0:
256,192,87080,12,0,90406,0:0:0:0:
256,192,90928,12,0,96231,0:0:0:0:
