osu file format v5

[General]
AudioFilename: 03 - kettlemate.mp3
AudioLeadIn: 0
PreviewTime: -1
Countdown: 1
SampleSet: Soft
StackLeniency: 0.7
Mode: 0
LetterboxInBreaks: 1
EditorBookmarks: 1739,14539,27339,33739,40139,46539,54539,60939,67339,73739,80139,86539,92939,99339,105739,112239,118539,259989
EditorDistanceSpacing: 0.400000005960464

[Metadata]
Title:kettlemate
Artist:C.H.S
Creator:rintaun
Version:Pianotronica
Source:
Tags:t+pazolite

[Difficulty]
HPDrainRate:5
CircleSize:5
OverallDifficulty:5
SliderMultiplier:1.5
SliderTickRate:0.5

[Events]
//Background and Video events
//Break Periods
2,52739,53339
2,86339,91739
2,128139,128539
//Storyboard Layer 0 (Background)
//Storyboard Layer 1 (Failing)
//Storyboard Layer 2 (Passing)
//Storyboard Layer 3 (Foreground)
//Storyboard Sound Samples
//Background Colour Transformations
3,100,163,162,255

[TimingPoints]
14539,200,4,2,0,100,1,0

[HitObjects]
96,64,14539,1,0
224,64,14939,1,0
288,64,15139,2,0,L|288:160,4,75,0|0|0|0|0
352,96,15739,1,0
352,160,15939,1,0
352,224,16139,2,0,L|256:224,4,75,0|0|0|0|0
320,288,16739,1,0
256,288,16939,1,0
192,288,17139,1,0
128,288,17339,1,0
96,224,17539,1,0
128,160,17739,5,0
96,96,17939,1,0
160,64,18139,1,0
224,96,18339,2,0,L|224:192,4,75
288,96,18939,1,0
352,96,19139,1,0
416,128,19339,2,0,L|352:192,4,75
448,192,19939,1,0
448,256,20139,1,0
448,320,20339,1,0
384,320,20539,1,0
320,320,20739,1,0
192,320,20939,5,0
192,192,21339,1,0
192,128,21539,2,0,L|288:128,4,75
160,64,22139,1,0
96,96,22339,1,0
96,160,22539,2,0,L|0:128,4,75
128,224,23139,1,0
192,224,23339,1,0
256,192,23539,1,0
320,160,23739,1,0
320,96,23939,1,0
384,96,24139,5,0
384,160,24339,1,0
384,224,24539,1,0
352,288,24739,2,0,L|448:288,4,75
288,288,25339,1,0
224,256,25539,1,0
192,192,25739,2,0,L|288:192,4,75
160,128,26339,1,0
96,160,26539,1,0
96,224,26739,1,0
32,256,26939,1,0
0,192,27139,1,0
64,160,27339,5,0
96,224,27539,1,0
96,224,27639,1,0
160,224,27839,1,0
224,224,28039,1,0
288,224,28239,1,0
288,224,28339,1,0
288,224,28439,1,0
320,160,28639,1,0
320,96,28839,1,0
256,128,29039,5,0
256,128,29139,1,0
256,128,29239,1,0
192,128,29439,1,0
192,128,29539,1,0
192,128,29639,1,0
128,96,29839,1,0
128,64,29939,1,0
160,32,30039,1,0
192,32,30139,1,0
224,32,30239,1,0
256,32,30339,1,0
288,32,30439,1,0
352,64,30639,5,0
352,64,30739,1,0
352,64,30839,1,0
352,128,31039,1,0
384,192,31239,1,0
352,256,31439,1,0
352,256,31539,1,0
352,256,31639,1,0
288,256,31839,1,0
224,288,32039,1,0
160,256,32239,5,0
160,256,32339,1,0
160,256,32439,1,0
128,192,32639,1,0
128,192,32739,1,0
128,192,32839,1,0
128,192,32939,1,0
128,192,33039,1,0
128,192,33139,1,0
128,192,33239,1,0
128,192,33339,1,0
64,160,33739,5,0
96,224,33939,1,0
96,224,34039,1,0
160,224,34239,1,0
224,224,34439,1,0
288,224,34639,1,0
288,224,34739,1,0
288,224,34839,1,0
320,160,35039,1,0
320,96,35239,1,0
256,128,35439,5,0
256,128,35539,1,0
256,128,35639,1,0
192,128,35839,1,0
192,128,35939,1,0
192,128,36039,1,0
128,96,36239,1,0
128,64,36339,1,0
160,32,36439,1,0
192,32,36539,1,0
224,32,36639,1,0
256,32,36739,1,0
288,32,36839,1,0
352,64,37039,5,0
352,64,37139,1,0
352,64,37239,1,0
352,128,37439,1,0
384,192,37639,1,0
352,256,37839,1,0
352,256,37939,1,0
352,256,38039,1,0
288,256,38239,1,0
224,288,38439,1,0
160,256,38639,5,0
160,256,38739,1,0
160,256,38839,1,0
128,192,39039,1,0
128,192,39139,1,0
128,192,39239,1,0
128,192,39339,1,0
128,192,39439,1,0
128,192,39539,1,0
128,192,39639,1,0
128,192,39739,1,0
64,160,40139,5,0
96,224,40339,1,0
96,224,40439,1,0
160,224,40639,1,0
224,224,40839,1,0
288,224,41039,1,0
288,224,41139,1,0
288,224,41239,1,0
320,160,41439,1,0
320,96,41639,1,0
256,128,41839,5,0
256,128,41939,1,0
256,128,42039,1,0
192,128,42239,1,0
192,128,42339,1,0
192,128,42439,1,0
128,96,42639,1,0
128,64,42739,1,0
160,32,42839,1,0
192,32,42939,1,0
224,32,43039,1,0
256,32,43139,1,0
288,32,43239,1,0
352,64,43439,5,0
352,64,43539,1,0
352,64,43639,1,0
352,128,43839,1,0
384,192,44039,1,0
352,256,44239,1,0
352,256,44339,1,0
352,256,44439,1,0
288,256,44639,1,0
224,288,44839,1,0
160,256,45039,5,0
160,256,45139,1,0
160,256,45239,1,0
128,192,45439,1,0
128,192,45539,1,0
128,192,45639,1,0
128,192,45739,1,0
128,192,45839,1,0
128,192,45939,1,0
128,192,46039,1,0
128,192,46139,1,0
64,160,46539,5,0
96,224,46739,1,0
96,224,46839,1,0
160,224,47039,1,0
224,224,47239,1,0
288,224,47439,1,0
288,224,47539,1,0
288,224,47639,1,0
320,160,47839,1,0
320,96,48039,1,0
256,128,48239,5,0
256,128,48339,1,0
256,128,48439,1,0
192,128,48639,1,0
192,128,48739,1,0
192,128,48839,1,0
128,96,49039,1,0
128,64,49139,1,0
160,32,49239,1,0
192,32,49339,1,0
224,32,49439,1,0
256,32,49539,1,0
288,32,49639,1,0
352,64,49839,5,0
352,64,49939,1,0
352,64,50039,1,0
352,128,50239,1,0
384,192,50439,1,0
352,256,50639,1,0
352,256,50739,1,0
352,256,50839,1,0
288,256,51039,1,0
224,288,51239,1,0
160,256,51439,5,0
160,256,51539,1,0
160,256,51639,1,0
128,192,51839,1,0
128,192,51939,1,0
128,192,52039,1,0
128,192,52139,1,0
128,192,52239,1,0
128,192,52339,1,0
128,192,52439,1,0
128,192,52539,1,0
64,160,54539,5,0
96,224,54739,1,0
96,224,54839,1,0
160,224,55039,1,0
224,224,55239,1,0
288,224,55439,1,0
288,224,55539,1,0
288,224,55639,1,0
320,160,55839,1,0
320,96,56039,1,0
256,128,56239,5,0
256,128,56339,1,0
256,128,56439,1,0
192,128,56639,1,0
192,128,56739,1,0
192,128,56839,1,0
128,96,57039,1,0
128,64,57139,1,0
160,32,57239,1,0
192,32,57339,1,0
224,32,57439,1,0
256,32,57539,1,0
288,32,57639,1,0
352,64,57839,5,0
352,64,57939,1,0
352,64,58039,1,0
352,128,58239,1,0
384,192,58439,1,0
352,256,58639,1,0
352,256,58739,1,0
352,256,58839,1,0
288,256,59039,1,0
224,288,59239,1,0
160,256,59439,5,0
160,256,59539,1,0
160,256,59639,1,0
128,192,59839,1,0
128,192,59939,1,0
128,192,60039,1,0
128,192,60139,1,0
128,192,60239,1,0
128,192,60339,1,0
128,192,60439,1,0
128,192,60539,1,0
64,160,60939,5,0
96,224,61139,1,0
96,224,61239,1,0
160,224,61439,1,0
224,224,61639,1,0
288,224,61839,1,0
288,224,61939,1,0
288,224,62039,1,0
320,160,62239,1,0
320,96,62439,1,0
256,128,62639,5,0
256,128,62739,1,0
256,128,62839,1,0
192,128,63039,1,0
192,128,63139,1,0
192,128,63239,1,0
128,96,63439,1,0
128,64,63539,1,0
160,32,63639,1,0
192,32,63739,1,0
224,32,63839,1,0
256,32,63939,1,0
288,32,64039,1,0
352,64,64239,5,0
352,64,64339,1,0
352,64,64439,1,0
352,128,64639,1,0
384,192,64839,1,0
352,256,65039,1,0
352,256,65139,1,0
352,256,65239,1,0
288,256,65439,1,0
224,288,65639,1,0
160,256,65839,5,0
160,256,65939,1,0
160,256,66039,1,0
128,192,66239,1,0
128,192,66339,1,0
128,192,66439,1,0
128,192,66539,1,0
128,192,66639,1,0
128,192,66739,1,0
128,192,66839,1,0
128,192,66939,1,0
64,160,67339,5,0
96,224,67539,1,0
96,224,67639,1,0
160,224,67839,1,0
224,224,68039,1,0
288,224,68239,1,0
288,224,68339,1,0
288,224,68439,1,0
320,160,68639,1,0
320,96,68839,1,0
256,128,69039,5,0
256,128,69139,1,0
256,128,69239,1,0
192,128,69439,1,0
192,128,69539,1,0
192,128,69639,1,0
128,96,69839,1,0
128,64,69939,1,0
160,32,70039,1,0
192,32,70139,1,0
224,32,70239,1,0
256,32,70339,1,0
288,32,70439,1,0
352,64,70639,5,0
352,64,70739,1,0
352,64,70839,1,0
352,128,71039,1,0
384,192,71239,1,0
352,256,71439,1,0
352,256,71539,1,0
352,256,71639,1,0
288,256,71839,1,0
224,288,72039,1,0
160,256,72239,5,0
160,256,72339,1,0
160,256,72439,1,0
128,192,72639,1,0
128,192,72739,1,0
128,192,72839,1,0
128,192,72939,1,0
128,192,73039,1,0
128,192,73139,1,0
128,192,73239,1,0
128,192,73339,1,0
64,160,73739,5,0
96,224,73939,1,0
96,224,74039,1,0
160,224,74239,1,0
224,224,74439,1,0
288,224,74639,1,0
288,224,74739,1,0
288,224,74839,1,0
320,160,75039,1,0
320,96,75239,1,0
256,128,75439,5,0
256,128,75539,1,0
256,128,75639,1,0
192,128,75839,1,0
192,128,75939,1,0
192,128,76039,1,0
128,96,76239,1,0
128,64,76339,1,0
160,32,76439,1,0
192,32,76539,1,0
224,32,76639,1,0
256,32,76739,1,0
288,32,76839,1,0
352,64,77039,5,0
352,64,77139,1,0
352,64,77239,1,0
352,128,77439,1,0
384,192,77639,1,0
352,256,77839,1,0
352,256,77939,1,0
352,256,78039,1,0
288,256,78239,1,0
224,288,78439,1,0
160,256,78639,5,0
160,256,78739,1,0
160,256,78839,1,0
128,192,79039,1,0
128,192,79139,1,0
128,192,79239,1,0
128,192,79339,1,0
128,192,79439,1,0
128,192,79539,1,0
128,192,79639,1,0
128,192,79739,1,0
64,160,80139,5,0
96,224,80339,1,0
96,224,80439,1,0
160,224,80639,1,0
224,224,80839,1,0
288,224,81039,1,0
288,224,81139,1,0
288,224,81239,1,0
320,160,81439,1,0
320,96,81639,1,0
256,128,81839,5,0
256,128,81939,1,0
256,128,82039,1,0
192,128,82239,1,0
192,128,82339,1,0
192,128,82439,1,0
128,96,82639,1,0
128,64,82739,1,0
160,32,82839,1,0
192,32,82939,1,0
224,32,83039,1,0
256,32,83139,1,0
288,32,83239,1,0
352,64,83439,5,0
352,64,83539,1,0
352,64,83639,1,0
352,128,83839,1,0
384,192,84039,1,0
352,256,84239,1,0
352,256,84339,1,0
352,256,84439,1,0
288,256,84639,1,0
224,288,84839,1,0
160,256,85039,5,0
160,256,85139,1,0
160,256,85239,1,0
128,192,85439,1,0
128,192,85539,1,0
128,192,85639,1,0
128,192,85739,1,0
128,192,85839,1,0
128,192,85939,1,0
128,192,86039,1,0
128,192,86139,1,0
64,160,92939,5,0
96,224,93139,1,0
96,224,93239,1,0
160,224,93439,1,0
224,224,93639,1,0
288,224,93839,1,0
288,224,93939,1,0
288,224,94039,1,0
320,160,94239,1,0
320,96,94439,1,0
256,128,94639,5,0
256,128,94739,1,0
256,128,94839,1,0
192,128,95039,1,0
192,128,95139,1,0
192,128,95239,1,0
128,96,95439,1,0
128,64,95539,1,0
160,32,95639,1,0
192,32,95739,1,0
224,32,95839,1,0
256,32,95939,1,0
288,32,96039,1,0
352,64,96239,5,0
352,64,96339,1,0
352,64,96439,1,0
352,128,96639,1,0
384,192,96839,1,0
352,256,97039,1,0
352,256,97139,1,0
352,256,97239,1,0
288,256,97439,1,0
224,288,97639,1,0
160,256,97839,5,0
160,256,97939,1,0
160,256,98039,1,0
128,192,98239,1,0
128,192,98339,1,0
128,192,98439,1,0
128,192,98539,1,0
128,192,98639,1,0
128,192,98739,1,0
128,192,98839,1,0
128,192,98939,1,0
64,160,99339,5,0
96,224,99539,1,0
96,224,99639,1,0
160,224,99839,1,0
224,224,100039,1,0
288,224,100239,1,0
288,224,100339,1,0
288,224,100439,1,0
320,160,100639,1,0
320,96,100839,1,0
256,128,101039,5,0
256,128,101139,1,0
256,128,101239,1,0
192,128,101439,1,0
192,128,101539,1,0
192,128,101639,1,0
128,96,101839,1,0
128,64,101939,1,0
160,32,102039,1,0
192,32,102139,1,0
224,32,102239,1,0
256,32,102339,1,0
288,32,102439,1,0
352,64,102639,5,0
352,64,102739,1,0
352,64,102839,1,0
352,128,103039,1,0
384,192,103239,1,0
352,256,103439,1,0
352,256,103539,1,0
352,256,103639,1,0
288,256,103839,1,0
224,288,104039,1,0
160,256,104239,5,0
160,256,104339,1,0
160,256,104439,1,0
128,192,104639,1,0
128,192,104739,1,0
128,192,104839,1,0
128,192,104939,1,0
128,192,105039,1,0
128,192,105139,1,0
128,192,105239,1,0
128,192,105339,1,0
128,64,105739,5,0
224,64,106139,1,0
288,64,106339,2,0,L|288:160,4,75,0|0|0|0|0
352,96,106939,1,0
352,160,107139,1,0
352,224,107339,2,0,L|256:224,4,75,0|0|0|0|0
320,288,107939,1,0
256,288,108139,1,0
192,288,108339,1,0
128,288,108539,1,0
96,224,108739,1,0
128,160,108939,5,0
96,96,109139,1,0
160,64,109339,1,0
224,96,109539,2,0,L|224:192,4,75
288,96,110139,1,0
352,96,110339,1,0
416,128,110539,2,0,L|352:192,4,75
448,192,111139,1,0
448,256,111339,1,0
448,320,111539,1,0
384,320,111739,1,0
320,320,111939,1,0
192,320,112139,5,0
192,192,112539,1,0
192,128,112739,2,0,L|288:128,4,75
160,64,113339,1,0
96,96,113539,1,0
96,160,113739,2,0,L|0:128,4,75
128,224,114339,1,0
192,224,114539,1,0
256,192,114739,1,0
320,160,114939,1,0
320,96,115139,1,0
384,96,115339,5,0
384,160,115539,1,0
384,224,115739,1,0
352,288,115939,2,0,L|448:288,4,75
288,288,116539,1,0
224,256,116739,1,0
192,192,116939,2,0,L|288:192,4,75
160,128,117539,1,0
96,160,117739,1,0
96,224,117939,1,0
32,256,118139,1,0
0,192,118339,1,0
96,64,118539,5,0
224,64,118939,1,0
288,64,119139,2,0,L|288:160,4,75,0|0|0|0|0
352,96,119739,1,0
352,160,119939,1,0
352,224,120139,2,0,L|256:224,4,75,0|0|0|0|0
320,288,120739,1,0
256,288,120939,1,0
192,288,121139,1,0
128,288,121339,1,0
96,224,121539,1,0
128,160,121739,5,0
96,96,121939,1,0
160,64,122139,1,0
224,96,122339,2,0,L|224:192,4,75
288,96,122939,1,0
352,96,123139,1,0
416,128,123339,2,0,L|352:192,4,75
448,192,123939,1,0
448,256,124139,1,0
448,320,124339,1,0
384,320,124539,1,0
320,320,124739,1,0
192,320,124939,5,0
192,192,125339,1,0
192,128,125539,2,0,L|288:128,4,75
160,64,126139,1,0
96,96,126339,1,0
96,160,126539,2,0,L|0:128,4,75
128,224,127139,1,0
192,224,127339,1,0
256,192,127539,1,0
320,160,127739,1,0
320,96,127939,1,0
256,192,129739,12,0,131339
