osu file format v11

[General]
AudioFilename: Kichiku Megane R.mp3
AudioLeadIn: 0
PreviewTime: 66824
Countdown: 0
SampleSet: Normal
StackLeniency: 0.7
Mode: 0
LetterboxInBreaks: 0

[Editor]
Bookmarks: 3294,6824,10353,13883,17412,20942,23699,24471,28000,31530,35059,38589,42118,45647,49177,52706,55353,59765,63294,66714,68589,70464,72228,73883,75647,77412,79177,81052,82706,86236,88000,90096,91419,93294,95059,96824,100684,102559,103883,105647,107412
DistanceSpacing: 1
BeatDivisor: 4
GridSize: 4

[Metadata]
Title:under the darkness -Remix- (Short Ver.)
TitleUnicode:under the darkness -Remix- (Short Ver.)
Artist:C.G mix
ArtistUnicode:C.G mix
Creator:linya
Version:Normal
Source:Kichiku Megane R
Tags:BL yaoi spray sun rainbow
BeatmapID:202165
BeatmapSetID:58009

[Difficulty]
HPDrainRate:3
CircleSize:2
OverallDifficulty:3
ApproachRate:3
SliderMultiplier:1.2
SliderTickRate:1

[Events]
//Background and Video events
0,0,"M R.jpg"
//Break Periods
//Storyboard Layer 0 (Background)
//Storyboard Layer 1 (Fail)
//Storyboard Layer 2 (Pass)
//Storyboard Layer 3 (Foreground)
//Storyboard Sound Samples
//Background Colour Transformations
3,100,163,162,255

[TimingPoints]
3295,441.176470588235,4,1,0,60,1,0
3670,-100,4,2,0,60,0,0
4177,-100,4,1,0,60,0,0
4353,-100,4,2,0,60,0,0
5059,-100,4,1,0,60,0,0
5369,-100,4,2,0,60,0,0
5942,-100,4,1,0,60,0,0
6109,-100,4,2,0,60,0,0
6824,-100,4,1,0,60,0,0
7176,-100,4,2,0,60,0,0
10353,-100,4,1,0,60,0,0
10744,-100,4,2,0,60,0,0
13662,-100,4,1,0,60,0,0
14324,-100,4,2,0,60,0,0
15647,-100,4,1,0,60,0,0
15870,-100,4,2,0,60,0,0
17412,-100,4,1,0,60,0,0
25069,-100,4,2,0,60,0,0
25552,-100,4,1,0,60,0,0
26902,-100,4,2,0,60,0,0
27260,-100,4,1,0,60,0,0
32150,-100,4,2,0,60,0,0
32633,-100,4,1,0,60,0,0
34067,-100,4,2,0,60,0,0
34180,-100,4,1,0,60,0,0
35831,-100,4,2,0,60,0,0
36108,-100,4,1,0,60,0,0
55423,-100,4,2,0,60,0,0
55794,-100,4,1,0,60,0,0
57176,-100,4,2,0,60,0,0
57559,-100,4,1,0,60,0,0
58987,-100,4,2,0,60,0,0
59324,-100,4,1,0,60,0,0
66824,-100,4,1,0,60,0,1
79177,-100,4,1,0,60,0,0
80942,-100,4,1,0,60,0,1
95202,-100,4,2,0,60,0,1
95500,-100,4,1,0,60,0,1
95629,-100,4,2,0,60,0,1
95942,-100,4,1,0,60,0,1
96089,-100,4,2,0,60,0,1
96383,-100,4,1,0,60,0,1
96518,-100,4,2,0,60,0,1
96824,-100,4,1,0,60,0,0

[Colours]
Combo1 : 83,98,232
Combo2 : 255,45,45

[HitObjects]
136,108,3294,2,0,P|244:184,1,120,0|10,0:0|0:0,0:0:0
172,280,4177,2,0,P|228:304,2,60,0|0|10,0:0|0:0|0:0,0:0:0
284,324,5059,6,0,P|296:200,1,120,0|10,0:0|0:0,0:0:0
288,84,5942,2,0,P|228:108,2,60,0|0|10,0:0|0:0|0:0,0:0:0
176,132,6824,6,0,P|156:252,1,120,4|0,0:0|0:0,0:0:0
232,340,7706,2,0,P|256:280,1,60,8|0,0:0|0:0,0:0:0
432,264,8589,6,0,P|448:224|424:192,2,60,2|0|0,0:0|0:0|0:0,0:0:0
380,296,9250,2,0,P|365:300|325:284,2,60,2|8|2,0:0|0:0|0:0,0:0:0
252,172,10353,6,0,P|308:136|340:92,4,120,0|2|2|2|2,0:0|0:0|0:0|0:0|0:0,0:0:0
296,64,13662,6,0,P|268:116,1,60,0|4,0:0|0:0,0:0:0
152,148,14324,6,0,P|212:148,1,60,2|0,0:0|0:0,0:0:0
264,180,14765,2,0,P|292:236,1,60,2|0,0:0|0:0,0:0:0
132,316,15647,6,0,P|80:340|24:300,2,120,0|2|2,0:0|0:0|0:0,0:0:0
132,316,16750,1,2,0:0:0
296,240,17412,6,0,P|184:220|196:136|128:80,2,240,4|4|4,0:0|0:0|0:0,0:0:0
412,212,19618,2,0,P|432:144|404:108,1,120,0|4,0:0|0:0,0:0:0
164,96,20942,6,0,P|108:124|96:176,1,120,4|4,0:0|0:0,0:0:0
176,264,21824,2,0,P|216:220,3,60,4|0|0|0,0:0|0:0|0:0|0:0,0:0:0
264,176,22706,5,0,0:0:0
360,116,24471,5,0,0:0:0
248,72,24912,2,0,P|188:72|160:92,2,90,0|0|0,0:0|0:0|0:0,0:0:0
248,132,25794,1,0,0:0:0
168,220,26236,5,0,0:0:0
264,292,26677,2,0,P|324:292|352:272,2,90
264,232,27559,1,0,0:0:0
192,136,28000,5,0,0:0:0
84,192,28442,2,0,P|68:232|96:280,1,90
164,316,29103,2,0,P|192:264,1,60
284,340,29765,6,0,P|336:340|368:316,2,90
244,296,30647,2,0,P|272:168|192:104,1,240
140,100,31750,5,0,0:0:0
96,144,31971,2,0,P|88:184|108:228,1,90
168,296,32633,2,0,P|128:340,1,60
248,344,33294,6,0,P|312:332|328:284,1,120
336,196,34067,2,0,P|328:148|292:128,1,90
296,128,34618,1,0,0:0:0
176,116,35059,6,0,P|140:74|80:82,1,120
100,168,35831,2,0,P|128:208|176:212,1,90
168,220,36383,1,0,0:0:0
284,184,36824,6,0,P|344:156|344:156|348:96,1,120
228,116,37706,2,0,P|231:62|231:62|291:34,1,120
408,64,38589,6,0,P|460:92,3,60,4|0|0|0,0:0|0:0|0:0|0:0,0:0:0
464,152,39471,2,0,P|452:216|404:240,1,120
288,264,40353,6,0,P|224:280,3,60
168,276,41236,2,0,P|112:248|92:192,1,120
160,100,42118,6,0,P|184:111|196:143,1,60
244,180,42559,2,0,P|252:208|292:224,1,60
336,236,43000,2,0,P|404:232|436:192,1,120
440,76,43883,6,0,P|408:68|384:88,1,60
336,116,44324,2,0,P|308:124|275:113,1,60
224,92,44765,2,0,P|176:68|112:88,1,120
60,192,45647,6,0,P|80:248,3,60
108,300,46530,2,0,P|240:332,1,120
332,276,47412,6,0,P|360:216,3,60
380,164,48294,2,0,P|336:48,1,120
244,128,49177,6,0,P|233:106|233:106|197:110,1,60
140,120,49618,2,0,P|104:124|104:124|96:160,1,60
92,208,50059,1,0,0:0:0
188,280,50500,1,0,0:0:0
308,292,50942,6,0,P|369:270|411:223,2,120
248,300,52044,2,0,P|216:308|188:296,2,60
240,240,52706,6,0,P|204:232|187:217,1,60,12|0,0:0|0:0,0:0:0
132,196,53147,2,0,P|124:156|127:138,1,60
76,104,53589,2,0,P|104:52|176:44,1,120,0|0,0:0|0:0,0:0:0
276,64,54471,6,0,P|290:122,3,60,8|0|0|0,0:0|0:0|0:0|0:0,0:0:0
296,180,55353,2,0,P|292:244,1,60,0|0,0:0|0:0,0:0:0
240,272,55794,1,0,0:0:0
120,260,56236,6,0,P|104:188,3,60,8|0|0|0,0:0|0:0|0:0|0:0,0:0:0
156,168,57118,2,0,P|132:112,1,60,0|0,0:0|0:0,0:0:0
176,72,57559,1,0,0:0:0
296,92,58000,6,0,P|364:108,3,60,8|0|0|0,0:0|0:0|0:0|0:0,0:0:0
404,140,58883,2,0,P|420:208,1,60
388,252,59324,1,0,0:0:0
268,252,59765,6,0,P|219:270|163:238,2,120,0|0|0,0:0|0:0|0:0,0:0:0
320,220,60868,2,0,P|336:196|332:160,1,60
284,56,61530,6,0,P|228:24|172:48,2,120
312,108,62633,2,0,P|320:136|304:164,1,60
288,280,63294,6,0,P|216:317|159:138|82:173,2,240
348,108,66824,6,0,P|292:80|228:84,1,120,4|2,0:0|0:0,0:0:0
152,164,67706,1,0,0:0:0
152,164,67927,1,0,0:0:0
240,320,68589,6,2,P|264:272|236:216,1,120,0|2,0:0|0:0,0:0:0
272,100,69471,2,0,P|264:60|280:36,1,60,2|0,0:0|0:0,0:0:0
436,120,70353,6,0,P|396:168|388:224,1,120,0|2,0:0|0:0,0:0:0
276,264,71236,2,0,P|332:268|384:232,1,120,0|2,0:0|0:0,0:0:0
256,192,72118,12,2,73883,0:0:0
368,152,74324,1,0,0:0:0
312,48,74765,2,0,P|260:92,1,60,2|0,0:0|0:0,0:0:0
96,152,75647,6,0,P|64:208|68:268,2,120,2|2|2,0:0|0:0|0:0,0:0:0
96,152,76750,1,0,0:0:0
240,264,77412,6,0,P|296:268|336:220,2,120,2|0|2,0:0|0:0|0:0,0:0:0
240,264,78515,1,2,0:0:0
152,180,78956,1,0,0:0:0
172,124,79177,6,0,P|208:88|276:88,1,120,2|0,0:0|0:0,0:0:0
384,136,80059,2,0,P|440:116,2,60,2|0|2,0:0|0:0|0:0,0:0:0
316,232,80942,6,0,P|284:284|228:300,2,120,6|2|2,0:0|0:0|0:0,0:0:0
316,232,82044,1,0,0:0:0
204,92,82706,6,0,P|144:112|136:176,1,120,2|2,0:0|0:0,0:0:0
208,256,83589,2,0,P|200:288|176:304,1,60,2|0,0:0|0:0,0:0:0
352,260,84471,6,2,P|384:184|384:184|420:177,1,120,0|2,0:0|0:0,0:0:0
324,104,85353,2,2,P|292:180|292:180|255:186,1,120,0|2,0:0|0:0,0:0:0
256,192,86236,12,6,88000,0:0:0
312,268,88442,1,0,0:0:0
192,272,88883,2,0,P|140:236,1,60,2|0,0:0|0:0,0:0:0
232,80,89765,6,0,P|296:80|296:80|324:128,1,120,2|0,0:0|0:0,0:0:0
416,204,90647,2,0,P|384:260,1,60,2|0,0:0|0:0,0:0:0
224,332,91530,6,2,P|124:320|80:200,1,240,6|0,0:0|0:0,0:0:0
136,96,92853,1,0,0:0:0
264,52,93294,2,2,P|364:64|408:184,1,240
364,296,94618,1,0,0:0:0
252,340,95059,6,2,P|232:316|224:288,1,60,6|0,0:0|0:0,0:0:0
168,312,95500,2,2,P|154:283|154:254,1,60,6|0,0:0|0:0,0:0:0
96,260,95942,2,2,P|90:229|97:200,1,60,6|0,0:0|0:0,0:0:0
36,196,96383,2,2,P|38:164|52:139,1,60,6|0,0:0|0:0,0:0:0
88,92,96824,6,0,P|188:52|316:108,3,240,4|0|0|0,0:0|0:0|0:0|0:0,0:0:0
372,200,99912,1,0,0:0:0
268,260,100353,6,0,P|353:324|465:276,2,240
196,164,102559,1,0,0:0:0
220,48,103000,2,0,P|160:40|112:72,1,120
72,184,103883,6,0,P|108:300|108:300|112:304|224:336,3,240
328,120,107412,6,0,P|328:180,1,60
224,120,108074,2,0,P|224:48,2,60
248,300,109177,5,0,0:0:0
256,192,109618,12,4,110942,0:0:0
