osu file format v10

[General]
AudioFilename: Kichiku Megane R.mp3
AudioLeadIn: 0
PreviewTime: 66824
Countdown: 0
SampleSet: Normal
StackLeniency: 0.7
Mode: 0
LetterboxInBreaks: 0

[Editor]
DistanceSpacing: 1
BeatDivisor: 12
GridSize: 4

[Metadata]
Title:under the darkness -Remix- (Short Ver.)
TitleUnicode:
Artist:C.G mix
ArtistUnicode:
Creator:linya
Version:Insane
Source:Kichiku Megane R
Tags:BL yaoi spray sun rainbow
BeatmapID:174613
BeatmapSetID:58009

[Difficulty]
HPDrainRate:8
CircleSize:4
OverallDifficulty:7
ApproachRate:9
SliderMultiplier:2
SliderTickRate:1

[Events]
//Background and Video events
0,0,"M R.jpg"
//Break Periods
//Storyboard Layer 0 (Background)
//Storyboard Layer 1 (Fail)
//Storyboard Layer 2 (Pass)
//Storyboard Layer 3 (Foreground)
//Storyboard Sound Samples
//Background Colour Transformations
3,100,163,162,255

[TimingPoints]
3295,441.176470588235,4,1,0,50,1,0
3625,-100,4,2,0,50,0,0
3846,-100,4,1,0,50,0,0
4177,-100,4,2,0,50,0,0
4287,-100,4,1,0,50,0,0
4728,-100,4,2,0,70,0,0
4949,-100,4,1,0,50,0,0
5942,-100,4,2,0,70,0,0
6383,-100,4,1,0,70,0,0
6493,-100,4,2,0,70,0,0
6824,-100,4,1,0,50,0,0
6934,-100,4,2,0,50,0,0
10133,-100,4,1,0,50,0,0
10464,-100,4,2,0,50,0,0
11236,-100,4,2,0,40,0,0
12118,-100,4,2,0,30,0,0
13000,-100,4,2,0,20,0,0
13772,-100,4,1,0,50,0,0
13993,-100,4,2,0,40,0,0
14324,-100,4,2,0,30,0,0
14765,-100,4,2,0,40,0,0
15206,-100,4,2,0,20,0,0
15647,-100,4,1,0,50,0,0
15758,-100,4,2,0,50,0,0
16089,-100,4,2,0,40,0,0
16530,-100,4,2,0,30,0,0
16971,-100,4,2,0,20,0,0
17412,-100,4,2,0,70,0,0
17522,-100,4,1,0,50,0,0
17853,-100,4,1,0,30,0,0
18294,-100,4,1,0,50,0,0
26125,-100,4,2,0,50,0,0
26346,-100,4,1,0,50,0,0
27008,-100,4,2,0,50,0,0
27228,-100,4,1,0,50,0,0
29986,-100,4,2,0,50,0,0
30096,-100,4,1,0,50,0,0
30647,-100,4,2,0,50,0,0
30758,-100,4,1,0,50,0,0
31089,-100,4,2,0,50,0,0
31199,-100,4,1,0,50,0,0
31309,-100,4,2,0,50,0,0
31419,-100,4,1,0,50,0,0
31530,-100,4,2,0,50,0,0
31640,-100,4,1,0,50,0,0
32192,-100,4,2,0,50,0,0
32302,-100,4,1,0,50,0,0
32853,-100,4,2,0,50,0,0
32964,-100,4,1,0,50,0,0
33294,-100,4,2,0,50,0,0
33405,-100,4,1,0,50,0,0
33625,-100,4,2,0,50,0,0
33846,-100,4,1,0,50,0,0
34067,-100,4,2,0,50,0,0
34508,-100,4,1,0,50,0,0
34839,-100,4,1,0,20,0,0
34949,-100,4,1,0,50,0,0
35280,-100,4,2,0,50,0,0
35500,-100,4,1,0,50,0,0
35721,-100,4,2,0,50,0,0
38589,-100,4,1,0,50,0,0
38809,-100,4,2,0,50,0,0
39030,-100,4,1,0,50,0,0
39250,-100,4,2,0,50,0,0
39471,-100,4,1,0,50,0,0
39912,-100,4,2,0,50,0,0
40133,-100,4,1,0,50,0,0
40353,-100,4,2,0,50,0,0
40794,-100,4,1,0,50,0,0
41015,-100,4,2,0,50,0,0
41236,-100,4,1,0,50,0,0
41567,-100,4,2,0,50,0,0
42008,-100,4,1,0,50,0,0
42449,-100,4,2,0,50,0,0
42559,-100,4,1,0,50,0,0
42780,-100,4,2,0,50,0,0
43000,-100,4,1,0,50,0,0
43111,-100,4,2,0,50,0,0
43883,-100,4,1,0,50,0,0
44103,-100,4,2,0,50,0,0
44324,-100,4,1,0,50,0,0
44544,-100,4,2,0,50,0,0
44765,-100,4,1,0,50,0,0
44986,-100,4,2,0,50,0,0
45096,-100,4,1,0,50,0,0
45647,-100,4,2,0,50,0,0
46089,-100,4,2,0,70,0,0
46530,-100,4,1,0,50,0,0
46640,-100,4,2,0,50,0,0
47412,-100,4,1,0,50,0,0
47633,-100,4,2,0,50,0,0
47853,-100,4,1,0,50,0,0
48074,-100,4,2,0,50,0,0
48294,-100,4,1,0,50,0,0
48736,-100,4,2,0,50,0,0
49177,-100,4,1,0,50,0,0
49397,-100,4,2,0,50,0,0
49618,-100,4,1,0,50,0,0
50280,-100,4,2,0,50,0,0
50500,-100,4,1,0,50,0,0
51162,-100,4,2,0,50,0,0
51383,-100,4,1,0,50,0,0
52044,-100,4,2,0,50,0,0
52265,-100,4,1,0,50,0,0
52706,-100,4,2,0,50,0,0
53037,-100,4,1,0,50,0,0
53368,-100,4,2,0,50,0,0
54030,-100,4,1,0,50,0,0
54250,-100,4,2,0,50,0,0
54471,-100,4,1,0,50,0,0
54692,-100,4,2,0,50,0,0
54912,-100,4,1,0,50,0,0
55574,-100,4,2,0,50,0,0
56236,-100,4,1,0,50,0,0
56456,-100,4,2,0,50,0,0
56677,-100,4,1,0,50,0,0
58000,-100,4,2,0,50,0,0
58662,-100,4,1,0,50,0,0
59986,-100,4,2,0,50,0,0
60206,-100,4,1,0,50,0,0
61530,-100,4,2,0,50,0,0
61971,-100,4,1,0,50,0,0
62633,-100,4,2,0,50,0,0
62853,-100,4,1,0,50,0,0
63074,-100,4,2,0,50,0,0
63294,-100,4,1,0,50,0,0
65280,-100,4,2,0,10,0,0
66383,-100,4,2,0,5,0,0
66824,-100,4,1,0,100,0,1
66934,-100,4,2,0,100,0,1
67927,-100,4,2,0,100,0,1
68147,-100,4,1,0,100,0,1
68589,-100,4,2,0,100,0,1
68699,-100,4,1,0,100,0,1
69030,-100,4,2,0,100,0,1
69802,-100,4,1,0,50,0,1
70022,-100,4,2,0,50,0,1
70243,-100,4,2,0,50,0,1
73883,-100,4,1,0,50,0,1
74324,-100,4,2,0,50,0,1
74765,-100,4,1,0,50,0,1
74986,-100,4,2,0,50,0,1
75206,-100,4,1,0,50,0,1
75427,-100,4,2,0,50,0,1
75647,-100,4,1,0,50,0,1
75758,-100,4,2,0,50,0,1
75868,-100,4,1,0,50,0,1
76089,-100,4,2,0,50,0,1
76530,-100,4,1,0,50,0,1
76750,-100,4,2,0,50,0,1
79177,-100,4,1,0,50,0,0
80942,-100,4,1,0,50,0,1
81714,-100,4,2,0,50,0,1
81824,-100,4,1,0,50,0,1
87339,-100,4,2,0,50,0,1
87559,-100,4,1,0,50,0,1
89986,-100,4,2,0,50,0,1
90206,-100,4,1,0,50,0,1
91530,-100,4,2,0,50,0,1
91750,-100,4,1,0,50,0,1
96824,-100,4,1,0,50,0,0

[Colours]
Combo1 : 83,98,232
Combo2 : 255,45,45

[HitObjects]
128,88,3294,2,0,B|72:120|88:176,2,100,0|0|2,0:0|0:0|0:0,0:0:0
192,164,3956,1,0,0:0:0
220,208,4067,1,0,0:0:0
248,248,4177,1,2,0:0:0
292,220,4287,1,0,0:0:0
336,196,4397,1,0,0:0:0
380,172,4508,1,0,0:0:0
424,148,4618,2,0,B|496:220,1,100,0|4,0:0|0:0,0:0:0
456,312,5059,6,0,B|436:360,2,50
356,296,5500,1,2,0:0:0
336,196,5721,1,0,0:0:0
304,156,5831,1,0,0:0:0
252,152,5942,5,2,0:0:0
208,172,6052,1,0,0:0:0
192,220,6162,1,0,0:0:0
216,264,6272,1,0,0:0:0
260,284,6383,1,4,0:0:0
360,296,6603,1,0,0:0:0
436,228,6824,6,0,B|464:188,2,50
336,236,7265,1,0,0:0:0
304,140,7486,1,0,0:0:0
268,108,7596,1,0,0:0:0
220,92,7706,2,0,B|196:80|168:84,2,50,2|0|0,0:0|0:0|0:0,0:0:0
184,184,8147,2,0,B|180:292,1,100,2|0,0:0|0:0,0:0:0
148,320,8478,1,0,0:0:0
112,356,8589,5,2,0:0:0
64,340,8699,1,0,0:0:0
32,304,8809,1,0,0:0:0
20,256,8919,1,0,0:0:0
20,204,9030,2,0,B|20:104,1,100,2|0,0:0|0:0,0:0:0
64,80,9361,2,0,B|140:80|140:80|172:96|180:148,1,150,2|0,0:0|0:0,0:0:0
116,216,9912,1,8,0:0:0
208,256,10133,1,8,0:0:0
308,264,10353,6,0,B|340:304|404:304,1,100,0|2,0:0|0:0,0:0:0
456,112,10794,2,0,B|404:152|392:224,1,100,0|2,0:0|0:0,0:0:0
204,152,11236,2,0,B|264:152|320:176,1,100,0|2,0:0|0:0,0:0:0
272,368,11677,2,0,B|236:328|236:264,1,100,0|2,0:0|0:0,0:0:0
256,192,12118,12,0,13442,0:0:0
200,120,13883,5,4,0:0:0
248,120,13993,1,0,0:0:0
296,120,14103,1,0,0:0:0
348,120,14214,1,0,0:0:0
396,120,14324,2,0,B|496:120,1,100,2|0,0:0|0:0,0:0:0
496,172,14655,1,0,0:0:0
496,220,14765,2,0,B|496:304,2,50,2|0|2,0:0|0:0|0:0,0:0:0
396,220,15206,5,2,0:0:0
344,220,15317,1,0,0:0:0
300,248,15427,1,2,0:0:0
284,296,15537,1,2,0:0:0
284,344,15647,2,0,B|232:344,1,50,4|0,0:0|0:0,0:0:0
184,344,15868,1,0,0:0:0
144,316,15978,1,0,0:0:0
144,264,16089,2,0,B|108:224|116:168,1,100,2|0,0:0|0:0,0:0:0
128,124,16419,2,0,B|160:76|220:72,1,100,2|0,0:0|0:0,0:0:0
252,100,16750,2,0,B|292:132|352:128,1,100,2|0,0:0|0:0,0:0:0
324,28,17192,1,4,0:0:0
220,196,17412,6,0,B|240:240|292:264|352:264|400:232,1,200,4|0,0:0|0:0,0:0:0
248,100,18074,1,0,0:0:0
392,236,18294,2,0,B|424:288|400:340|400:340|368:368|312:360,1,200,4|0,0:0|0:0,0:0:0
212,188,18956,1,0,0:0:0
316,360,19177,6,0,B|280:316|220:328,1,100,4|0,0:0|0:0,0:0:0
128,152,19618,2,0,B|156:200|220:188,1,100
304,8,20059,2,0,B|228:40|208:104,1,100,4|0,0:2|0:0,0:0:0
368,212,20500,2,0,B|384:164|328:112,1,100
268,196,20942,5,4,0:2:0
368,212,21162,1,0,0:0:0
356,312,21383,1,4,0:0:0
256,304,21603,1,0,0:0:0
172,248,21824,5,4,0:0:0
160,224,21934,1,0,0:0:0
152,200,22044,1,0,0:0:0
144,176,22155,1,0,0:0:0
140,152,22265,1,4,0:0:0
136,128,22375,1,0,0:0:0
132,104,22486,1,0,0:0:0
128,80,22596,1,0,0:0:0
128,56,22706,6,0,B|168:16,2,50,4|0|0,0:0|0:0|0:0,0:0:0
152,64,23037,1,0,0:0:0
176,72,23147,2,0,B|224:96,2,50
264,20,23589,6,0,B|312:40,3,50,4|0|0|0,0:0|0:0|0:0|0:0,0:0:0
356,56,24030,1,0,0:0:0
404,72,24140,1,0,0:0:0
452,88,24250,1,0,0:0:0
388,164,24471,6,0,B|360:208|376:260,1,100,4|0,0:0|0:0,0:0:0
468,224,24912,1,0,0:0:0
376,260,25133,1,0,0:0:0
340,296,25243,1,0,0:0:0
320,340,25353,2,0,B|280:312|280:248|280:248|280:320|240:344,1,200
184,260,26015,1,0,0:0:0
224,168,26236,5,4,0:0:0
380,48,26456,1,0,0:0:0
452,236,26677,1,0,0:0:0
280,336,26897,1,0,0:0:0
224,144,27118,5,4,0:0:0
404,56,27339,1,0,0:0:0
480,240,27559,1,0,0:0:0
308,344,27780,1,0,0:0:0
228,284,28000,6,0,B|176:272|120:304,1,100,4|0,0:0|0:0,0:0:0
160,340,28331,2,0,B|184:292|152:232,1,100
124,208,28662,2,0,B|160:164|224:164,1,100
296,216,29103,1,0,0:0:0
372,152,29324,1,0,0:0:0
388,252,29544,1,0,0:0:0
388,252,29655,1,0,0:0:0
388,252,29765,6,0,B|428:280|452:328,1,100,4|2,0:0|0:0,0:0:0
404,344,30096,2,0,B|244:344,1,150,2|0,0:0|0:0,0:0:0
172,284,30647,5,0,0:0:0
136,248,30758,1,0,0:0:0
104,208,30868,1,0,0:0:0
84,160,30978,1,0,0:0:0
104,112,31089,1,0,0:0:0
140,76,31199,1,0,0:0:0
184,52,31309,1,0,0:0:0
232,60,31419,1,0,0:0:0
264,100,31530,6,0,B|284:144|264:208,1,100,4|2,0:0|0:0,0:0:0
316,284,31971,2,0,B|356:248|352:188,1,100,0|2,0:0|0:0,0:0:0
392,164,32302,2,0,B|452:164|484:216|484:216|484:268,1,150,2|4,0:0|0:0,0:0:0
404,316,32853,1,4,0:0:0
312,280,33074,2,0,B|208:276,1,100
136,212,33515,2,0,B|24:220,1,100,0|4,0:0|0:0,0:0:0
208,120,33956,1,2,0:0:0
208,120,34067,2,0,B|384:120,1,150,2|0,0:0|0:0,0:0:0
312,208,34618,6,0,B|288:256|312:320,1,100,0|2,0:0|0:0,0:0:0
392,252,35059,2,0,B|420:208|396:152,1,100,0|2,0:0|0:0,0:0:0
352,68,35500,2,0,B|304:84|296:152,1,100,0|2,0:0|0:0,0:0:0
140,20,35942,2,2,B|216:84|224:160,1,150,2|2,0:0|0:0,0:0:0
44,320,36824,6,0,B|136:264,1,100,4|0,0:0|0:0,0:0:0
224,92,37265,2,0,B|128:160,1,100,4|0,0:0|0:0,0:0:0
328,228,37706,2,0,B|428:168,1,100,4|0,0:0|0:0,0:0:0
300,340,38147,2,0,B|188:348,1,100,4|0,0:0|0:0,0:0:0
156,256,38589,6,0,B|112:224|112:172,1,100
212,180,39030,1,0,0:0:0
212,180,39250,1,0,0:0:0
100,348,39471,2,0,B|48:320|24:276|8:208|16:140,1,200
88,112,40133,1,0,0:0:0
124,76,40243,1,0,0:0:0
164,44,40353,6,0,B|216:48|256:84,1,100
428,184,40794,2,0,B|376:176|328:132,1,100
156,228,41236,1,0,0:0:0
156,228,41346,2,0,B|200:192|244:172|304:208,1,150
436,340,42118,6,0,B|400:304|400:248|400:248|356:280,1,150
484,268,42559,2,0,B|480:220|440:172,1,100
356,128,43000,5,0,0:0:0
356,128,43111,1,0,0:0:0
280,196,43331,2,0,B|248:236|176:236|144:200,1,150
128,104,43883,6,0,B|176:104|216:152,1,100
292,276,44324,2,0,B|272:320|204:324,1,100
116,204,44765,2,0,B|176:208|232:244,1,100,0|2,0:0|0:0,0:0:0
211,231,45096,1,4,0:0:0
412,84,45647,6,0,B|456:116|480:160|472:220|416:252,2,200
372,116,46640,1,0,0:0:0
300,184,46861,2,0,B|280:240|304:304|344:324,1,150
236,304,47412,5,0,0:0:0
156,244,47633,1,0,0:0:0
220,168,47853,1,0,0:0:0
300,228,48074,1,0,0:0:0
220,168,48294,1,0,0:0:0
220,168,48405,2,0,B|196:16,1,150
112,72,48956,1,0,0:0:0
116,172,49177,6,0,B|72:216|88:276,1,100
160,328,49618,2,0,B|204:300|200:240,1,100
124,176,50059,2,0,B|80:144|84:76|116:40,2,150
192,104,50942,5,0,0:0:0
340,100,51162,1,0,0:0:0
348,252,51383,1,0,0:0:0
200,264,51603,1,0,0:0:0
268,132,51824,5,0,0:0:0
360,176,52044,1,0,0:0:0
276,264,52265,1,0,0:0:0
184,188,52486,1,0,0:0:0
268,132,52706,6,0,B|304:88|304:36,1,100
303,40,53037,2,0,B|352:72|412:64,1,100
399,65,53368,1,0,0:0:0
360,160,53589,5,0,0:0:0
360,160,53699,2,0,B|380:312,1,150
280,324,54250,1,0,0:0:0
180,332,54471,6,0,B|64:352,1,100
196,252,54912,2,0,B|316:232,1,100
160,172,55353,2,0,B|8:208,1,150
240,96,56236,6,0,B|300:112|328:172|308:232,1,150
312,260,56677,2,0,B|340:316|408:324,1,100
228,188,57118,1,0,0:0:0
396,232,57339,1,0,0:0:0
396,232,57449,1,0,0:0:0
320,168,57669,1,0,0:0:0
320,168,57780,2,0,B|316:120|272:84|208:92,2,150
228,188,58662,1,0,0:0:0
148,248,58883,6,0,B|104:280,1,50
196,324,59214,1,0,0:0:0
196,324,59324,1,0,0:0:0
276,264,59544,1,0,0:0:0
368,224,59765,6,0,B|408:192|424:136|424:136|376:140,1,150
379,139,60206,2,0,B|400:96|368:44,1,100
284,96,60647,1,0,0:0:0
284,96,60758,2,0,B|136:108,1,150
80,192,61309,1,0,0:0:0
144,268,61530,6,0,B|248:260,1,100
284,168,61971,2,0,B|176:180,1,100
144,272,62412,2,0,B|92:256|80:200|80:200|80:152,1,150
80,100,62853,2,0,B|188:100,1,100
276,68,63294,6,0,B|316:36|372:24|432:44,1,150
452,76,63736,2,0,B|484:120|456:184,1,100
292,248,64177,6,0,B|304:192|348:152|392:132,1,150
384,188,64618,2,0,B|384:300,1,100
296,336,65059,6,0,B|196:336|196:336|156:304|144:248|144:200|188:160|188:160|292:160|292:160|356:148|380:96|361:41|288:32,1,600
100,76,66824,6,0,B|104:128|132:184,1,100
184,256,67265,2,0,B|236:232|216:152,1,100
232,120,67596,1,0,0:0:0
268,84,67706,2,0,B|288:72|320:72,2,50
312,172,68147,2,0,B|328:196|320:224,2,50
400,224,68589,5,0,0:0:0
404,272,68699,1,0,0:0:0
380,316,68809,1,0,0:0:0
332,332,68919,1,0,0:0:0
284,320,69030,2,0,B|240:296|180:320,1,100
136,320,69361,2,0,B|88:292|92:228,1,100
116,192,69692,1,0,0:0:0
208,228,69912,1,0,0:0:0
256,140,70133,1,0,0:0:0
356,148,70353,6,0,B|456:148,2,100
296,228,71015,1,0,0:0:0
256,140,71236,2,0,B|224:96|164:108,1,100
192,172,71567,1,0,0:0:0
132,208,71677,2,0,B|164:252|224:240,1,100
264,332,72118,6,0,B|312:352|376:344|416:320|428:256,2,200
192,260,73221,2,0,B|144:248|96:272,2,100
160,356,73883,5,0,0:0:0
148,308,73993,1,0,0:0:0
136,260,74103,1,0,0:0:0
124,212,74214,1,0,0:0:0
116,164,74324,2,0,B|100:60,1,100
148,52,74655,1,0,0:0:0
196,44,74765,2,0,B|224:40|224:40|260:40|288:72,1,100
212,136,75206,6,0,B|236:184|296:172,1,100
384,124,75647,1,0,0:0:0
424,156,75758,1,0,0:0:0
432,204,75868,1,0,0:0:0
408,248,75978,1,0,0:0:0
356,248,76089,2,0,B|304:264|296:324,1,100
252,348,76419,1,0,0:0:0
215,320,76530,2,0,B|208:264|156:248,1,100
116,340,76971,1,0,0:0:0
396,340,77192,1,0,0:0:0
260,160,77412,5,0,0:0:0
260,136,77522,1,0,0:0:0
260,112,77633,1,0,0:0:0
260,88,77743,1,0,0:0:0
260,64,77853,2,0,B|260:12,2,50
348,116,78294,1,0,0:0:0
260,160,78515,2,0,B|228:196|176:216|116:204|76:168,1,200
24,84,79177,6,0,B|72:52|124:84|124:84|160:116|220:80,1,200
68,156,79839,1,0,0:0:0
180,24,80059,1,0,0:0:0
180,24,80169,2,0,B|280:24,1,100
328,40,80500,2,0,B|328:144,1,100
268,220,80942,6,0,B|232:256|176:256,2,100,0|0|0,0:0|2:0|0:0,0:0:0
196,152,81603,1,0,0:0:0
236,184,81714,1,0,0:0:0
268,224,81824,2,0,B|284:276,2,50
340,152,82265,1,0,0:0:0
340,152,82375,1,0,0:0:0
340,152,82486,2,0,B|384:124|456:144,1,100
464,184,82817,1,4,0:0:0
468,232,82927,5,0,0:0:0
444,276,83037,1,0,0:0:0
400,296,83147,1,0,0:0:0
352,280,83258,1,0,0:0:0
320,240,83368,2,0,B|276:208|224:228,1,100
208,276,83699,2,0,B|184:320|120:320,1,100
88,284,84030,2,0,B|60:244|60:184|60:124|104:80,1,200,0|4,0:0|0:0,0:0:0
288,60,84912,5,4,0:2:0
396,228,85353,1,4,0:0:0
224,328,85794,1,4,0:2:0
108,164,86236,2,0,B|56:180|44:240|44:240|96:260,2,150,4|0|0,0:0|0:0|0:0,0:0:0
196,112,87118,2,0,B|240:152|220:200,1,50
216,204,87339,2,0,B|216:260|168:280,1,50
160,276,87559,1,0,0:0:0
116,184,87780,1,0,0:0:0
212,156,88000,6,0,B|288:136,2,50
116,184,88442,2,0,B|96:120,2,50
100,232,88772,1,0,0:0:0
84,280,88883,2,0,B|88:340|148:352|148:352|252:352,1,200
344,352,89544,1,0,0:0:0
444,352,89765,5,0,0:0:0
444,304,89875,1,0,0:0:0
444,252,89986,1,0,0:0:0
444,204,90096,1,0,0:0:0
444,156,90206,2,0,B|444:48,2,100
344,156,90868,1,0,0:0:0
296,156,90978,2,0,B|220:156|220:156|200:176|184:232,1,150
284,256,91530,6,0,B|256:316|208:328|208:328|288:328,1,150,4|0,0:0|0:0,0:0:0
200,252,91971,2,0,B|148:268|132:324,1,100
232,344,92412,1,4,0:0:0
168,152,92633,1,0,0:0:0
48,244,92853,1,0,0:0:0
256,192,93294,12,4,95059,0:0:0
112,92,95500,5,0,0:0:0
112,92,95611,1,0,0:0:0
200,140,95831,1,0,0:0:0
200,140,95942,1,0,0:0:0
280,84,96162,1,0,0:0:0
280,84,96272,2,0,B|336:104|352:160|336:188|336:188|376:176,1,150
256,164,96824,5,4,0:0:0
204,248,97044,1,0,0:0:0
304,244,97265,2,0,B|356:272|356:332|356:332|356:200,1,200
272,324,97927,1,0,0:0:0
272,324,98147,2,0,B|224:332|168:320|156:248|220:204|288:248|292:296|292:296|348:296,1,300
336,196,99030,2,0,B|308:144|240:152|240:152|280:124,1,150
228,104,99471,2,0,B|128:104,1,100
272,240,99912,6,0,B|324:240|324:168|324:168|268:168|264:256,1,200,0|4,0:0|0:0,0:0:0
168,256,100574,1,0,0:0:0
236,332,100794,2,0,B|272:300|272:236|272:236|312:268,1,150
168,256,101236,2,0,B|60:244,1,100
44,148,101677,1,0,0:0:0
44,148,102118,6,0,B|56:100|124:84,1,100,4|0,0:0|0:0,0:0:0
116,86,102559,2,0,B|144:144|204:148,1,100
190,146,103000,2,0,B|216:104|276:108,2,100
268,208,103662,1,0,0:0:0
188,268,103883,6,0,B|196:320|256:344|320:328|344:268,2,200,4|0|0,0:0|0:0|0:0,0:0:0
112,204,104986,1,0,0:0:0
188,140,105206,1,0,0:0:0
188,140,105647,6,0,B|224:108|276:96|332:104|376:140,2,200,4|0|0,0:0|0:0|0:0,0:0:0
116,212,106750,1,0,0:0:0
212,236,106971,1,0,0:0:0
392,152,107412,6,0,B|324:160,1,50
256,108,107743,2,0,B|292:72,1,50
192,52,108074,2,0,B|104:124,1,100
92,212,108515,1,0,0:0:0
128,244,108625,1,0,0:0:0
176,256,108736,1,0,0:0:0
224,244,108846,1,0,0:0:0
256,208,108956,2,0,B|300:160|384:200|384:200|384:204,1,100,0|4,0:0|0:0,0:0:0
316,280,109397,1,4,0:0:0
416,280,109618,1,0,0:0:0
364,368,109839,5,0,0:0:0
364,320,109949,1,0,0:0:0
364,272,110059,1,0,0:0:0
364,224,110169,1,0,0:0:0
364,172,110280,1,0,0:0:0
364,124,110390,1,0,0:0:0
364,76,110500,1,0,0:0:0
264,72,110721,1,0,0:0:0
164,72,110942,5,4,0:0:0
