osu file format v7

[General]
AudioFilename: TRUE EYES (short ver.).mp3
AudioLeadIn: 0
PreviewTime: 36295
Countdown: 0
SampleSet: Soft
StackLeniency: 0.4
Mode: 0
LetterboxInBreaks: 0

[Editor]
DistanceSpacing: 0
BeatDivisor: 4
GridSize: 8

[Metadata]
Title:True Eyes
Artist:C.G mix
Creator:wanhyrzh
Version:Training Mission
Source:Steal!
Tags:spray pokie eveless yaoi bl gay

[Difficulty]
HPDrainRate:1
CircleSize:3
OverallDifficulty:2
SliderMultiplier:0.8
SliderTickRate:1

[Events]
//Background and Video events
0,0,"background.jpg"
//Break Periods
2,13393,23199
2,59658,69464
2,103031,112838
2,137730,146091
//Storyboard Layer 0 (Background)
//Storyboard Layer 1 (Fail)
//Storyboard Layer 2 (Pass)
//Storyboard Layer 3 (Foreground)
Sprite,Foreground,Centre,"SB\SB00-1.png",320,240 F,0,13163,13887,0,1 F,0,24005,24729,1,0
//Storyboard Sound Samples
//Background Colour Transformations
3,100,163,162,255

[TimingPoints]
1627,361.44578313253,4,2,0,70,1,0
13102,-100,4,1,0,60,0,0
13283,-100,4,2,0,70,0,0
70843,-100,4,1,0,70,0,0
71114,-100,4,2,0,80,0,0
85392,-100,4,1,0,70,0,0
85572,-100,4,2,0,80,0,0
88283,-100,4,1,0,50,0,0
88464,-100,4,2,0,80,0,0
94066,-100,4,1,0,70,0,0
94247,-100,4,2,0,80,0,0
102741,-100,4,1,0,70,0,0
102922,-100,4,2,0,70,0,0
149006,-100,4,1,0,70,0,0
149187,-100,4,2,0,80,0,0
166355,-100,4,1,0,70,0,0
166536,-100,4,2,0,80,0,0
172139,-100,4,1,0,70,0,0
172319,-100,4,2,0,80,0,0
180723,-100,4,1,0,70,0,0

[Colours]
Combo1 : 255,255,128
Combo2 : 255,255,255
Combo3 : 0,128,192
Combo4 : 255,128,128
Combo5 : 0,128,0

[HitObjects]
104,88,1627,2,0,B|168:32|256:32|336:32|404:90,2,320,4|2|2
256,136,5241,1,0
408,192,5964,1,2
256,248,6687,1,0
104,296,7410,6,0,B|168:352|256:352|336:352|404:294,2,320,4|2|2
256,248,11024,1,2
256,192,11747,12,4,13193
88,56,24759,6,2,B|16:120|72:200,1,160,4|2
112,264,25843,1,8
168,320,26205,2,0,B|192:360|240:360,1,80,0|8
312,352,26928,1,0
376,304,27289,1,8
416,232,27651,6,2,B|456:144|408:72,1,160,0|2
412,78,28735,1,8
344,32,29096,1,0
264,24,29458,1,8
184,40,29819,2,0,B|128:48|104:88,3,80,0|8|0|8
72,144,31265,5,2
56,224,31626,1,8
80,304,31988,1,0
80,304,32349,1,8
152,344,32711,1,0
232,352,33072,1,8
312,344,33434,5,2
440,248,34157,1,8
288,192,34880,1,2
408,88,35602,1,8
256,40,36325,5,6
176,48,36687,1,8
104,88,37048,1,2
104,88,37410,1,8
64,160,37771,1,0
64,240,38133,2,0,B|80:288|104:312|136:336|184:344,1,160,8|8
256,344,39217,6,0,B|344:344,1,80,6|8
408,312,39940,2,0,B|456:304|464:240,3,80,2|8|0|8
472,176,41386,1,0
456,96,41747,1,8
384,56,42108,5,0
312,88,42470,1,8
240,56,42831,1,2
80,104,43554,5,0
160,104,43916,1,8
232,144,44277,1,2
80,104,45000,6,0,B|32:176,3,80,0|8|2|8
48,248,46446,1,0
96,312,46807,1,10
176,304,47169,1,2
208,232,47530,1,8
168,160,47892,6,0,B|224:96,1,80,6|8
296,72,48614,2,0,B|376:88,1,80,2|8
432,144,49337,1,0
472,216,49699,1,8
448,296,50060,1,0
384,344,50422,2,0,B|296:352,1,80,8|0
224,328,51145,6,0,B|144:280,3,80,8|2|8|0
104,224,52590,1,8
128,144,52952,1,0
128,144,53313,1,8
200,104,53675,5,2
280,88,54036,1,8
352,120,54398,1,2
400,184,54759,2,0,B|416:224|384:264,2,80,8|0|10
320,200,55843,1,0
264,264,56205,1,10
200,208,56566,6,2,B|104:192|56:280,1,160
136,304,57651,1,8
208,336,58012,2,0,B|248:360|296:336,3,80,2|8|0|8
360,312,59458,1,4
312,48,71024,6,0,B|392:80|440:144|440:216|400:320,2,320,4|2|0
232,48,74277,5,8
152,72,74639,1,0
88,128,75000,1,8
48,200,75361,2,2,B|32:280|56:360|176:360,1,240,2|0
248,344,76807,6,0,B|328:312,1,80,0|8
322,314,77530,2,0,B|384:248,1,80,2|8
376,255,78253,2,0,B|416:184,1,80,0|8
415,185,78976,2,0,B|416:104,1,80,2|8
352,56,79699,6,2,B|272:32|216:128|120:88,2,240,0|2|2
320,128,82229,1,8
248,168,82590,6,0,B|176:224,1,80,6|8
128,272,83313,1,2
144,352,83675,1,8
224,352,84036,2,0,B|304:328|304:328,1,80,2|2
376,296,84759,2,0,B|448:256|448:256,1,80,2|8
480,184,85482,6,0,B|488:96,3,80,4|8|0|8
440,40,86928,1,2
360,32,87289,1,8
280,56,87651,1,2
232,120,88012,1,8
288,176,88373,6,2,B|256:216|208:240|168:232|136:216|104:192|88:152,1,240,4|10
48,88,89819,2,0,B|128:56,1,80,2|8
200,40,90542,2,0,B|288:40,1,80,0|8
360,56,91265,6,2,B|432:112|440:200,1,160,2|2
448,272,92349,1,8
384,328,92711,2,2,B|304:360|224:360|144:336,1,240,2|8
88,280,94157,6,0,B|40:208,1,80,4|8
43,213,94880,2,0,B|56:128,1,80,2|8
55,133,95602,2,0,B|112:71,1,80,2|8
109,74,96325,2,0,B|192:55,1,80,2|8
264,48,97048,5,2
264,48,97410,1,8
264,48,97771,2,0,B|336:88,1,80,0|2
384,144,98494,2,0,B|360:232,1,80,0|8
362,221,99217,1,0
362,221,99578,1,2
320,288,99940,6,2,B|282:342|218:351,2,120,2|2|8
242,259,101386,2,2,B|176:264|132:319,2,120,2|2|8
242,259,102831,1,4
72,272,114398,6,2,B|112:320|176:344|280:352|336:336|384:312,1,320,6|2
416,248,116205,1,8
416,168,116566,1,0
360,112,116928,1,8
296,64,117289,6,2,B|216:40|128:48,3,160,2|2|2|2
65,84,119819,1,8
120,144,120181,6,2,B|160:216|152:240|80:272|32:280|80:352,1,240,2|10
160,344,121626,1,2
256,216,122349,1,8
392,304,123072,6,2,B|432:280|432:232|432:208|344:216|352:128|408:96,1,240,2|8
360,32,124518,1,2
200,40,125241,1,8
264,184,125964,6,0,B|320:256,1,80,6|8
336,320,126687,2,0,B|256:352,1,80,2|8
184,344,127410,1,0
112,304,127771,2,0,B|48:248|48:160,1,160,8|8
64,88,128855,5,0
136,48,129217,1,8
168,120,129578,1,2
240,80,129940,1,8
240,80,130301,2,0,B|320:128|376:32|448:72|480:104,1,240,0|8
480,176,131747,5,0
432,240,132108,1,8
352,224,132470,1,2
192,224,133193,5,0
112,232,133554,1,8
64,296,133916,1,2
216,344,134639,6,2,B|304:344|368:296|368:192,1,240,0|8
367,196,136084,2,2,B|367:107|319:43|215:44,1,240,2|0
139,44,137530,1,4
64,72,147651,5,0
144,80,148012,1,8
208,128,148373,1,0
256,192,148735,1,4
256,192,149096,6,0,B|192:256,1,80,4|8
199,248,149819,2,0,B|116:215,1,80,2|2
124,218,150542,2,0,B|116:136,1,80,2|10
116,138,151265,2,0,B|192:88,1,80,2|2
256,56,151988,5,2
256,56,152349,1,8
336,64,152711,1,0
408,96,153072,1,8
464,152,153434,2,0,B|488:240|448:312,1,160,2|2
384,352,154518,1,8
304,344,154880,6,8,B|224:320,1,80,2|8
152,296,155602,1,0
88,248,155964,2,0,B|32:176,1,80,8|2
32,104,156687,1,8
104,64,157048,2,0,B|184:88,1,80,0|8
232,152,157771,6,2,B|265:224|337:226|381:195|418:296|418:296,1,240
472,352,159217,1,2
488,272,159578,2,0,B|488:184,1,80,8|2
488,192,160301,1,8
464,112,160663,5,6
408,48,161024,2,0,B|328:32,1,80,8|0
248,40,161747,1,8
176,80,162108,2,0,B|104:144,1,80,2|10
64,200,162831,1,2
40,280,163193,2,0,B|120:328,1,80,10|4
184,352,163916,6,0,B|280:368|344:312,1,160,8|8
376,248,165000,1,2
392,168,165361,2,0,B|384:80,1,80,8|2
384,88,166084,1,8
304,64,166446,6,2,B|224:40|144:64,1,160,4|2
104,136,167530,1,8
160,200,167892,2,2,B|240:224|320:200,2,160,2|2|2
120,272,169699,5,8
176,336,170060,1,0
256,360,170422,1,8
336,360,170783,2,0,B|416:344,1,80,2|8
414,344,171506,2,0,B|464:272,1,80,0|8
432,200,172229,6,2,B|320:144|432:64|288:24,1,240,4|8
216,24,173675,1,0
152,72,174036,1,8
120,144,174398,1,0
128,224,174759,1,8
256,192,175120,12,4,180904
