osu file format v7

[General]
AudioFilename: TRUE EYES (short ver.).mp3
AudioLeadIn: 0
PreviewTime: 36295
Countdown: 0
SampleSet: Soft
StackLeniency: 0.4
Mode: 0
LetterboxInBreaks: 0

[Editor]
DistanceSpacing: 1.20000004768372
BeatDivisor: 4
GridSize: 8

[Metadata]
Title:True Eyes
Artist:C.G mix
Creator:wanhyrzh
Version:Hyper Mission
Source:Steal!
Tags:spray pokie eveless yaoi bl gay

[Difficulty]
HPDrainRate:4
CircleSize:4
OverallDifficulty:5
SliderMultiplier:1.5
SliderTickRate:1

[Events]
//Background and Video events
0,0,"background.jpg"
//Break Periods
2,13393,23559
2,103031,113198
//Storyboard Layer 0 (Background)
//Storyboard Layer 1 (Fail)
//Storyboard Layer 2 (Pass)
//Storyboard Layer 3 (Foreground)
Sprite,Foreground,Centre,"SB\SB00-1.png",320,240 F,0,13163,13887,0,1 F,0,24005,24729,1,0
//Storyboard Sound Samples
//Background Colour Transformations
3,100,163,162,255

[TimingPoints]
1627,361.44578313253,4,2,0,55,1,0
6777,-100,4,1,0,60,0,0
7319,-100,4,2,0,60,0,0
13012,-100,4,1,0,60,0,0
13373,-100,4,2,0,70,0,0
59277,-200,4,2,0,70,0,0
70843,-100,4,1,1,70,0,0
84759,-100,4,1,0,70,0,0
86205,-100,4,1,1,70,0,0
102741,-100,4,1,0,70,0,0
103012,-100,4,2,0,70,0,0
148916,-100,4,1,1,70,0,0
164096,-100,4,1,0,70,0,0
164367,-100,4,1,1,70,0,0
165181,-100,4,1,1,60,0,0
165452,-100,4,1,1,70,0,0
177741,-100,4,1,0,0,0,0
177922,-100,4,1,0,70,0,0

[Colours]
Combo1 : 255,255,128
Combo2 : 255,255,255
Combo3 : 0,128,192
Combo4 : 255,128,128
Combo5 : 0,128,0

[HitObjects]
197,40,1626,2,0,B|157:112|197:192,2,150,0|8|0
258,209,2711,1,8
320,40,3072,2,0,B|352:112|320:192,2,150,0|8|0
258,209,4157,1,8
88,256,4518,5,0
256,312,4880,1,8
424,256,5241,1,0
256,192,5422,12,0,6687
256,192,6867,6,0,B|256:112,2,75
176,152,7410,5,0
8,224,7771,1,8
176,288,8133,1,0
352,240,8494,6,0,B|432:240,1,75,8|0
400,152,8855,2,0,B|480:152,3,75,0|0|8|0
296,152,9759,2,0,B|216:152,2,75,0|8|0
256,192,10301,12,2,12831
256,192,13193,5,4
112,240,24759,5,4
168,312,24940,1,0
256,336,25120,1,8
344,312,25301,1,0
480,192,25663,6,0,B|432:128,1,75,0|8
368,72,26024,2,0,B|296:48|216:48,1,150
136,64,26566,2,0,B|64:104,1,75,8|0
32,184,26928,1,0
48,272,27108,1,0
120,328,27289,1,8
296,352,27651,6,0,B|360:304,3,75,0|0|8|0
440,144,28554,1,0
416,232,28735,1,8
392,56,29096,6,0,B|320:24,3,75,0|0|8|0
232,24,29819,2,0,B|152:40,1,75
158,38,30181,1,8
48,192,30542,6,0,B|128:192,1,75
216,192,30904,2,0,B|296:192,1,75,8|0
472,192,31446,5,0
472,192,31626,1,8
304,256,31988,5,0
224,296,32169,1,0
152,248,32349,1,8
160,160,32530,1,0
248,136,32711,5,0
384,24,33072,1,8
448,192,33434,6,0,B|448:272|376:320,2,150,0|8|0
360,192,34337,1,0
272,192,34518,1,8
91,192,34880,6,0,B|91:112|163:64,2,150,0|8|0
184,192,35783,1,0
272,192,35964,1,8
440,128,36325,6,0,B|392:64|320:32|240:24|168:24,1,300,4|0
56,152,37410,1,2
128,312,37771,1,0
304,352,38133,2,0,B|384:352|440:296,1,150,2|0
440,120,38855,1,2
376,176,39036,1,2
288,192,39217,6,0,B|208:192,1,75,0|2
248,272,39578,2,0,B|328:272,1,75,0|2
144,272,40120,1,0
56,272,40301,1,8
8,192,40482,1,0
96,32,40843,2,0,B|160:88,1,75,2|0
240,80,41205,2,0,B|304:24,1,75,2|0
384,32,41566,1,2
168,192,42108,6,0,B|96:224|48:288,1,150,0|2
232,256,42831,2,0,B|304:224|344:152,1,150,0|2
152,152,43554,5,0
304,64,43916,1,8
376,224,44277,1,0
224,320,44639,1,8
152,152,45000,2,0,B|72:152,3,75,2|0|2|0
240,72,45904,6,0,B|320:72|392:104|424:184,2,225,0|2|0
240,72,47169,1,0
272,160,47349,1,0
240,240,47530,1,8
152,88,47892,6,0,B|80:120|40:192,2,150,4|2|0
168,176,48795,2,0,B|144:208|144:248,2,75,0|2|0
152,352,49518,2,0,B|224:328|256:248,1,150,2|2
328,304,50060,1,0
480,216,50422,1,8
352,96,50783,6,0,B|296:40|216:32|144:80,1,225,2|2
8,192,51687,1,0
8,192,51867,1,8
8,192,52048,1,0
120,328,52410,2,0,B|192:368|264:368|344:344|400:288,1,300,2|2
256,56,53675,6,0,B|184:32,1,75,0|0
112,80,54036,2,0,B|120:160,1,75,8|0
280,232,54578,1,0
224,160,54759,1,8
280,232,54940,1,0
224,160,55120,6,0,B|296:136|376:160,1,150,0|8
272,312,55843,2,0,B|200:336|120:312,1,150,0|8
256,192,56566,12,2,59096
384,56,59458,6,0,B|352:96|352:168|392:208,1,150,4|0
472,200,60542,2,0,B|488:240|472:280,1,75,2|0
408,336,61265,1,8
328,296,61627,1,0
280,216,61988,1,8
232,136,62349,6,0,B|208:104|184:80|144:64,2,112.5,2|0|2
144,152,63795,1,0
64,192,64157,1,8
32,280,64518,1,0
80,360,64880,1,8
160,312,65241,6,0,B|216:336|280:312,1,112.5,2|0
216,248,66145,2,0,B|272:232|336:248,1,112.5,2|0
416,248,67048,1,8
456,168,67410,1,0
448,80,67771,1,8
376,24,68133,1,0
288,40,68494,2,0,B|256:64,1,37.5,8|0
184,120,69036,2,0,B|112:176,1,75,2|0
256,192,69578,12,4,70663
256,192,71024,6,0,B|208:128,1,75,0|0
168,56,71386,2,0,B|248:56,1,75,8|0
424,56,71928,2,0,B|344:56,2,75,0|8|0
456,144,72470,1,0
360,296,72831,1,8
216,184,73193,1,8
216,184,73554,1,8
48,120,73916,6,0,B|96:56,3,75,0|0|8|0
48,232,74819,2,0,B|96:296,1,75,0|8
93,292,75181,1,0
93,292,75361,1,0
256,224,75723,1,8
424,288,76084,1,8
424,104,76446,6,0,B|368:48|288:32,2,150,8|0|8
424,104,77349,1,0
248,120,77711,2,0,B|200:120|168:136,3,75,0|8|0|0
40,256,78614,1,8
200,336,78976,1,0
200,336,79337,1,8
376,304,79699,6,0,B|456:272|448:176,1,150,0|8
368,216,80241,1,0
296,168,80422,2,0,B|216:120,2,75,8|0|8
136,80,81145,5,0
32,224,81506,1,8
168,344,81867,1,0
168,344,82229,1,8
344,344,82590,6,0,B|424:344|480:280|480:184,1,225,4|0
304,176,83494,1,0
304,176,83675,1,8
304,176,83855,1,0
304,176,84036,2,0,B|224:176,1,75,0|0
144,216,84398,2,0,B|64:216,1,75,8|0
216,320,84940,6,0,B|296:320|360:272|384:192,2,225,0|0|0
224,136,86386,1,0
224,136,86566,1,8
224,136,86747,1,0
224,136,86928,2,0,B|144:136,2,75,0|0|8
224,224,87470,2,0,B|456:224,1,225,0|8
312,336,88373,6,0,B|240:360|160:336,1,150,0|8
88,280,88916,2,0,B|40:216|56:136,1,150,0|0
96,56,89458,1,8
232,176,89819,1,0
368,56,90181,1,8
232,176,90542,1,0
368,288,90904,1,8
200,352,91265,6,0,B|120:344|56:288|56:192|56:192,1,225,0|0
240,200,92169,2,0,B|160:200,2,75,0|8|0
328,200,92711,1,0
480,288,93072,1,8
480,104,93434,1,0
320,32,93795,1,8
144,40,94157,6,0,B|72:72|40:152,1,150,0|8
136,144,94699,2,0,B|128:224|64:272,1,150,0|0
65,271,95241,1,8
224,344,95602,1,0
328,200,95964,1,8
168,112,96325,2,0,B|232:64|312:64,1,150,0|8
480,112,97048,5,4
416,280,97410,1,8
272,168,97771,1,0
272,168,98133,1,8
128,280,98494,5,0
104,104,98855,1,8
272,168,99217,1,0
272,168,99578,1,8
408,48,99940,5,4
448,224,100301,1,8
272,168,100663,1,0
272,168,101024,1,8
104,224,101386,5,0
104,224,101566,1,0
168,288,101747,1,8
168,288,101928,1,0
256,320,102108,1,8
256,320,102289,2,0,B|256:280,4,37.5,0|0|0|0|0
344,288,102831,5,4
40,192,114398,6,0,B|48:272|96:336|184:360,1,225,4|0
344,312,115301,2,0,B|264:320|192:280,1,150,2|0
208,104,116024,6,0,B|200:152|248:176|248:176,2,75,0|8|0
296,120,116566,2,0,B|296:72|264:56,2,75,0|0|8
296,120,117108,1,0
384,136,117289,6,0,B|448:184|464:264|432:344,1,225,2|0
288,232,118193,2,0,B|224:183|208:104|240:24,1,225,2|0
152,40,118916,2,0,B|144:88|104:112,5,75,0|8|0|0|0|8
56,272,120181,6,0,B|112:328|192:336|272:336,1,225,2|0
384,200,121084,1,0
344,280,121265,1,8
384,200,121446,1,0
384,200,121626,5,0
256,72,121988,1,8
128,200,122349,1,0
256,328,122711,1,8
384,200,123072,1,0
256,328,123434,1,8
256,152,123795,1,0
256,64,123976,5,0
256,64,124157,1,8
256,64,124337,2,0,B|184:88|120:136|72:200,1,225,0|2
168,208,125060,2,0,B|240:184|304:136|344:72,1,225,0|2
416,240,125964,6,0,B|336:240,3,75,4|0|8|0
184,328,126867,2,0,B|264:328,2,75,0|8|0
64,192,127590,6,0,B|88:120|152:72,1,150,2|0
232,40,128133,2,0,B|312:56|376:96|416:176,1,225,2|0
376,248,128855,5,0
312,312,129036,1,0
224,344,129217,1,8
136,352,129398,1,0
24,216,129759,2,0,B|48:136|120:72,1,150,0|2
272,40,130482,6,0,B|360:40,1,75,0|8
424,80,130843,2,0,B|480:144,2,75,0|2|2
256,296,131747,6,0,B|336:320|408:296|464:240,1,225,2|0
344,104,132651,2,0,B|424:104|464:184,1,150,2|0
462,181,133193,5,0
280,184,133554,1,8
96,184,133916,1,0
184,336,134277,1,8
368,336,134639,1,0
368,336,134819,1,0
368,336,135000,1,8
464,184,135361,1,0
368,32,135723,1,8
256,192,136084,12,2,137169
104,96,137530,5,4
256,320,138072,1,2
408,96,138614,1,2
256,192,138976,1,0
256,192,139337,1,8
256,192,139699,1,0
256,192,140060,1,8
120,312,140422,5,2
392,312,140964,1,2
256,80,141506,1,2
256,256,141867,1,0
256,256,142229,1,8
256,256,142590,1,0
256,256,142952,1,8
256,80,143313,6,0,B|176:80|112:120|64:192|72:288,2,300,2|2|2
400,192,145120,1,8
256,304,145482,1,0
112,192,145843,1,8
112,192,146205,1,0
256,192,146386,12,2,147290
64,48,147651,5,0
160,336,148012,1,8
456,336,148373,1,0
360,48,148735,1,4
256,192,149096,6,0,B|256:272|192:328|104:328,1,225,4|0
192,168,150000,2,0,B|200:88|288:48,1,150,0|0
277,53,150542,5,0
400,192,150904,1,8
288,336,151265,1,0
176,200,151627,1,8
277,53,151988,6,0,B|192:48|128:72|72:144,1,225,0|0
256,120,152892,2,0,B|288:144|336:144,3,75,0|8|0|0
480,240,153795,5,8
336,352,154157,1,0
192,240,154518,1,8
336,128,154880,1,0
336,128,155060,1,0
336,128,155422,1,0
168,128,155783,6,0,B|88:128,3,75,0|8|0|0
256,208,156687,1,8
96,296,157048,1,0
96,112,157410,1,8
256,32,157771,6,0,B|336:48|400:96,1,150,0|8
432,168,158313,2,0,B|424:248|352:296,1,150,0|0
288,344,158855,2,0,B|208:360|136:344,1,150,8|0
32,200,159578,1,8
32,200,159759,1,0
472,112,160663,6,0,B|416:56|344:32,1,150,4|8
256,32,161205,1,0
256,32,161566,2,0,B|208:48|192:80,1,75,0|8
168,160,161928,1,0
80,176,162108,2,0,B|32:240|40:328,1,150,0|8
120,352,162651,1,0
240,216,163012,2,0,B|296:280|376:264,1,150,0|0
374,264,163554,5,0
360,88,163916,2,0,B|288:40|200:24|128:32,1,225,8|0
72,80,164639,1,8
72,80,164819,1,0
40,168,165000,2,0,B|32:248|64:320|128:368,1,225,0|0
124,365,165723,1,0
280,272,166084,1,8
440,192,166446,5,4
440,192,166988,1,0
192,80,167530,1,8
256,248,167892,1,0
320,80,168253,1,8
256,248,168614,1,0
88,192,168976,1,8
168,344,169337,6,0,B|320:344,1,150,0|8
480,264,170060,2,0,B|320:264,1,150,0|8
168,192,170783,5,0
48,56,171145,1,8
224,32,171506,1,0
336,168,171867,1,8
288,344,172229,6,0,B|216:368|128:352|56:304,1,225,4|0
344,288,173313,1,8
184,200,173675,1,0
344,120,174036,1,8
184,32,174398,2,0,B|104:64|56:120,1,150,0|8
256,192,175120,12,0,177831
256,192,178012,12,0,180542
256,192,180904,5,4
