osu file format v7

[General]
AudioFilename: TRUE EYES (short ver.).mp3
AudioLeadIn: 0
PreviewTime: 36295
Countdown: 0
SampleSet: Normal
StackLeniency: 0.4
Mode: 0
LetterboxInBreaks: 0

[Editor]
DistanceSpacing: 1.20000004768372
BeatDivisor: 4
GridSize: 8

[Metadata]
Title:True Eyes
Artist:C.G mix
Creator:wanhyrzh
Version:Final Mission
Source:Steal!
Tags:spray pokie eveless yaoi bl gay

[Difficulty]
HPDrainRate:8
CircleSize:4
OverallDifficulty:7
SliderMultiplier:2
SliderTickRate:1

[Events]
//Background and Video events
0,0,"background.jpg"
//Break Periods
2,13393,23859
2,103031,110606
//Storyboard Layer 0 (Background)
//Storyboard Layer 1 (Fail)
//Storyboard Layer 2 (Pass)
//Storyboard Layer 3 (Foreground)
Sprite,Foreground,Centre,"SB\SB00-1.png",320,240 F,0,13163,13887,0,1 F,0,24005,24729,1,0
//Storyboard Sound Samples
//Background Colour Transformations
3,100,163,162,255

[TimingPoints]
1627,361.44578313253,4,2,1,55,1,0
6777,-100,4,1,0,40,0,0
7319,-100,4,2,1,55,0,0
13012,-100,4,1,0,60,0,0
13373,-100,4,2,1,60,0,0
36145,-100,4,2,2,70,0,0
58102,-200,4,2,1,70,0,0
70934,-100,4,1,0,50,0,0
71114,-100,4,1,2,60,0,0
82500,-100,4,2,0,80,0,0
88283,-100,4,1,0,50,0,0
88464,-100,4,1,2,60,0,0
94066,-100,4,1,0,60,0,0
94247,-100,4,1,2,60,0,0
96958,-100,4,1,0,50,0,0
97139,-100,4,1,2,60,0,0
99849,-100,4,1,0,60,0,0
100030,-100,4,1,2,60,0,0
102741,-100,4,1,0,60,0,0
102922,-100,4,2,1,60,0,0
114307,-100,4,2,2,70,0,0
137349,-200,4,2,1,70,0,0
147470,-100,4,2,1,70,0,0
149006,-100,4,1,0,50,0,0
149187,-100,4,1,2,60,0,0
160572,-100,4,2,0,80,0,0
166355,-100,4,1,0,50,0,0
166536,-100,4,1,2,60,0,0
172139,-100,4,1,0,60,0,0
172319,-100,4,1,2,60,0,0
173042,-100,4,1,2,30,0,0
173223,-100,4,1,2,60,0,0
175030,-100,4,1,0,50,0,0
175211,-100,4,1,2,60,0,0
180858,-100,4,1,0,60,0,0

[Colours]
Combo1 : 255,255,128
Combo2 : 255,255,255
Combo3 : 0,128,192
Combo4 : 255,128,128
Combo5 : 0,128,0

[HitObjects]
32,64,1626,1,0
104,160,1807,1,2
168,64,1988,1,0
232,160,2169,1,0
304,64,2349,1,2
168,264,2711,6,0,B|64:264,2,100,0|0|2
256,352,3253,1,0
336,264,3434,2,0,B|440:264,1,100,2|0
404,153,3795,5,0
316,73,3976,1,2
196,73,4157,1,0
108,153,4337,1,2
256,192,4518,12,0,6687
256,192,6867,5,0
256,192,7048,1,0
256,192,7229,1,0
152,256,7410,5,2
104,144,7590,1,0
128,24,7771,1,2
128,24,7952,2,0,B|176:8|232:8,2,100,0|2|0
104,144,8494,5,2
152,256,8675,1,0
256,312,8855,1,2
360,256,9036,1,0
408,144,9217,1,2
384,24,9398,1,0
296,104,9578,6,0,B|192:104,1,100,0|2
256,208,9940,2,0,B|360:208,1,100,2|0
256,192,10301,12,2,12831
256,192,13193,5,4
64,64,24759,6,0,B|176:64,1,100,4|0
256,136,25120,2,0,B|360:136,1,100,2|0
136,240,25663,2,0,B|240:240,2,100,0|2|0
344,360,26386,5,0
456,312,26566,1,2
488,192,26747,1,0
448,80,26928,1,2
344,24,27108,1,0
240,80,27289,1,2
32,192,27651,6,0,B|136:192,3,100,2|0|2|0
368,192,28554,1,0
288,96,28735,1,2
216,192,28916,1,0
392,32,29277,6,0,B|496:32,2,100,0|2|0
288,96,29819,1,2
368,192,30000,1,0
288,288,30181,1,2
72,192,30542,5,2
16,304,30723,1,0
128,352,30904,2,0,B|240:352,2,100,2|0|2
480,160,31626,5,2
104,32,31988,1,0
336,352,32349,1,2
104,32,32711,1,0
480,160,33072,1,2
128,352,33434,5,0
248,352,33614,1,2
248,232,33795,2,0,B|248:128,1,100,0|2
168,40,34157,1,0
168,40,34337,1,0
88,128,34518,1,2
312,40,34880,6,0,B|416:40,1,100,0|2
480,144,35241,2,0,B|376:144,1,100,0|2
416,256,35602,2,0,B|312:256,2,100,0|0|2
184,192,36325,5,4
184,192,36506,1,0
104,104,36687,1,2
104,104,36867,1,0
264,288,37229,1,0
184,192,37410,1,2
104,104,37590,1,0
336,32,37952,6,0,B|432:64,1,100,2|0
472,176,38313,2,0,B|488:280,1,100,0|2
392,352,38675,1,0
272,352,38855,2,0,B|168:344,1,100,2|0
48,336,39217,5,2
136,256,39398,1,0
32,200,39578,1,2
40,80,39759,1,0
40,80,40120,2,0,B|136:40,1,100,0|2
256,32,40482,1,0
376,240,40843,5,0
320,136,41024,1,2
376,240,41205,1,0
256,240,41386,1,2
192,136,41566,1,0
256,240,41747,1,2
480,160,42108,5,2
480,160,42289,1,0
416,64,42470,2,0,B|312:40,1,100,2|0
80,40,43012,2,0,B|184:40,2,100,0|2|0
179,40,43554,5,2
440,344,43916,1,0
48,288,44277,1,2
424,152,44639,1,0
32,64,45000,1,2
32,64,45181,1,0
32,64,45361,1,2
32,64,45542,1,2
248,176,45904,5,0
248,176,46084,1,2
248,296,46265,1,0
352,240,46446,2,0,B|456:240,2,100,2|0|2
248,176,46988,2,0,B|136:176,2,100,0|2|0
248,296,47530,1,2
312,64,47892,5,4
432,64,48072,1,0
312,64,48253,1,2
432,64,48434,1,0
192,64,48795,1,0
192,184,48976,1,2
72,184,49157,1,0
312,184,49518,6,0,B|416:184,1,100,0|2
496,272,49880,1,0
408,352,50060,2,0,B|296:352,3,100,2|0|2|0
192,328,50783,6,0,B|96:280,1,100,2|0
24,192,51145,2,0,B|48:88,1,100,2|0
280,32,51687,1,0
280,32,51867,2,0,B|176:32,1,100,2|0
384,160,52410,5,0
280,216,52590,1,2
224,320,52771,1,0
144,232,52952,1,0
32,192,53133,1,2
360,48,53675,5,0
360,48,53855,1,2
360,168,54036,1,0
360,168,54217,1,2
128,104,54578,1,2
248,104,54759,1,0
128,104,54940,1,2
32,176,55120,5,2
432,192,55482,1,0
64,344,55843,1,2
328,40,56205,1,0
64,344,56566,5,2
432,192,56928,1,0
64,40,57289,1,2
312,352,57651,1,0
312,352,57831,1,0
312,352,58012,1,2
256,192,58193,12,2,59097
19,74,59458,6,0,B|51:114|115:114|139:74|171:10|235:10|291:50,1,300,4|0
288,48,60904,1,0
347,54,61084,1,0
401,79,61265,1,2
439,125,61446,1,0
455,182,61627,1,2
456,242,61807,1,0
441,300,61988,1,2
405,348,62169,1,0
355,314,62349,6,0,B|323:274|259:274|235:314|203:378|139:378|83:338,1,300,0|0
85,339,63795,1,0
57,285,63976,1,0
53,225,64157,1,2
61,165,64337,1,2
86,110,64518,1,0
132,72,64699,1,0
187,50,64880,1,2
304,56,65241,5,0
304,56,65602,1,2
304,56,65783,1,0
408,112,66145,1,0
408,112,66325,1,2
488,200,66687,6,0,B|472:304,1,100,0|0
368,352,67410,1,0
248,336,67771,1,2
136,296,68133,2,0,B|80:280|48:248|24:200|16:144|32:88|72:48,1,300,0|0
256,192,69578,12,4,70663
48,104,71024,6,0,B|144:56,1,100,4|0
256,40,71386,1,8
256,40,71566,1,2
448,184,71928,2,0,B|376:112,2,100,0|8|0
392,288,72470,5,2
40,96,72831,1,8
432,24,73193,1,2
136,288,73554,1,8
160,48,73916,6,0,B|264:48,3,100,2|0|8|2
24,64,74819,1,2
96,160,75000,1,8
216,160,75181,1,0
336,160,75361,2,0,B|440:160,1,100,2|0
384,272,75723,2,0,B|280:272,1,100,8|0
160,272,76084,2,0,B|56:272,2,100,2|0|8
8,88,76807,5,2
112,32,76988,2,0,B|216:8|312:32,1,200,2|2
312,32,77711,1,2
376,136,77892,1,8
336,248,78072,1,2
232,312,78253,5,2
488,8,78614,1,8
88,40,78976,1,2
392,296,79337,1,8
368,56,79699,6,0,B|272:16|168:56,1,200,2|8
80,136,80241,2,0,B|24:224|80:328,1,200,2|0
78,325,80783,1,8
78,325,80964,1,0
192,352,81145,2,0,B|296:352,1,100,2|0
376,264,81506,2,0,B|272:264,1,100,8|2
200,176,81867,2,0,B|304:176,2,100,2|0|8
392,32,82590,5,4
272,32,82771,1,0
152,32,82952,1,8
32,32,83133,1,2
208,192,83494,5,2
328,192,83675,1,8
448,192,83855,1,2
392,296,84036,1,2
272,296,84217,1,0
392,296,84398,1,8
272,296,84578,1,2
40,224,84940,6,0,B|16:176|48:120,2,100,2|8|2
136,296,85482,2,0,B|240:296,1,100,2|2
320,208,85843,2,0,B|424:208,3,100,8|0|2|0
480,104,86566,1,8
384,32,86747,1,2
264,32,86928,1,2
144,56,87108,2,0,B|48:96|8:200,1,200,2|0
16,320,87651,1,8
400,40,88373,6,0,B|400:192|504:320,2,300,4|2|8
0,64,89819,5,2
400,40,90181,1,8
72,272,90542,1,2
472,248,90904,1,8
88,360,91265,6,0,B|192:360,1,100,2|0
232,248,91626,2,0,B|336:248,1,100,8|0
112,144,92169,2,0,B|216:144,2,100,2|8|2
168,40,92711,5,0
168,40,92892,1,0
288,40,93072,1,8
288,40,93253,1,2
384,112,93434,1,0
384,112,93614,1,2
408,232,93795,1,8
200,352,94157,6,0,B|96:352|96:352|40:264,1,200,4|8
136,192,94699,1,2
48,112,94880,2,0,B|99:21|99:21|215:22,1,200,0|8
368,192,95602,1,2
136,192,95964,1,8
368,192,96325,2,0,B|296:120,1,100,2|0
368,192,96687,2,0,B|296:264,1,100,8|0
368,192,97048,2,0,B|440:120,1,100,4|0
368,192,97410,2,0,B|440:264,2,100,8|0|2
192,352,98133,5,8
80,320,98313,1,0
48,200,98494,1,2
80,88,98675,1,2
184,32,98855,1,8
304,24,99036,1,2
416,64,99217,1,2
256,248,99578,5,8
176,336,99759,1,2
64,296,99940,1,4
56,176,100120,1,0
176,152,100301,1,8
408,64,100663,5,0
328,152,100843,1,2
256,248,101024,1,8
96,64,101386,5,2
176,152,101566,1,0
256,248,101747,1,8
176,336,101928,1,2
256,248,102108,1,2
336,336,102289,5,0
336,336,102380,1,0
336,336,102470,1,8
256,248,102651,1,0
256,248,102831,1,4
96,144,111506,5,0
192,72,111687,1,2
288,144,111867,2,0,B|288:248,1,100,0|2
192,320,112229,1,0
96,248,112410,1,0
192,320,112590,1,2
424,248,112952,5,0
328,320,113133,1,2
232,248,113313,2,0,B|232:144,1,100,0|2
328,72,113675,1,0
424,144,113855,1,2
424,144,114036,1,2
256,208,114398,6,0,B|256:104,1,100,4|0
64,48,114759,2,0,B|168:48,1,100,0|2
440,336,115301,2,0,B|336:336,2,100,0|2|0
216,32,116024,5,2
96,64,116205,1,0
48,176,116386,1,2
80,288,116566,1,0
184,344,116747,1,0
304,344,116928,1,2
408,288,117108,1,2
464,184,117289,6,0,B|480:80,1,100,0|2
368,32,117651,2,0,B|264:24,1,100,0|2
152,32,118012,1,2
48,88,118193,2,0,B|32:200,1,100,0|0
80,296,118554,1,2
320,336,118916,5,0
424,278,119096,1,2
471,167,119277,1,0
424,278,119458,1,2
320,336,119639,1,0
320,336,119819,1,2
152,168,120181,5,0
152,168,120361,1,2
216,64,120542,1,0
216,64,120723,1,2
456,56,121084,1,0
336,32,121265,1,2
336,32,121446,1,0
480,168,121626,5,0
120,352,121988,1,2
480,168,122349,1,0
96,64,122711,1,2
376,352,123072,1,0
376,352,123253,1,0
376,352,123434,1,2
376,352,123614,1,0
136,360,123976,5,0
40,288,124157,1,2
8,176,124337,1,0
48,64,124518,2,0,B|136:8|248:32,1,200,2|0
352,80,125060,1,0
440,160,125241,1,2
352,80,125422,1,0
440,160,125602,1,2
296,352,125964,6,0,B|384:296,2,100,4|0|0
176,336,126506,2,0,B|88:272,1,100,2|0
8,200,126867,2,0,B|56:104,1,100,2|0
144,32,127229,2,0,B|248:24,1,100,2|0
360,40,127590,1,0
472,88,127771,1,2
488,208,127952,1,0
456,328,128133,2,0,B|360:360,1,100,2|0
361,359,128494,1,2
361,359,128675,1,2
240,336,128855,6,0,B|152:272,1,100,0|2
80,184,129217,2,0,B|144:104,1,100,0|2
248,40,129578,1,2
368,48,129759,1,0
248,40,129940,1,2
368,48,130120,1,0
480,264,130482,6,0,B|416:352,1,100,0|2
304,360,130843,1,0
184,352,131024,2,0,B|88:304,1,100,2|2
94,307,131386,1,2
24,80,131747,6,0,B|96:16|216:24,1,200,0|2
328,32,132289,2,0,B|384:40|416:80,1,100,0|0
472,184,132651,1,0
440,296,132831,1,2
472,184,133012,1,0
360,352,133193,5,0
120,32,133554,1,2
464,232,133916,1,0
64,232,134277,1,2
416,48,134639,1,0
416,48,134819,1,0
416,48,135000,1,2
416,48,135181,1,0
416,48,135361,1,2
224,192,135723,1,0
224,192,135904,2,0,B|120:192,1,100,2|2
256,192,136265,12,2,137168
480,88,137530,6,0,B|448:40|392:32,1,100,4|8
339,26,138072,2,0,B|283:26|233:35,1,100,2|0
180,47,138614,2,0,B|120:65,1,50,8|0
80,96,138976,2,0,B|30:184|31:295|158:347,1,300,2|8
272,368,140422,6,0,B|344:368|422:357|464:317|464:192,1,300,2|8
455,137,141687,1,2
455,137,141867,2,0,B|456:80|408:32,1,100,0|8
364,22,142410,1,2
364,22,142590,2,0,B|308:6|252:38|252:38,1,100,0|8
152,72,143313,5,0
103,108,143494,1,2
80,163,143675,1,2
78,222,143855,2,0,B|88:283|134:309,1,100,2|2
178,338,144398,1,8
235,354,144578,1,2
291,334,144759,2,0,B|339:314|361:263,1,100,0|8
360,265,145482,1,2
360,265,145843,2,0,B|385:315|433:337,1,100,8|2
256,192,146386,12,8,147289
256,192,147651,5,2
160,64,147831,1,0
80,208,148012,1,2
184,336,148193,1,0
344,320,148373,1,2
416,176,148554,1,0
304,56,148735,1,4
176,256,149096,5,4
176,256,149277,1,2
296,232,149458,1,8
296,232,149639,1,0
56,224,150000,1,2
176,256,150181,1,8
56,224,150361,1,0
16,336,150542,5,2
408,248,150904,1,8
16,152,151265,1,2
408,64,151626,1,8
200,192,151988,6,0,B|312:192,3,100,0|2|8|2
300,192,152892,1,0
416,192,153072,1,8
456,80,153253,1,0
352,24,153434,5,2
40,272,153795,1,8
432,336,154157,1,2
128,72,154518,1,8
288,248,154880,5,2
208,336,155060,2,0,B|104:328|32:248,1,200,2|2
33,249,155602,1,0
56,128,155783,1,0
56,128,155964,1,8
152,64,156145,1,0
152,64,156325,5,2
488,280,156687,1,8
96,352,157048,1,2
392,88,157410,1,8
152,64,157771,6,0,B|56:120|32:224,3,200,2|8|2|8
240,336,159217,5,0
360,352,159398,1,0
464,296,159578,1,8
480,176,159759,1,2
432,64,159940,1,0
312,40,160120,1,0
208,96,160301,1,8
24,256,160663,6,0,B|56:160,1,100,4|0
128,64,161024,2,0,B|232:40,1,100,8|0
344,48,161386,2,0,B|440:112,1,100,0|2
456,216,161747,2,0,B|424:312,1,100,8|0
312,352,162108,1,2
312,352,162289,1,2
200,312,162470,1,8
200,312,162651,1,2
40,128,163012,5,2
128,48,163193,2,0,B|232:32,1,100,8|0
344,56,163554,1,2
440,128,163735,1,0
344,56,163916,1,8
440,128,164096,1,2
328,336,164458,6,0,B|408:264,2,100,2|8|2
208,352,165000,1,0
96,304,165181,1,2
48,192,165361,1,8
80,72,165542,1,2
192,24,165723,1,0
312,40,165904,1,2
312,40,166084,1,8
480,208,166446,6,0,B|456:312|360:368,2,200,4|8|2
80,248,167530,1,8
432,64,167892,1,2
32,40,168253,1,8
272,360,168614,1,2
488,24,168976,1,8
136,216,169337,1,2
136,216,169518,1,0
136,216,169699,1,8
136,216,169880,1,2
336,352,170241,6,0,B|392:344|424:296|424:296,2,100,2|8|2
216,336,170783,1,0
104,296,170964,1,0
56,184,171145,1,8
96,72,171325,1,2
208,32,171506,1,0
208,32,171687,1,2
208,32,171867,1,8
304,360,172229,6,0,B|408:368|488:312|520:192|528:88|352:24|352:24,1,500,4|2
353,24,173313,1,8
32,264,173675,1,2
424,192,174036,1,8
48,40,174398,1,2
296,352,174759,1,8
336,112,175120,5,4
424,192,175301,1,0
408,312,175482,1,8
296,352,175663,1,2
200,280,175843,1,0
216,160,176024,1,2
200,280,176205,1,8
296,56,176566,5,0
296,56,176747,1,0
176,48,176928,1,8
176,48,177108,1,2
80,120,177289,1,0
80,120,177470,1,2
72,240,177651,1,8
144,336,177831,1,2
144,336,178012,1,2
256,192,178193,12,8,179096
256,96,179458,5,0
152,152,179639,1,2
200,264,179819,1,8
320,264,180000,1,2
360,152,180181,1,8
256,192,180361,1,2
256,192,180542,5,8
256,192,180633,1,0
256,192,180723,1,0
256,192,180813,1,0
256,192,180904,1,4
