osu file format v14

[General]
AudioFilename: Rocking to the Beat.mp3
AudioLeadIn: 0
PreviewTime: 144179
Countdown: 0
SampleSet: Soft
StackLeniency: 0.3
Mode: 0
LetterboxInBreaks: 0
EpilepsyWarning: 1
WidescreenStoryboard: 1

[Editor]
Bookmarks: 12455,23489,45558,56593,67627,78662,89696,100731,111765,122800,133834,144869,155903,166938,177972,189007,200041,211076,222110,232800
DistanceSpacing: 1.8
BeatDivisor: 4
GridSize: 4
TimelineZoom: 1.7

[Metadata]
Title:Rocking to the Beat
TitleUnicode:Rocking to the Beat
Artist:C-Show
ArtistUnicode:C-Show
Creator:Priti
Version:Extra Collab
Source:
Tags:Kusemono Records Drumstep DnB Drum and Bass Wobble Trouble 2 Bonzi Amamiya Yuko Skystar -kevincela- Frey Sing RyoKazuka Exote
BeatmapID:923329
BeatmapSetID:305938

[Difficulty]
HPDrainRate:6
CircleSize:4.2
OverallDifficulty:8
ApproachRate:9.2
SliderMultiplier:1.8
SliderTickRate:1

[Events]
//Background and Video events
0,0,"background.jpg",0,0
//Break Periods
2,23689,33954
2,111965,122057
//Storyboard Layer 0 (Background)
Sprite,Background,Centre,"SB/br.png",320,240 F,0,1334,1421,0,0.8 C,0,1421,,194,123,213 M,0,1421,1593,-53,380 V,1,1421,1593,0.5375484,0.1,0.5375484,0.4962579 F,0,1421,12283,0.8 R,1,1421,12283,0.09909668 M,1,1593,12283,-53,380,-16,384 V,1,1593,12283,0.5375484,0.4962579 M,0,12283,,-16,385 R,0,12283,,0.09909668 F,0,12283,12455,0.8,0 V,1,12283,12455,0.5375484,0.4962579,0.5375484,0.1
Sprite,Background,Centre,"SB/br.png",320,240 F,0,34438,34525,0,0.8 C,0,34525,,194,123,213 M,0,34525,34697,-53,380 V,1,34525,34697,0.5375484,0.1,0.5375484,0.4962579 F,0,34525,45387,0.8 R,1,34525,45387,0.09909668 M,1,34697,45387,-53,380,-16,384 V,1,34697,45387,0.5375484,0.4962579 M,0,45387,,-16,385 R,0,45387,,0.09909668 F,0,45387,45559,0.8,0 V,1,45387,45559,0.5375484,0.4962579,0.5375484,0.1
Sprite,Background,Centre,"SB/br.png",320,240 F,0,56507,56594,0,0.8 C,0,56594,,194,123,213 M,0,56594,56766,-53,380 V,1,56594,56766,0.5375484,0.1,0.5375484,0.4962579 F,0,56594,67456,0.8 R,1,56594,67456,0.09909668 M,1,56766,67456,-53,380,-16,384 V,1,56766,67456,0.5375484,0.4962579 M,0,67456,,-16,385 R,0,67456,,0.09909668 F,0,67456,67628,0.8,0 V,1,67456,67628,0.5375484,0.4962579,0.5375484,0.1
Sprite,Background,Centre,"SB/br.png",320,240 F,0,78576,78663,0,0.8 C,0,78663,,194,123,213 M,0,78663,78835,-53,380 V,1,78663,78835,0.5375484,0.1,0.5375484,0.4962579 F,0,78663,89525,0.8 R,1,78663,89525,0.09909668 M,1,78835,89525,-53,380,-16,384 V,1,78835,89525,0.5375484,0.4962579 M,0,89525,,-16,385 R,0,89525,,0.09909668 F,0,89525,89697,0.8,0 V,1,89525,89697,0.5375484,0.4962579,0.5375484,0.1
Sprite,Background,Centre,"SB/br.png",320,240 F,0,100645,100732,0,0.8 C,0,100732,,194,123,213 M,0,100732,100904,-53,380 V,1,100732,100904,0.5375484,0.1,0.5375484,0.4962579 F,0,100732,111594,0.8 R,1,100732,111594,0.09909668 M,1,100904,111594,-53,380,-16,384 V,1,100904,111594,0.5375484,0.4962579 M,0,111594,,-16,385 R,0,111594,,0.09909668 F,0,111594,111766,0.8,0 V,1,111594,111766,0.5375484,0.4962579,0.5375484,0.1
Sprite,Background,Centre,"SB/br.png",320,240 F,0,133748,133835,0,0.8 C,0,133835,,194,123,213 M,0,133835,134007,-53,380 V,1,133835,134007,0.5375484,0.1,0.5375484,0.4962579 F,0,133835,144697,0.8 R,1,133835,144697,0.09909668 M,1,134007,144697,-53,380,-16,384 V,1,134007,144697,0.5375484,0.4962579 M,0,144697,,-16,385 R,0,144697,,0.09909668 F,0,144697,144869,0.8,0 V,1,144697,144869,0.5375484,0.4962579,0.5375484,0.1
Sprite,Background,Centre,"SB/br.png",320,240 F,0,155817,155904,0,0.8 C,0,155904,,194,123,213 M,0,155904,156076,-53,380 V,1,155904,156076,0.5375484,0.1,0.5375484,0.4962579 F,0,155904,166766,0.8 R,1,155904,166766,0.09909668 M,1,156076,166766,-53,380,-16,384 V,1,156076,166766,0.5375484,0.4962579 M,0,166766,,-16,385 R,0,166766,,0.09909668 F,0,166766,166938,0.8,0 V,1,166766,166938,0.5375484,0.4962579,0.5375484,0.1
Sprite,Background,Centre,"SB/br.png",320,240 F,0,177886,177973,0,0.8 C,0,177973,,194,123,213 M,0,177973,178145,-53,380 V,1,177973,178145,0.5375484,0.1,0.5375484,0.4962579 F,0,177973,188835,0.8 R,1,177973,188835,0.09909668 M,1,178145,188835,-53,380,-16,384 V,1,178145,188835,0.5375484,0.4962579 M,0,188835,,-16,385 R,0,188835,,0.09909668 F,0,188835,189007,0.8,0 V,1,188835,189007,0.5375484,0.4962579,0.5375484,0.1
Sprite,Background,Centre,"SB/br.png",320,240 F,0,199955,200042,0,0.8 C,0,200042,,194,123,213 M,0,200042,200214,-53,380 V,1,200042,200214,0.5375484,0.1,0.5375484,0.4962579 F,0,200042,210904,0.8 R,1,200042,210904,0.09909668 M,1,200214,210904,-53,380,-16,384 V,1,200214,210904,0.5375484,0.4962579 M,0,210904,,-16,385 R,0,210904,,0.09909668 F,0,210904,211076,0.8,0 V,1,210904,211076,0.5375484,0.4962579,0.5375484,0.1
Sprite,Background,Centre,"SB/br.png",320,240 F,0,222024,222111,0,0.8 C,0,222111,,194,123,213 M,0,222111,222283,-53,380 V,1,222111,222283,0.5375484,0.1,0.5375484,0.4962579 F,0,222111,232973,0.8 R,1,222111,232973,0.09909668 M,1,222283,232973,-53,380,-16,384 V,1,222283,232973,0.5375484,0.4962579 M,0,232973,,-16,385 R,0,232973,,0.09909668 F,0,232973,233145,0.8,0 V,1,232973,233145,0.5375484,0.4962579,0.5375484,0.1
Sprite,Background,Centre,"SB/br.png",320,240 F,0,45472,45559,0,0.8 C,0,45558,,103,199,160 M,0,45559,45731,-53,380 V,1,45559,45731,0.5375484,0.1,0.5375484,0.4962579 F,0,45559,56421,0.8 R,1,45559,56421,0.09909668 M,1,45731,56421,-53,380,-16,384 V,1,45731,56421,0.5375484,0.4962579 M,0,56421,,-16,385 R,0,56421,,0.09909668 F,0,56421,56593,0.8,0 V,1,56421,56593,0.5375484,0.4962579,0.5375484,0.1
Sprite,Background,Centre,"SB/br.png",320,240 F,0,67541,67628,0,0.8 C,0,67627,,103,199,160 M,0,67628,67800,-53,380 V,1,67628,67800,0.5375484,0.1,0.5375484,0.4962579 F,0,67628,78490,0.8 R,1,67628,78490,0.09909668 M,1,67800,78490,-53,380,-16,384 V,1,67800,78490,0.5375484,0.4962579 M,0,78490,,-16,385 R,0,78490,,0.09909668 F,0,78490,78662,0.8,0 V,1,78490,78662,0.5375484,0.4962579,0.5375484,0.1
Sprite,Background,Centre,"SB/br.png",320,240 F,0,89610,89697,0,0.8 C,0,89696,,103,199,160 M,0,89697,89869,-53,380 V,1,89697,89869,0.5375484,0.1,0.5375484,0.4962579 F,0,89697,100559,0.8 R,1,89697,100559,0.09909668 M,1,89869,100559,-53,380,-16,384 V,1,89869,100559,0.5375484,0.4962579 M,0,100559,,-16,385 R,0,100559,,0.09909668 F,0,100559,100731,0.8,0 V,1,100559,100731,0.5375484,0.4962579,0.5375484,0.1
Sprite,Background,Centre,"SB/br.png",320,240 F,0,12369,12456,0,0.8 C,0,12455,,103,199,160 M,0,12456,12628,-53,380 V,1,12456,12628,0.5375484,0.1,0.5375484,0.4962579 F,0,12456,23318,0.8 R,1,12456,23318,0.09909668 M,1,12628,23318,-53,380,-16,384 V,1,12628,23318,0.5375484,0.4962579 M,0,23318,,-16,385 R,0,23318,,0.09909668 F,0,23318,23490,0.8,0 V,1,23318,23490,0.5375484,0.4962579,0.5375484,0.1
Sprite,Background,Centre,"SB/br.png",320,240 F,0,122714,122801,0,0.8 C,0,122800,,103,199,160 M,0,122801,122973,-53,380 V,1,122801,122973,0.5375484,0.1,0.5375484,0.4962579 F,0,122801,133663,0.8 R,1,122801,133663,0.09909668 M,1,122973,133663,-53,380,-16,384 V,1,122973,133663,0.5375484,0.4962579 M,0,133663,,-16,385 R,0,133663,,0.09909668 F,0,133663,133835,0.8,0 V,1,133663,133835,0.5375484,0.4962579,0.5375484,0.1
Sprite,Background,Centre,"SB/br.png",320,240 F,0,144783,144870,0,0.8 C,0,144869,,103,199,160 M,0,144870,145042,-53,380 V,1,144870,145042,0.5375484,0.1,0.5375484,0.4962579 F,0,144870,155732,0.8 R,1,144870,155732,0.09909668 M,1,145042,155732,-53,380,-16,384 V,1,145042,155732,0.5375484,0.4962579 M,0,155732,,-16,385 R,0,155732,,0.09909668 F,0,155732,155904,0.8,0 V,1,155732,155904,0.5375484,0.4962579,0.5375484,0.1
Sprite,Background,Centre,"SB/br.png",320,240 F,0,166852,166939,0,0.8 C,0,166938,,103,199,160 M,0,166939,167111,-53,380 V,1,166939,167111,0.5375484,0.1,0.5375484,0.4962579 F,0,166939,177801,0.8 R,1,166939,177801,0.09909668 M,1,167111,177801,-53,380,-16,384 V,1,167111,177801,0.5375484,0.4962579 M,0,177801,,-16,385 R,0,177801,,0.09909668 F,0,177801,177973,0.8,0 V,1,177801,177973,0.5375484,0.4962579,0.5375484,0.1
Sprite,Background,Centre,"SB/br.png",320,240 F,0,188921,189008,0,0.8 C,0,189007,,103,199,160 M,0,189008,189180,-53,380 V,1,189008,189180,0.5375484,0.1,0.5375484,0.4962579 F,0,189008,199870,0.8 R,1,189008,199870,0.09909668 M,1,189180,199870,-53,380,-16,384 V,1,189180,199870,0.5375484,0.4962579 M,0,199870,,-16,385 R,0,199870,,0.09909668 F,0,199870,200042,0.8,0 V,1,199870,200042,0.5375484,0.4962579,0.5375484,0.1
Sprite,Background,Centre,"SB/br.png",320,240 F,0,210989,211076,0,0.8 C,0,211075,,103,199,160 M,0,211076,211248,-53,380 V,1,211076,211248,0.5375484,0.1,0.5375484,0.4962579 F,0,211076,221938,0.8 R,1,211076,221938,0.09909668 M,1,211248,221938,-53,380,-16,384 V,1,211248,221938,0.5375484,0.4962579 M,0,221938,,-16,385 R,0,221938,,0.09909668 F,0,221938,222110,0.8,0 V,1,221938,222110,0.5375484,0.4962579,0.5375484,0.1
//Storyboard Layer 1 (Fail)
//Storyboard Layer 2 (Pass)
//Storyboard Layer 3 (Foreground)
Sprite,Foreground,Centre,"SB/p.png",320,240 F,0,1421,1593,0,1 V,0,1421,1593,0.5953549,0.1,0.5953549,0.5705804 R,0,1593,,0.09909668 M,0,1593,12283,130,396,168,400 F,0,1593,12283,1 V,1,1593,12283,0.5953549,0.5705804 F,0,12283,,1 F,0,12283,12455,0.8,0 V,1,12283,12455,0.5953549,0.5705804,0.5375484,0.1
Sprite,Foreground,Centre,"SB/e.png",320,240 F,0,12455,12627,0,1 V,0,12455,12627,0.5953549,0.1,0.5953549,0.5705804 R,0,12627,,0.09909668 M,0,12627,23317,130,396,168,400 F,0,12627,23317,1 V,1,12627,23317,0.5953549,0.5705804 F,0,23317,,1 F,0,23317,23489,0.8,0 V,1,23317,23489,0.5953549,0.5705804,0.5375484,0.1
Sprite,Foreground,Centre,"SB/w.jpg",320,240 M,0,1421,,320,240 S,0,1421,,0.6283871 P,0,1421,,A F,0,1421,2800,0.7150968,0
Sprite,Foreground,Centre,"SB/w.jpg",320,240 M,0,12455,,320,240 S,0,12455,,0.6283871 P,0,12455,,A F,0,12455,13834,0.7150968,0
Sprite,Foreground,Centre,"SB/p.png",320,240 F,0,34524,34696,0,1 V,0,34524,34696,0.5953549,0.1,0.5953549,0.5705804 R,0,34696,,0.09909668 M,0,34696,45386,130,396,168,400 F,0,34696,45386,1 V,1,34696,45386,0.5953549,0.5705804 F,0,45386,,1 F,0,45386,45558,0.8,0 V,1,45386,45558,0.5953549,0.5705804,0.5375484,0.1
Sprite,Foreground,Centre,"SB/p.png",320,240 F,0,56593,56765,0,1 V,0,56593,56765,0.5953549,0.1,0.5953549,0.5705804 R,0,56765,,0.09909668 M,0,56765,67455,130,396,168,400 F,0,56765,67455,1 V,1,56765,67455,0.5953549,0.5705804 F,0,67455,,1 F,0,67455,67627,0.8,0 V,1,67455,67627,0.5953549,0.5705804,0.5375484,0.1
Sprite,Foreground,Centre,"SB/p.png",320,240 F,0,78662,78834,0,1 V,0,78662,78834,0.5953549,0.1,0.5953549,0.5705804 R,0,78834,,0.09909668 M,0,78834,89524,130,396,168,400 F,0,78834,89524,1 V,1,78834,89524,0.5953549,0.5705804 F,0,89524,,1 F,0,89524,89696,0.8,0 V,1,89524,89696,0.5953549,0.5705804,0.5375484,0.1
Sprite,Foreground,Centre,"SB/p.png",320,240 F,0,100731,100903,0,1 V,0,100731,100903,0.5953549,0.1,0.5953549,0.5705804 R,0,100903,,0.09909668 M,0,100903,111593,130,396,168,400 F,0,100903,111593,1 V,1,100903,111593,0.5953549,0.5705804 F,0,111593,,1 F,0,111593,111765,0.8,0 V,1,111593,111765,0.5953549,0.5705804,0.5375484,0.1
Sprite,Foreground,Centre,"SB/p.png",320,240 F,0,133834,134006,0,1 V,0,133834,134006,0.5953549,0.1,0.5953549,0.5705804 R,0,134006,,0.09909668 M,0,134006,144696,130,396,168,400 F,0,134006,144696,1 V,1,134006,144696,0.5953549,0.5705804 F,0,144696,,1 F,0,144696,144868,0.8,0 V,1,144696,144868,0.5953549,0.5705804,0.5375484,0.1
Sprite,Foreground,Centre,"SB/p.png",320,240 F,0,155903,156075,0,1 V,0,155903,156075,0.5953549,0.1,0.5953549,0.5705804 R,0,156075,,0.09909668 M,0,156075,166765,130,396,168,400 F,0,156075,166765,1 V,1,156075,166765,0.5953549,0.5705804 F,0,166765,,1 F,0,166765,166937,0.8,0 V,1,166765,166937,0.5953549,0.5705804,0.5375484,0.1
Sprite,Foreground,Centre,"SB/p.png",320,240 F,0,177972,178144,0,1 V,0,177972,178144,0.5953549,0.1,0.5953549,0.5705804 R,0,178144,,0.09909668 M,0,178144,188834,130,396,168,400 F,0,178144,188834,1 V,1,178144,188834,0.5953549,0.5705804 F,0,188834,,1 F,0,188834,189006,0.8,0 V,1,188834,189006,0.5953549,0.5705804,0.5375484,0.1
Sprite,Foreground,Centre,"SB/p.png",320,240 F,0,200041,200213,0,1 V,0,200041,200213,0.5953549,0.1,0.5953549,0.5705804 R,0,200213,,0.09909668 M,0,200213,210903,130,396,168,400 F,0,200213,210903,1 V,1,200213,210903,0.5953549,0.5705804 F,0,210903,,1 F,0,210903,211075,0.8,0 V,1,210903,211075,0.5953549,0.5705804,0.5375484,0.1
Sprite,Foreground,Centre,"SB/p.png",320,240 F,0,222110,222282,0,1 V,0,222110,222282,0.5953549,0.1,0.5953549,0.5705804 R,0,222282,,0.09909668 M,0,222282,232972,130,396,168,400 F,0,222282,232972,1 V,1,222282,232972,0.5953549,0.5705804 F,0,232972,,1 F,0,232972,233144,0.8,0 V,1,232972,233144,0.5953549,0.5705804,0.5375484,0.1
Sprite,Foreground,Centre,"SB/e.png",320,240 F,0,45558,45730,0,1 V,0,45558,45730,0.5953549,0.1,0.5953549,0.5705804 R,0,45730,,0.09909668 M,0,45730,56420,130,396,168,400 F,0,45730,56420,1 V,1,45730,56420,0.5953549,0.5705804 F,0,56420,,1 F,0,56420,56592,0.8,0 V,1,56420,56592,0.5953549,0.5705804,0.5375484,0.1
Sprite,Foreground,Centre,"SB/e.png",320,240 F,0,67627,67799,0,1 V,0,67627,67799,0.5953549,0.1,0.5953549,0.5705804 R,0,67799,,0.09909668 M,0,67799,78489,130,396,168,400 F,0,67799,78489,1 V,1,67799,78489,0.5953549,0.5705804 F,0,78489,,1 F,0,78489,78661,0.8,0 V,1,78489,78661,0.5953549,0.5705804,0.5375484,0.1
Sprite,Foreground,Centre,"SB/e.png",320,240 F,0,89696,89868,0,1 V,0,89696,89868,0.5953549,0.1,0.5953549,0.5705804 R,0,89868,,0.09909668 M,0,89868,100558,130,396,168,400 F,0,89868,100558,1 V,1,89868,100558,0.5953549,0.5705804 F,0,100558,,1 F,0,100558,100730,0.8,0 V,1,100558,100730,0.5953549,0.5705804,0.5375484,0.1
Sprite,Foreground,Centre,"SB/e.png",320,240 F,0,122800,122972,0,1 V,0,122800,122972,0.5953549,0.1,0.5953549,0.5705804 R,0,122972,,0.09909668 M,0,122972,133662,130,396,168,400 F,0,122972,133662,1 V,1,122972,133662,0.5953549,0.5705804 F,0,133662,,1 F,0,133662,133834,0.8,0 V,1,133662,133834,0.5953549,0.5705804,0.5375484,0.1
Sprite,Foreground,Centre,"SB/e.png",320,240 F,0,144869,145041,0,1 V,0,144869,145041,0.5953549,0.1,0.5953549,0.5705804 R,0,145041,,0.09909668 M,0,145041,155731,130,396,168,400 F,0,145041,155731,1 V,1,145041,155731,0.5953549,0.5705804 F,0,155731,,1 F,0,155731,155903,0.8,0 V,1,155731,155903,0.5953549,0.5705804,0.5375484,0.1
Sprite,Foreground,Centre,"SB/e.png",320,240 F,0,166938,167110,0,1 V,0,166938,167110,0.5953549,0.1,0.5953549,0.5705804 R,0,167110,,0.09909668 M,0,167110,177800,130,396,168,400 F,0,167110,177800,1 V,1,167110,177800,0.5953549,0.5705804 F,0,177800,,1 F,0,177800,177972,0.8,0 V,1,177800,177972,0.5953549,0.5705804,0.5375484,0.1
Sprite,Foreground,Centre,"SB/e.png",320,240 F,0,189007,189179,0,1 V,0,189007,189179,0.5953549,0.1,0.5953549,0.5705804 R,0,189179,,0.09909668 M,0,189179,199869,130,396,168,400 F,0,189179,199869,1 V,1,189179,199869,0.5953549,0.5705804 F,0,199869,,1 F,0,199869,200041,0.8,0 V,1,199869,200041,0.5953549,0.5705804,0.5375484,0.1
Sprite,Foreground,Centre,"SB/e.png",320,240 F,0,211076,211248,0,1 V,0,211076,211248,0.5953549,0.1,0.5953549,0.5705804 R,0,211248,,0.09909668 M,0,211248,221938,130,396,168,400 F,0,211248,221938,1 V,1,211248,221938,0.5953549,0.5705804 F,0,221938,,1 F,0,221938,222110,0.8,0 V,1,221938,222110,0.5953549,0.5705804,0.5375484,0.1
Sprite,Foreground,Centre,"SB/w.jpg",320,240 M,0,23489,,320,240 S,0,23489,,0.6283871 P,0,23489,,A F,0,23489,24868,0.7150968,0
Sprite,Foreground,Centre,"SB/w.jpg",320,240 M,0,34524,,320,240 S,0,34524,,0.6283871 P,0,34524,,A F,0,34524,35903,0.7150968,0
Sprite,Foreground,Centre,"SB/w.jpg",320,240 M,0,45558,,320,240 S,0,45558,,0.6283871 P,0,45558,,A F,0,45558,46937,0.7150968,0
Sprite,Foreground,Centre,"SB/w.jpg",320,240 M,0,111765,,320,240 S,0,111765,,0.6283871 P,0,111765,,A F,0,111765,113144,0.7150968,0
Sprite,Foreground,Centre,"SB/w.jpg",320,240 M,0,122800,,320,240 S,0,122800,,0.6283871 P,0,122800,,A F,0,122800,124179,0.7150968,0
Sprite,Foreground,Centre,"SB/w.jpg",320,240 M,0,133834,,320,240 S,0,133834,,0.6283871 P,0,133834,,A F,0,133834,135213,0.7150968,0
Sprite,Foreground,Centre,"SB/w.jpg",320,240 M,0,200041,,320,240 S,0,200041,,0.6283871 P,0,200041,,A F,0,200041,201420,0.7150968,0
Sprite,Foreground,Centre,"SB/w.jpg",320,240 M,0,211076,,320,240 S,0,211076,,0.6283871 P,0,211076,,A F,0,211076,212455,0.7150968,0
Sprite,Foreground,Centre,"SB/w.jpg",320,240 M,0,222110,,320,240 S,0,222110,,0.6283871 P,0,222110,,A F,0,222110,223489,0.7150968,0
Sprite,Foreground,Centre,"SB/w.jpg",320,240 M,0,56593,,320,240 S,0,56593,,0.6283871 C,0,56593,,255,128,255 P,0,56593,,A F,0,56593,57972,0.7150968,0
Sprite,Foreground,Centre,"SB/w.jpg",320,240 M,0,67627,,320,240 S,0,67627,,0.6283871 C,0,67627,,0,255,64 P,0,67627,,A F,0,67627,69006,0.7150968,0
Sprite,Foreground,Centre,"SB/w.jpg",320,240 M,0,89696,,320,240 S,0,89696,,0.6283871 C,0,89696,,0,255,64 P,0,89696,,A F,0,89696,91075,0.7150968,0
Sprite,Foreground,Centre,"SB/w.jpg",320,240 M,0,144869,,320,240 S,0,144869,,0.6283871 C,0,144869,,0,255,64 P,0,144869,,A F,0,144869,146248,0.7150968,0
Sprite,Foreground,Centre,"SB/w.jpg",320,240 M,0,166938,,320,240 S,0,166938,,0.6283871 C,0,166938,,0,255,64 P,0,166938,,A F,0,166938,168317,0.7150968,0
Sprite,Foreground,Centre,"SB/w.jpg",320,240 M,0,78662,,320,240 S,0,78662,,0.6283871 C,0,78662,,255,128,255 P,0,78662,,A F,0,78662,80041,0.7150968,0
Sprite,Foreground,Centre,"SB/w.jpg",320,240 M,0,155903,,320,240 S,0,155903,,0.6283871 C,0,155903,,255,128,255 P,0,155903,,A F,0,155903,157282,0.7150968,0
Sprite,Foreground,Centre,"SB/w.jpg",320,240 M,0,177972,,320,240 S,0,177972,,0.6283871 C,0,177972,,255,128,255 P,0,177972,,A F,0,177972,179351,0.7150968,0
Sprite,Foreground,Centre,"SB/w.jpg",320,240 M,0,62110,,320,240 S,0,62110,,0.6283871 C,0,62110,,255,128,255 P,0,62110,,A F,0,62110,63489,0.7150968,0
Sprite,Foreground,Centre,"SB/w.jpg",320,240 M,0,84179,,320,240 S,0,84179,,0.6283871 C,0,84179,,255,128,255 P,0,84179,,A F,0,84179,85558,0.7150968,0
Sprite,Foreground,Centre,"SB/w.jpg",320,240 M,0,161421,,320,240 S,0,161421,,0.6283871 C,0,161421,,255,128,255 P,0,161421,,A F,0,161421,162800,0.7150968,0
Sprite,Foreground,Centre,"SB/w.jpg",320,240 M,0,183489,,320,240 S,0,183489,,0.6283871 C,0,183489,,255,128,255 P,0,183489,,A F,0,183489,184868,0.7150968,0
Sprite,Foreground,Centre,"SB/w.jpg",320,240 M,0,73145,,320,240 S,0,73145,,0.6283871 C,0,73145,,0,255,64 P,0,73145,,A F,0,73145,74524,0.7150968,0
Sprite,Foreground,Centre,"SB/w.jpg",320,240 M,0,95214,,320,240 S,0,95214,,0.6283871 C,0,95214,,0,255,64 P,0,95214,,A F,0,95214,96593,0.7150968,0
Sprite,Foreground,Centre,"SB/w.jpg",320,240 M,0,150386,,320,240 S,0,150386,,0.6283871 C,0,150386,,0,255,64 P,0,150386,,A F,0,150386,151765,0.7150968,0
Sprite,Foreground,Centre,"SB/w.jpg",320,240 M,0,172455,,320,240 S,0,172455,,0.6283871 C,0,172455,,0,255,64 P,0,172455,,A F,0,172455,173834,0.7150968,0
//Storyboard Sound Samples

[TimingPoints]
1421,344.827586206897,4,2,1,80,1,0
20731,-100,4,3,1,80,0,0
34524,-125,4,2,0,70,0,0
45558,-100,4,2,1,90,0,0
51076,-100,4,3,1,80,0,0
55903,-133.333333333333,4,2,1,90,0,0
56593,-80,4,2,1,90,0,1
58145,-66.6666666666667,4,2,1,90,0,1
58662,-133.333333333333,4,2,1,90,0,1
59524,-66.6666666666667,4,2,1,90,0,1
61765,-80,4,2,1,90,0,1
63662,-66.6666666666667,4,2,1,90,0,1
64179,-133.333333333333,4,2,1,90,0,1
65041,-66.6666666666667,4,2,1,90,0,1
67627,-100,4,2,1,90,0,0
67972,-80,4,2,1,90,0,0
68145,-80,4,2,1,90,0,1
69179,-66.6666666666667,4,2,1,90,0,1
69696,-133.333333333333,4,2,1,90,0,1
70214,-66.6666666666667,4,2,1,90,0,1
72800,-80,4,2,1,90,0,1
74696,-66.6666666666667,4,2,1,90,0,1
75214,-133.333333333333,4,2,1,90,0,1
75903,-80,4,2,1,90,0,1
77627,-133.333333333333,4,2,1,90,0,1
77972,-80,4,2,1,90,0,1
78489,-66.6666666666667,4,2,1,90,0,1
78662,-80,4,2,1,90,0,1
80214,-66.6666666666667,4,2,1,90,0,1
84179,-80,4,2,1,90,0,1
85731,-66.6666666666667,4,2,1,90,0,1
86248,-133.333333333333,4,2,1,90,0,1
86765,-66.6666666666667,4,2,1,90,0,1
89696,-133.333333333333,4,2,1,90,0,0
90214,-100,4,2,1,90,0,0
90558,-80,4,2,1,90,0,1
91248,-66.6666666666667,4,2,1,90,0,1
95214,-80,4,2,1,90,0,1
96765,-66.6666666666667,4,2,1,90,0,1
97283,-133.333333333333,4,2,1,90,0,1
97972,-80,4,2,1,90,0,1
100386,-133.333333333333,4,2,1,90,0,1
100731,-100,4,2,1,70,0,0
109007,-100,4,3,1,70,0,0
122800,-125,4,2,0,70,0,0
133834,-125,4,2,1,80,0,0
139352,-100,4,3,1,70,0,0
140731,-100,4,3,1,80,0,0
142110,-100,4,3,1,90,0,0
144869,-80,4,2,1,90,0,1
146421,-66.6666666666667,4,2,1,90,0,1
146938,-133.333333333333,4,2,1,90,0,1
147627,-66.6666666666667,4,2,1,90,0,1
150041,-80,4,2,1,90,0,1
151938,-66.6666666666667,4,2,1,90,0,1
152455,-133.333333333333,4,2,1,90,0,1
153317,-66.6666666666667,4,2,1,90,0,1
155903,-100,4,2,1,90,0,0
156248,-80,4,2,1,90,0,0
156421,-80,4,2,1,90,0,1
157455,-66.6666666666667,4,2,1,90,0,1
157972,-133.333333333333,4,2,1,90,0,1
158489,-66.6666666666667,4,2,1,90,0,1
161421,-80,4,2,1,90,0,1
162972,-66.6666666666667,4,2,1,90,0,1
163489,-133.333333333333,4,2,1,90,0,1
164179,-66.6666666666667,4,2,1,90,0,1
166938,-80,4,2,1,90,0,1
168489,-66.6666666666667,4,2,1,90,0,1
172455,-80,4,2,1,90,0,1
174007,-66.6666666666667,4,2,1,90,0,1
174524,-133.333333333333,4,2,1,90,0,1
175041,-66.6666666666667,4,2,1,90,0,1
177972,-100,4,2,1,90,0,0
178317,-80,4,2,1,90,0,0
178489,-80,4,2,1,90,0,1
179524,-66.6666666666667,4,2,1,90,0,1
183489,-80,4,2,1,90,0,1
185041,-66.6666666666667,4,2,1,90,0,1
185558,-133.333333333333,4,2,1,90,0,1
186248,-66.6666666666667,4,2,1,90,0,1
188145,-100,4,2,1,90,0,1
189007,-100,4,2,1,70,0,0
211076,-100,4,2,1,80,0,0
230386,-100,4,3,1,80,0,0

[Colours]
Combo1 : 112,237,184
Combo2 : 139,116,201
Combo3 : 221,159,234
Combo4 : 17,123,70

[HitObjects]
144,220,1421,6,0,L|136:116,1,90,4|2,1:0|0:0,0:0:0:0:
187,55,1765,1,8,1:0:0:0:
281,151,1938,1,2,0:0:0:0:
281,151,2024,1,2,0:0:0:0:
281,151,2110,1,2,0:0:0:0:
357,103,2283,2,0,L|463:112,1,90,0|8,1:0|1:0,0:0:0:0:
494,34,2627,1,0,0:0:0:0:
503,223,2800,6,0,P|420:213|311:257,1,180,0|8,1:0|1:0,0:0:0:0:
176,320,3317,2,0,B|157:266|170:216|181:247|194:197|176:143,1,180,2|0,0:0|1:0,0:0:0:0:
56,65,3834,2,0,P|39:107|33:151,1,90,8|0,1:0|0:0,0:0:0:0:
82,227,4179,38,0,L|278:213,1,180,0|8,1:0|1:0,0:0:0:0:
187,109,4696,1,2,0:0:0:0:
187,109,4783,1,2,0:0:0:0:
187,109,4869,1,2,0:0:0:0:
392,78,5041,1,0,1:0:0:0:
289,132,5214,2,0,L|300:23,1,90,8|0,1:0|0:0,0:0:0:0:
489,71,5558,6,0,L|492:271,1,180,0|8,1:0|1:0,0:0:0:0:
271,329,6076,2,0,L|226:320,2,45,2|0|0,0:0|0:0|0:0,0:0:0:0:
359,312,6421,1,0,0:0:0:0:
289,132,6593,2,0,P|277:175|282:219,1,90,8|0,1:0|0:0,0:0:0:0:
462,189,6938,38,0,L|372:183,1,90,0|0,1:0|0:0,0:0:0:0:
359,312,7283,1,8,1:0:0:0:
237,221,7455,2,0,L|282:219,1,45,2|2,0:0|0:0,0:0:0:0:
372,183,7627,1,2,0:0:0:0:
298,42,7800,2,0,L|289:132,1,90,0|8,1:0|1:0,0:0:0:0:
448,84,8145,1,0,0:0:0:0:
453,234,8317,6,0,B|379:237|379:237|353:215|353:215|281:218,1,180,0|8,1:0|1:0,0:0:0:0:
192,340,8834,2,0,L|240:344,2,45,2|2|2,0:0|0:0|0:0,0:0:0:0:
160,256,9179,1,0,1:0:0:0:
36,284,9352,2,0,P|36:228|61:167,1,90,8|0,1:0|0:0,0:0:0:0:
242,121,9696,38,0,P|253:164|251:209,1,90,0|0,1:0|0:0,0:0:0:0:
192,339,10041,2,0,L|281:330,1,90,8|0,1:0|0:0,0:0:0:0:
289,333,10300,1,0,0:0:0:0:
297,336,10386,1,0,0:0:0:0:
369,282,10558,1,0,1:0:0:0:
444,332,10731,2,0,L|459:221,1,90,8|0,1:0|0:0,0:0:0:0:
351,111,11076,6,0,P|336:199|369:282,1,180,0|8,1:0|1:0,0:0:0:0:
473,148,11593,2,0,L|407:156,2,45
511,9,11938,2,0,L|452:3,1,45,0|0,1:0|1:0,0:0:0:0:
391,50,12110,2,0,P|347:62|274:51,1,90,8|2,1:0|0:0,0:0:0:0:
121,22,12455,6,0,L|129:123,1,90,4|0,1:0|0:0,0:0:0:0:
44,203,12800,1,8,1:0:0:0:
234,144,12972,1,2,0:0:0:0:
234,144,13058,1,2,0:0:0:0:
234,144,13145,1,2,0:0:0:0:
36,110,13317,1,0,1:0:0:0:
137,201,13489,2,0,L|145:302,1,90,8|0,1:0|0:0,0:0:0:0:
400,316,13834,6,0,B|346:295|346:295|221:340,1,180,0|8,1:0|1:0,0:0:0:0:
137,201,14352,1,2,0:0:0:0:
139,223,14438,1,2,0:0:0:0:
141,245,14524,1,2,0:0:0:0:
89,342,14696,1,0,1:0:0:0:
76,135,14869,2,0,P|114:116|165:117,1,90,8|0,1:0|0:0,0:0:0:0:
273,274,15214,38,0,L|265:184,1,90,0|0,1:0|0:0,0:0:0:0:
253,38,15558,1,8,1:0:0:0:
358,107,15731,2,0,L|411:101,2,45
160,115,16076,1,0,1:0:0:0:
295,185,16248,2,0,P|333:204|384:203,1,90,8|0,1:0|0:0,0:0:0:0:
253,38,16593,6,0,L|129:30,1,90,0|0,1:0|0:0,0:0:0:0:
26,191,16938,2,0,L|150:183,1,90,8|0,1:0|0:0,0:0:0:0:
124,188,17196,1,2,0:0:0:0:
133,191,17283,1,2,0:0:0:0:
295,185,17455,1,0,1:0:0:0:
230,132,17627,2,0,P|213:172|219:220,1,90,8|0,1:0|0:0,0:0:0:0:
384,185,17972,38,0,B|351:178|351:178|296:185,1,90,0|0,1:0|0:0,0:0:0:0:
261,332,18317,1,8,1:0:0:0:
218,217,18489,2,0,L|173:222,1,45,2|0,0:0|0:0,0:0:0:0:
144,303,18662,1,2,0:0:0:0:
374,289,18834,1,0,1:0:0:0:
218,217,19007,2,0,P|213:173|231:132,1,90,8|0,1:0|0:0,0:0:0:0:
296,51,19352,6,0,L|474:70,1,180,0|8,1:0|1:0,0:0:0:0:
340,181,19869,1,2,0:0:0:0:
317,183,19955,1,2,0:0:0:0:
295,185,20041,1,2,0:0:0:0:
405,287,20214,1,0,1:0:0:0:
200,303,20386,2,0,L|72:316,1,90,8|0,1:0|0:0,0:0:0:0:
49,195,20731,38,0,P|71:183|99:181,3,45
145,114,21076,2,0,P|163:131|173:157,3,45,8|0|0|0,1:0|0:0|0:0|0:0,0:0:0:0:
251,180,21421,2,0,P|240:202|218:220,3,45,0|0|0|0,0:0|0:0|1:0|0:0,0:0:0:0:
220,301,21765,2,0,P|195:297|171:282,3,45,8|0|0|0,1:0|0:0|0:0|0:0,0:0:0:0:
95,308,22110,5,0,1:0:0:0:
91,297,22196,1,0,0:0:0:0:
90,286,22282,1,0,0:0:0:0:
91,274,22368,1,0,0:0:0:0:
93,263,22455,37,8,1:0:0:0:
123,250,22541,1,0,0:0:0:0:
142,222,22627,1,0,0:0:0:0:
142,189,22713,1,0,0:0:0:0:
124,161,22800,5,0,0:0:0:0:
82,148,22886,1,0,0:0:0:0:
43,169,22972,1,0,1:0:0:0:
30,211,23058,1,0,0:0:0:0:
51,249,23145,37,8,1:0:0:0:
93,263,23231,1,0,0:0:0:0:
136,276,23317,1,0,0:0:0:0:
179,289,23403,1,0,0:0:0:0:
220,301,23489,5,4,1:0:0:0:
136,80,34524,6,0,L|144:248,1,144,4|0,1:0|0:0,0:0:0:0:
190,277,35041,1,0,0:0:0:0:
292,242,35214,2,0,P|341:246|461:280,1,144
495,160,35731,5,0,0:0:0:0:
495,160,35903,2,0,P|455:174|409:178,1,72
350,88,36248,1,0,0:0:0:0:
350,88,36420,2,0,P|328:124|295:157,1,72
192,126,36765,1,0,0:0:0:0:
192,126,36938,1,0,0:0:0:0:
142,277,37110,1,0,0:0:0:0:
54,227,37283,38,0,P|60:146|80:71,1,144
192,126,37800,2,0,B|236:141|277:130|252:121|293:110|338:126,1,144
470,43,38317,2,0,P|442:95|439:119,1,72
495,195,38662,6,0,L|500:292,1,72
381,341,39007,2,0,L|394:258,1,72
311,147,39352,1,0,0:0:0:0:
311,147,39524,1,0,0:0:0:0:
311,147,39696,1,0,0:0:0:0:
167,120,39869,1,0,0:0:0:0:
276,72,40041,38,0,L|266:240,1,144
221,271,40558,1,0,0:0:0:0:
315,323,40731,2,0,P|371:338|441:288,1,144
377,183,41248,5,0,0:0:0:0:
377,183,41420,2,0,P|365:217|365:253,1,72
233,340,41765,1,0,0:0:0:0:
233,340,41938,2,0,P|233:304|221:271,1,72
125,322,42283,1,0,0:0:0:0:
80,185,42455,2,0,L|176:179,1,72
226,50,42800,38,0,L|141:43,2,72
311,55,43317,1,0,0:0:0:0:
397,61,43489,2,0,P|412:96|408:132,1,72
260,224,43834,2,0,P|257:188|271:155,1,72
336,256,44179,6,0,L|168:268,1,144
129,231,44696,1,0,0:0:0:0:
200,149,44869,2,0,L|271:155,1,72
464,42,45214,1,0,0:0:0:0:
464,42,45386,1,0,0:0:0:0:
430,205,45558,6,0,L|420:115,1,90,4|0,1:0|0:0,0:0:0:0:
200,149,45903,2,0,L|186:279,1,90,0|0,3:0|0:0,0:0:0:0:
189,249,46162,1,0,0:0:0:0:
188,260,46248,1,0,3:0:0:0:
66,282,46421,1,0,0:0:0:0:
146,82,46593,2,0,P|190:63|238:72,1,90,0|0,3:0|0:0,0:0:0:0:
428,179,46938,6,0,P|383:184|343:165,1,90,0|0,3:0|0:0,0:0:0:0:
146,82,47283,2,0,L|45:90,1,90,0|0,3:0|0:0,0:0:0:0:
45,91,47541,1,0,0:0:0:0:
34,93,47627,1,0,3:0:0:0:
200,149,47800,1,0,0:0:0:0:
267,95,47972,2,0,P|283:56|276:5,1,90,0|0,3:0|0:0,0:0:0:0:
137,206,48317,38,0,P|131:250|147:291,1,90,0|0,3:0|0:0,0:0:0:0:
325,247,48662,2,0,L|235:242,1,90,0|0,3:0|0:0,0:0:0:0:
223,241,48921,1,0,0:0:0:0:
211,240,49007,1,0,3:0:0:0:
388,298,49179,1,0,0:0:0:0:
388,298,49352,2,0,P|403:256|399:212,1,90,0|0,3:0|0:0,0:0:0:0:
359,62,49696,5,0,3:0:0:0:
324,192,49869,1,0,0:0:0:0:
454,157,50041,1,0,3:0:0:0:
434,82,50214,1,0,0:0:0:0:
303,116,50386,2,0,L|199:138,1,90,0|0,3:0|0:0,0:0:0:0:
98,238,50731,2,0,L|186:220,1,90,0|0,3:0|0:0,0:0:0:0:
215,134,51076,37,8,1:0:0:0:
126,152,51248,1,0,0:0:0:0:
38,170,51420,1,0,0:0:0:0:
187,220,51593,5,8,1:0:0:0:
276,202,51765,1,0,0:0:0:0:
215,134,51937,1,0,0:0:0:0:
247,288,52110,37,8,1:0:0:0:
276,202,52283,1,0,0:0:0:0:
187,220,52455,1,0,0:0:0:0:
305,116,52627,5,8,1:0:0:0:
215,134,52800,1,0,0:0:0:0:
276,202,52972,1,0,0:0:0:0:
323,20,53145,38,0,L|196:11,1,90,8|0,1:0|0:0,0:0:0:0:
374,175,53489,2,0,L|501:166,1,90,8|0,1:0|0:0,0:0:0:0:
414,88,53834,5,8,1:0:0:0:
431,252,54007,1,0,0:0:0:0:
318,117,54179,37,8,1:0:0:0:
331,242,54352,1,0,0:0:0:0:
218,107,54524,5,8,1:0:0:0:
235,271,54696,1,2,0:1:0:0:
122,136,54869,37,8,1:0:0:0:
135,261,55041,1,2,0:1:0:0:
122,136,55214,6,0,L|116:75,1,45
213,62,55386,2,0,L|218:107,1,45,2|0,0:1|0:0,0:0:0:0:
318,117,55558,2,0,L|312:56,1,45,2|0,0:1|0:0,0:0:0:0:
409,43,55731,2,0,L|414:88,1,45,2|0,0:1|0:0,0:0:0:0:
417,254,55903,38,2,B|436:224|477:214|477:214|449:173|378:171|332:218,1,236.250009012223,14|0,3:0|0:0,0:1:0:0:
349,294,56593,22,0,L|204:284,1,112.5,6|0,1:0|0:0,0:0:0:0:
116,132,56938,2,0,B|183:128|183:128|205:155|205:155|281:151,1,168.75,10|0,1:0|0:0,0:0:0:0:
243,71,57283,1,4,3:0:0:0:
148,211,57455,1,0,1:0:0:0:
317,224,57627,2,0,P|370:205|434:213,1,112.5,8|0,1:0|0:0,0:0:0:0:
387,340,57972,1,0,1:0:0:0:
236,285,58145,6,0,L|232:217,1,67.5000025749208,2|0,0:1|0:0,0:0:0:0:
87,180,58317,2,0,L|147:210,1,67.5000025749208,10|0,1:1|0:0,0:0:0:0:
252,103,58490,2,0,L|195:140,1,67.5000025749208,2|0,0:1|0:0,0:0:0:0:
85,92,58662,38,0,P|88:68|94:57,1,33.7500012874604,2|0,3:0|0:0,0:0:0:0:
181,0,58834,2,0,P|187:15|188:32,1,33.7500012874604,2|0,1:3|0:0,0:0:0:0:
252,103,59007,2,0,P|286:103|335:84,1,67.5000025749208,8|2,1:0|0:0,0:0:0:0:
386,50,59352,1,0,1:0:0:0:
472,168,59524,6,0,B|408:192|408:192|388:260,1,135.000005149842,2|8,0:1|1:0,0:0:0:0:
508,340,59869,2,0,L|500:252,1,67.5000025749208,2|2,0:0|0:1,0:0:0:0:
408,193,60041,2,0,P|332:185|259:182,1,135.000005149842,0|2,3:1|1:0,0:0:0:0:
117,228,60386,1,8,1:0:0:0:
155,69,60558,2,0,P|186:58|226:53,1,67.5000025749208,2|0,0:1|0:0,0:0:0:0:
315,113,60731,38,0,B|294:173|309:230|320:195|335:252|315:312,1,202.500007724762,2|0,1:0|0:0,0:0:0:0:
237,344,61076,1,8,1:0:0:0:
476,367,61248,2,0,L|468:273,1,67.5000025749208,2|0,0:1|0:0,0:0:0:0:
426,230,61421,1,2,0:0:0:0:
494,147,61593,1,0,1:0:0:0:
437,55,61765,2,2,P|371:40|312:37,1,112.5,8|2,1:1|0:0,0:1:0:0:
253,184,62110,6,0,P|308:179|363:165,1,112.5,2|0,1:0|0:0,0:0:0:0:
198,93,62455,2,0,B|148:160|148:160|169:242,1,168.75,10|0,1:0|0:0,0:0:0:0:
203,321,62800,1,4,3:0:0:0:
253,184,62972,1,0,1:0:0:0:
382,253,63145,2,0,L|519:245,1,112.5,8|0,1:0|0:0,0:0:0:0:
378,107,63489,1,0,1:0:0:0:
253,184,63662,38,0,P|256:142|275:105,1,67.5000025749208,2|0,0:1|0:0,0:0:0:0:
382,253,63834,2,0,P|344:271|302:273,1,67.5000025749208,10|0,1:1|0:0,0:0:0:0:
378,107,64007,2,0,P|412:130|435:165,1,67.5000025749208,2|0,0:1|0:0,0:0:0:0:
319,274,64179,6,0,L|323:240,1,33.7500012874604,2|0,3:0|0:0,0:0:0:0:
265,118,64352,2,0,L|291:138,1,33.7500012874604,2|0,1:3|0:0,0:0:0:0:
428,150,64524,2,0,L|396:162,2,33.7500012874604,8|0|2,1:0|0:0|0:0,0:0:0:0:
455,73,64869,1,0,1:0:0:0:
301,11,65041,38,0,L|156:23,1,135.000005149842,2|8,0:1|1:0,0:0:0:0:
161,131,65386,1,2,0:0:0:0:
195,128,65472,1,2,0:1:0:0:
228,125,65558,2,0,L|239:59,1,67.5000025749208,0|0,3:0|0:0,0:0:0:0:
373,43,65731,1,2,1:0:0:0:
326,210,65903,1,8,1:0:0:0:
470,127,66076,1,2,0:1:0:0:
423,294,66248,6,0,B|364:274|307:288|342:300|285:315|224:294,1,202.500007724762,2|0,1:0|0:0,0:0:0:0:
149,258,66593,1,8,1:0:0:0:
299,83,66765,2,0,P|329:143|326:210,1,135.000005149842,2|0,0:1|0:0,0:0:0:0:
149,258,67110,2,0,L|155:182,1,67.5000025749208,2|4,1:0|3:0,0:0:0:0:
162,108,67283,1,10,1:0:0:0:
314,196,67455,1,2,0:0:0:0:
73,315,67627,6,0,L|65:215,1,90,0|0,1:0|1:0,0:0:0:0:
124,29,67972,2,0,L|131:114,1,56.25,8|0,1:0|0:0,0:0:0:0:
219,142,68145,6,0,B|156:146|156:146|120:122|120:122|57:127,1,168.75,6|0,0:1|0:0,0:0:0:0:
0,73,68489,1,0,1:0:0:0:
216,59,68662,2,0,L|333:50,1,112.5,8|0,1:0|0:0,0:0:0:0:
147,182,69007,1,0,1:0:0:0:
219,251,69179,38,0,P|247:272|288:279,1,67.5000025749208,2|0,0:1|0:0,0:0:0:0:
372,227,69352,2,0,P|376:192|361:153,1,67.5000025749208,10|0,1:0|0:0,0:0:0:0:
274,106,69524,2,0,P|241:119|215:151,1,67.5000025749208,2|0,0:1|0:0,0:0:0:0:
224,272,69696,6,0,L|235:327,1,33.7500012874604,2|0,3:0|0:0,0:0:0:0:
140,250,69869,2,0,L|134:217,1,33.7500012874604,2|0,1:3|0:0,0:0:0:0:
69,300,70041,2,0,L|75:333,1,33.7500012874604,8|0,1:0|0:0,0:0:0:0:
134,217,70214,38,2,B|125:167|125:167|136:140|136:140|126:82,1,135.000005149842,0|0,0:1|1:1,0:1:0:0:
328,20,70558,2,0,P|274:55|194:48,1,135.000005149842,2|8,0:1|1:0,0:0:0:0:
62,185,70903,1,2,0:0:0:0:
82,158,70989,1,0,0:0:0:0:
112,142,71076,2,0,P|147:140|182:154,1,67.5000025749208,2|0,0:1|0:0,0:0:0:0:
256,192,71248,1,2,1:0:0:0:
318,87,71421,6,0,L|330:6,1,67.5000025749208,8|0,0:0|0:0,0:0:0:0:
374,223,71593,2,0,L|386:304,1,67.5000025749208,2|0,0:1|0:0,0:0:0:0:
494,143,71765,38,0,B|427:105|364:148|364:148|401:145|433:173,1,202.500007724762,2|0,1:0|0:0,0:0:0:0:
374,223,72110,1,8,1:0:0:0:
241,274,72283,2,0,P|274:271|320:285,1,67.5000025749208,2|0,0:1|0:0,0:0:0:0:
386,306,72455,1,2,0:0:0:0:
295,196,72627,1,2,1:2:0:0:
163,248,72800,2,0,L|152:135,1,112.5,8|2,1:0|0:0,0:0:0:0:
399,194,73145,6,0,L|386:307,1,112.5,2|0,1:0|0:0,0:0:0:0:
333,133,73489,2,0,P|402:105|479:154,1,168.75,10|0,1:0|0:0,0:0:0:0:
490,177,73834,1,4,3:0:0:0:
307,250,74007,1,0,1:0:0:0:
333,133,74179,2,0,B|319:87|319:87|323:61|323:61|312:22,1,112.5,8|0,1:0|0:0,0:0:0:0:
251,165,74524,1,0,1:0:0:0:
320,221,74696,38,0,P|355:220|384:207,1,67.5000025749208,2|0,0:1|0:0,0:0:0:0:
416,101,74869,2,0,P|397:71|371:52,1,67.5000025749208,10|0,1:1|0:0,0:0:0:0:
264,78,75041,2,0,P|247:108|244:140,1,67.5000025749208,2|0,0:1|0:0,0:0:0:0:
375,239,75214,6,0,L|384:206,1,33.7500012874604,2|0,3:3|0:0,0:0:0:0:
450,279,75386,2,0,L|482:288,1,33.7500012874604,2|0,1:3|0:0,0:0:0:0:
411,351,75558,2,0,L|401:383,1,33.7500012874604,8|0,1:0|0:3,0:3:0:0:
334,315,75731,2,0,L|301:305,1,33.7500012874604,2|0,3:3|0:0,0:0:0:0:
144,268,75903,38,0,B|193:233|251:243|251:243|218:267|221:319,1,168.75,2|0,1:0|0:0,0:0:0:0:
301,305,76248,1,8,1:0:0:0:
103,346,76421,2,0,P|59:284|84:201,1,168.75,2|0,0:1|0:0,0:0:0:0:
146,152,76765,1,0,1:0:0:0:
33,18,76938,2,0,L|58:128,1,112.5,10|2,1:0|0:1,0:0:0:0:
70,164,77196,1,0,0:0:0:0:
84,200,77282,6,0,P|131:228|191:216,1,112.5,0|0,1:0|0:0,0:0:0:0:
280,66,77627,2,0,L|268:9,1,33.7500012874604,8|0,1:0|0:0,0:0:0:0:
341,120,77800,2,0,L|329:177,1,33.7500012874604
358,41,77972,38,0,P|409:20|461:35,1,112.5,0|0,1:0|1:0,0:0:0:0:
432,155,78231,1,0,1:0:0:0:
432,155,78317,2,0,L|413:93,1,56.25,8|0,1:0|0:0,0:0:0:0:
509,184,78489,6,0,B|506:208|506:208|492:226|492:226|489:250,1,67.5000025749208,2|0,0:1|0:0,0:0:0:0:
472,341,78662,21,4,1:0:0:0:
265,258,78834,2,0,B|305:218|305:218|363:235,1,112.5,2|8,0:1|1:0,0:0:0:0:
177,331,79179,2,0,L|166:193,1,112.5,2|2,0:1|0:0,0:0:0:0:
183,194,79438,1,2,0:0:0:0:
198,170,79524,1,0,1:0:0:0:
33,232,79696,2,2,P|25:145|24:50,1,168.75,8|0,1:1|0:0,0:3:0:0:
101,98,80041,1,0,1:0:0:0:
221,24,80214,38,0,L|305:32,1,67.5000025749208,2|0,0:1|0:0,0:0:0:0:
341,188,80386,2,0,L|273:194,1,67.5000025749208,8|0,1:0|0:0,0:0:0:0:
379,84,80558,1,2,0:1:0:0:
429,88,80644,1,2,0:0:0:0:
479,93,80730,1,2,0:1:0:0:
273,194,80903,6,0,P|264:245|267:278,1,67.5000025749208,2|0,1:2|0:0,0:0:0:0:
483,235,81075,2,0,P|474:202|459:172,1,67.5000025749208,10|0,1:0|0:0,0:0:0:0:
374,243,81248,2,0,L|389:404,1,135.000005149842,2|0,0:1|1:0,0:0:0:0:
190,235,81593,38,0,B|173:167|173:167|226:114,1,135.000005149842,2|8,0:1|1:0,0:0:0:0:
380,144,81938,1,2,0:0:0:0:
377,193,82024,1,2,0:0:0:0:
374,243,82110,2,0,L|369:330,1,67.5000025749208,2|0,0:1|0:0,0:0:0:0:
221,366,82283,2,0,L|190:235,1,135.000005149842,2|8,1:0|1:0,0:0:0:0:
311,76,82627,6,0,P|306:109|295:141,1,67.5000025749208,2|0,0:1|0:0,0:0:0:0:
188,44,82800,2,0,B|246:24|303:38|268:50|325:65|386:44,1,202.500007724762,2|0,1:0|0:0,0:0:0:0:
466,22,83145,1,8,1:0:0:0:
395,249,83317,2,0,B|376:277|376:277|373:237,1,67.5000025749208,2|0,0:1|0:0,0:0:0:0:
412,160,83489,37,2,0:0:0:0:
331,170,83662,1,0,1:0:0:0:
250,180,83834,1,8,1:0:0:0:
169,190,84007,1,2,0:0:0:0:
58,107,84179,5,0,1:0:0:0:
265,68,84352,2,0,L|245:218,1,112.5,2|8,0:1|1:0,0:0:0:0:
110,341,84696,2,0,L|99:273,1,56.25,2|0,0:1|0:0,0:0:0:0:
88,200,84869,1,2,0:0:0:0:
115,204,84955,1,2,0:0:0:0:
142,208,85041,1,0,1:0:0:0:
14,46,85214,2,0,B|139:33|139:33|100:52,1,168.75,10|0,1:0|0:0,0:0:0:0:
51,123,85558,1,0,1:0:0:0:
265,68,85731,38,0,P|276:100|271:142,1,67.5000025749208,2|0,0:1|0:0,0:0:0:0:
206,230,85903,2,0,L|285:239,1,67.5000025749208,10|0,1:0|0:0,0:0:0:0:
472,149,86076,2,0,L|406:160,1,67.5000025749208,2|0,0:1|0:0,0:0:0:0:
337,313,86248,6,0,L|344:268,1,33.7500012874604,2|0,3:0|0:0,0:0:0:0:
414,302,86421,2,0,L|421:257,1,33.7500012874604,2|0,1:3|0:0,0:0:0:0:
491,291,86593,2,0,L|498:246,1,33.7500012874604,8|0,1:0|0:0,0:0:0:0:
328,178,86765,38,0,L|337:326,1,135.000005149842,2|0,0:1|1:0,0:0:0:0:
206,230,87110,2,0,P|208:160|227:93,1,135.000005149842,2|8,0:1|1:0,0:0:0:0:
438,116,87455,1,2,0:1:0:0:
417,143,87541,1,2,0:0:0:0:
392,165,87627,2,0,P|361:179|328:178,1,67.5000025749208,2|0,0:2|0:0,0:0:0:0:
297,21,87800,2,0,P|327:7|361:8,1,67.5000025749208,2|0,1:1|0:0,0:0:0:0:
344,92,87972,1,8,1:0:0:0:
134,35,88145,2,0,L|140:102,1,67.5000025749208,2|0,0:1|0:0,0:0:0:0:
255,252,88317,6,0,B|260:179|260:179|272:147|272:147|264:95|264:95|252:141,1,202.500007724762,2|0,1:0|0:0,0:0:0:0:
336,205,88662,1,8,1:0:0:0:
81,293,88834,2,0,B|66:226|66:226|119:170,1,135.000005149842,2|0,0:1|0:0,0:0:0:0:
212,341,89179,1,2,1:0:0:0:
194,342,89266,1,4,3:0:0:0:
178,344,89352,1,10,1:0:0:0:
81,293,89524,1,2,0:0:0:0:
255,252,89696,6,0,B|312:203|374:243|374:243|336:265,1,168.750006437302,2|0,3:0|0:0,0:0:0:0:
236,243,90214,6,0,L|222:113,1,90,2|0,0:1|0:0,0:0:0:0:
303,40,90472,1,0,0:0:0:0:
303,40,90558,2,0,P|296:69|281:91,1,56.25,4|0,1:0|0:0,0:0:0:0:
226,153,90731,38,0,B|161:133|161:133|101:153|101:153|123:158|135:170,1,168.75,10|0,1:0|0:0,0:0:0:0:
84,234,91076,1,0,1:0:0:0:
236,243,91248,6,0,L|314:233,1,67.5000025749208,2|0,0:1|0:0,0:0:0:0:
445,183,91421,2,0,L|367:173,1,67.5000025749208,10|0,1:0|0:0,0:0:0:0:
289,279,91593,1,2,0:0:0:0:
296,325,91679,1,2,0:0:0:0:
324,362,91765,1,2,0:1:0:0:
445,183,91938,38,0,P|462:155|466:119,1,67.5000025749208,2|0,1:2|0:0,0:0:0:0:
281,172,92110,2,0,P|284:205|302:234,1,67.5000025749208,10|0,1:0|0:0,0:0:0:0:
336,103,92283,2,0,P|274:85|212:116,1,135.000005149842,2|0,0:1|1:0,0:0:0:0:
445,183,92627,6,0,B|447:135|447:135|464:98|464:98|466:44,1,135.000005149842,2|8,0:1|1:0,0:0:0:0:
281,172,92972,1,2,0:1:0:0:
284,205,93058,1,2,0:0:0:0:
302,234,93145,2,0,P|326:258|359:269,1,67.5000025749208,2|0,0:0|0:0,0:0:0:0:
336,103,93317,2,0,P|274:85|212:116,1,135.000005149842,2|8,0:1|1:0,0:0:0:0:
90,276,93662,2,0,P|123:264|158:267,1,67.5000025749208,2|0,0:1|0:0,0:0:0:0:
26,222,93834,38,0,B|3:170|27:127|27:127|52:82|25:28,1,202.500007724762,2|0,1:0|0:0,0:0:0:0:
83,86,94179,1,8,1:0:0:0:
291,39,94352,2,0,P|258:27|223:30,1,67.5000025749208,2|0,0:1|0:0,0:0:0:0:
185,103,94524,5,2,0:0:0:0:
200,183,94696,1,0,1:0:0:0:
213,265,94869,1,8,1:0:0:0:
230,343,95041,1,2,0:0:0:0:
277,211,95214,37,0,1:0:0:0:
126,362,95386,2,0,P|175:336|232:344,1,112.5,2|8,0:1|1:0,0:0:0:0:
288,155,95731,2,0,L|277:211,1,56.25,2|0,0:1|0:0,0:0:0:0:
291,290,95903,1,2,0:0:0:0:
318,297,95989,1,2,0:0:0:0:
346,297,96075,1,0,1:0:0:0:
482,236,96248,6,0,B|429:186|362:220|362:220|397:224|425:265,1,168.75,10|0,1:0|0:0,0:0:0:0:
346,297,96593,1,0,1:0:0:0:
145,222,96765,38,0,P|127:190|126:152,1,67.5000025749208,2|0,0:1|0:0,0:0:0:0:
233,258,96938,2,0,P|214:289|181:309,1,67.5000025749208,10|0,1:0|0:0,0:0:0:0:
221,164,97110,2,0,P|257:164|291:182,1,67.5000025749208,2|0,0:1|0:0,0:0:0:0:
145,222,97283,6,0,L|86:230,1,33.7500012874604,2|0,3:0|0:0,0:0:0:0:
221,164,97455,2,0,L|254:159,1,33.7500012874604,2|0,1:3|0:0,0:0:0:0:
145,106,97627,2,0,L|86:114,1,33.7500012874604,8|0,1:0|0:0,0:0:0:0:
221,48,97800,2,0,L|254:43,1,33.7500012874604,2|0,3:0|0:0,0:0:0:0:
136,128,97972,38,0,B|12:145|12:145|46:146|66:172,1,168.75,2|0,1:0|0:0,0:0:0:0:
7,232,98317,1,8,1:0:0:0:
189,292,98489,2,0,P|268:269|337:317,1,168.75,2|0,1:0|0:0,0:0:0:0:
254,358,98834,1,0,1:0:0:0:
106,333,99007,2,0,L|96:266,1,56.25,10|0,1:0|0:0,0:0:0:0:
209,146,99179,2,0,L|200:201,1,56.25,2|0,1:0|0:0,0:0:0:0:
189,292,99352,5,0,3:0:0:0:
273,256,99524,1,0,3:0:0:0:
380,334,99696,1,0,3:2:0:0:
420,166,99869,1,0,3:0:0:0:
273,256,100041,1,0,3:0:0:0:
484,224,100214,1,0,3:0:0:0:
484,224,100300,1,0,3:0:0:0:
484,224,100386,38,0,P|504:181|498:127,1,101.250003862381,8|0,1:0|0:0,0:0:0:0:
482,112,100731,22,0,L|300:104,1,180,4|8,1:2|1:0,0:0:0:0:
224,58,101248,2,0,L|146:70,2,45,6|0|2,0:0|0:0|0:0,0:0:0:0:
388,141,101593,1,0,1:0:0:0:
282,190,101765,2,0,P|297:114|313:92,1,90,8|0,1:0|0:0,0:0:0:0:
367,226,102110,6,0,P|277:224|195:259,1,180,0|8,1:0|1:0,0:0:0:0:
116,216,102627,2,0,L|120:156,1,45,2|2,0:0|0:0,0:0:0:0:
129,92,102800,1,2,0:0:0:0:
282,190,102972,1,0,1:0:0:0:
338,48,103144,2,0,L|248:53,1,90,8|0,1:0|0:0,0:0:0:0:
129,92,103489,38,0,L|108:274,1,180,0|8,1:0|1:0,0:0:0:0:
221,346,104007,1,2,0:0:0:0:
220,337,104093,1,2,0:0:0:0:
219,328,104179,1,2,0:0:0:0:
203,239,104352,1,0,1:0:0:0:
288,269,104524,2,0,P|334:269|376:244,1,90,8|0,1:0|0:0,0:0:0:0:
316,91,104869,6,0,L|312:180,1,90,0|0,1:0|0:0,0:0:0:0:
203,239,105214,2,0,L|189:138,1,90,8|2,1:0|0:0,0:0:0:0:
198,128,105472,1,0,0:0:0:0:
205,106,105558,1,0,0:0:0:0:
75,146,105731,1,0,1:0:0:0:
106,14,105903,2,0,P|147:12|194:31,1,90,8|0,1:0|0:0,0:0:0:0:
283,129,106248,38,0,L|470:119,1,180,0|8,1:0|1:0,0:0:0:0:
392,235,106765,2,0,L|336:227,2,45,2|0|0,0:0|0:0|0:0,0:0:0:0:
375,100,107110,1,0,1:0:0:0:
479,254,107283,2,0,L|490:371,1,90,8|0,1:0|0:0,0:0:0:0:
310,371,107627,6,0,P|291:309|345:202,1,180,0|8,1:0|1:0,0:0:0:0:
458,157,108145,1,2,0:0:0:0:
460,166,108231,1,2,0:0:0:0:
463,175,108317,1,2,0:0:0:0:
375,100,108489,1,0,1:0:0:0:
465,57,108662,1,8,1:0:0:0:
293,45,108834,1,0,0:0:0:0:
287,145,109007,38,0,P|261:151|224:149,3,45,0|0|0|0,1:0|0:0|0:0|0:0,0:0:0:0:
175,90,109352,2,0,P|149:84|112:86,3,45,8|0|0|0,1:0|0:0|0:0|0:0,0:0:0:0:
57,135,109696,5,0,0:0:0:0:
60,158,109782,1,0,0:0:0:0:
62,180,109868,1,0,1:0:0:0:
64,203,109954,1,0,0:0:0:0:
66,225,110040,1,8,1:0:0:0:
68,247,110127,1,0,0:0:0:0:
70,270,110213,1,0,0:0:0:0:
72,292,110299,1,0,0:0:0:0:
74,315,110386,38,0,L|136:324,1,45,0|0,1:0|0:0,0:0:0:0:
201,355,110558,2,0,L|263:346,1,45
280,264,110731,2,0,L|342:273,1,45,8|0,1:0|0:0,0:0:0:0:
407,304,110903,2,0,L|469:295,1,45
486,213,111076,5,0,0:0:0:0:
462,189,111162,1,0,0:0:0:0:
431,175,111248,1,0,1:0:0:0:
398,175,111334,1,0,0:0:0:0:
366,187,111421,2,0,L|276:174,1,90,8|0,1:0|0:0,0:0:0:0:
327,49,111765,37,4,1:0:0:0:
366,318,122627,22,0,L|330:310,2,30,2|2|2,2:0|2:0|2:0,0:0:0:0:
376,304,122800,6,0,P|362:235|384:155,1,144
441,111,123317,1,0,0:0:0:0:
339,33,123489,2,0,L|182:41,1,144
48,147,124007,37,0,0:0:0:0:
48,147,124179,2,0,P|88:148|120:158,1,72
268,210,124524,1,0,0:0:0:0:
268,210,124696,2,0,P|228:211|196:221,1,72
48,293,125041,1,0,0:0:0:0:
48,293,125214,2,0,P|88:294|120:304,1,72
255,363,125558,5,0,0:0:0:0:
268,210,125731,2,0,L|261:308,1,72
251,193,126076,2,0,L|258:291,1,72
268,176,126421,2,0,L|261:274,1,72
251,159,126765,37,0,0:0:0:0:
347,214,126938,2,0,P|381:224|421:219,1,72
278,83,127283,2,0,P|242:79|208:89,1,72
153,222,127627,1,0,0:0:0:0:
153,222,127800,1,0,0:0:0:0:
153,222,127972,1,0,0:0:0:0:
88,91,128145,1,0,0:0:0:0:
82,251,128317,6,0,L|233:258,1,144
288,200,128834,1,0,0:0:0:0:
400,323,129007,2,0,P|387:252|407:177,1,144
439,67,129524,37,0,0:0:0:0:
439,67,129696,2,0,P|408:90|366:99,1,72
229,94,130041,1,0,0:0:0:0:
229,94,130214,2,0,P|263:103|291:125,1,72
372,14,130558,1,0,0:0:0:0:
182,23,130731,2,0,L|89:27,1,72
26,133,131076,6,0,P|17:98|21:62,2,72
92,189,131593,1,0,0:0:0:0:
158,245,131765,2,0,L|251:249,1,72
373,319,132110,2,0,L|280:323,1,72
107,317,132455,38,0,P|72:256|92:189,1,144
169,153,132972,1,0,0:0:0:0:
257,70,133145,2,0,P|270:33|268:-2,1,72
99,102,133489,1,0,0:0:0:0:
99,102,133662,1,0,0:0:0:0:
169,153,133834,22,0,L|328:144,1,144,6|0,0:0|0:0,0:0:0:0:
385,139,134352,1,0,0:0:0:0:
457,133,134524,2,0,P|462:188|444:297,1,144
309,245,135041,5,0,0:0:0:0:
309,245,135214,2,0,P|317:180|331:162,1,72
385,139,135558,2,0,L|378:50,1,72
319,26,135903,2,0,L|246:56,1,72
154,98,136248,1,0,0:0:0:0:
180,203,136421,1,0,0:0:0:0:
76,173,136593,37,0,0:3:0:0:
257,127,136765,2,0,L|329:133,1,72
334,61,137110,2,0,L|329:133,1,72
401,138,137455,2,0,L|330:133,1,72
324,204,137800,2,0,L|330:133,1,72
182,132,138145,6,0,L|188:204,1,72
116,209,138489,2,0,L|188:204,1,72
193,275,138834,2,0,L|188:204,1,72
259,198,139179,1,0,0:0:0:0:
385,348,139352,38,0,P|334:356|280:354,1,90,4|0,0:2|0:0,0:0:0:0:
357,214,139696,2,0,P|401:214|446:221,1,90
491,300,140041,1,0,0:0:0:0:
471,120,140214,1,0,0:0:0:0:
335,237,140386,1,0,0:0:0:0:
373,60,140559,1,0,0:0:0:0:
201,116,140731,6,0,L|83:108,1,90
59,260,141076,2,0,L|148:253,1,90
163,237,141334,1,0,2:0:0:0:
178,220,141421,1,0,0:0:0:0:
111,109,141593,1,0,0:0:0:0:
120,344,141765,2,0,P|179:351|219:362,1,90
346,293,142110,38,0,L|339:184,1,90,4|0,0:2|0:0,0:0:0:0:
197,132,142455,2,0,L|174:240,1,90
329,43,142800,1,0,0:0:0:0:
340,203,142972,1,0,0:0:0:0:
498,106,143145,1,0,0:0:0:0:
470,264,143317,1,0,0:0:0:0:
269,132,143489,5,4,0:2:0:0:
291,129,143575,1,0,0:0:0:0:
313,126,143661,1,0,0:0:0:0:
336,124,143747,1,0,0:0:0:0:
358,121,143833,37,0,0:0:0:0:
298,114,143920,1,0,0:0:0:0:
238,107,144006,1,0,0:0:0:0:
179,100,144092,1,0,0:0:0:0:
179,100,144869,22,0,L|185:218,1,112.5,6|0,1:0|0:0,0:0:0:0:
447,96,145214,2,0,B|363:67|363:67|295:116,1,168.75,10|0,1:0|0:0,0:0:0:0:
355,178,145558,1,4,3:0:0:0:
247,45,145731,1,0,1:0:0:0:
184,212,145903,2,0,P|130:230|70:221,1,112.5,8|0,1:0|0:0,0:0:0:0:
118,61,146248,1,0,1:0:0:0:
75,223,146421,6,0,L|54:305,1,67.5000025749208,2|0,0:1|0:0,0:0:0:0:
179,372,146593,2,0,L|162:306,1,67.5000025749208,10|0,1:0|0:0,0:0:0:0:
283,223,146765,2,0,L|266:288,1,67.5000025749208,2|0,0:1|0:0,0:0:0:0:
162,306,146938,38,0,P|161:281|165:264,1,33.7500012874604,2|0,3:0|0:0,0:0:0:0:
75,189,147110,2,0,P|73:205|75:222,1,33.7500012874604,2|0,1:3|0:0,0:0:0:0:
266,288,147283,2,0,P|301:289|334:268,1,67.5000025749208,8|0,1:0|0:0,0:0:0:0:
390,212,147627,1,0,1:0:0:0:
240,95,147800,6,0,L|98:79,1,135.000005149842,2|8,0:1|1:0,0:0:0:0:
390,212,148145,2,0,P|391:177|370:144,1,67.5000025749208,2|2,0:1|0:0,0:0:0:0:
197,238,148317,2,0,L|181:380,1,135.000005149842,2|2,0:0|1:0,0:0:0:0:
314,88,148662,1,8,1:0:0:0:
400,278,148834,2,0,L|390:212,1,67.5000025749208,2|0,0:1|0:0,0:0:0:0:
449,353,149007,38,0,B|397:376|354:352|354:352|309:327|255:354,1,202.500007724762,2|0,1:0|0:0,0:0:0:0:
181,372,149352,1,8,1:0:0:0:
400,278,149524,2,0,L|466:267,1,67.5000025749208,2|0,0:1|0:0,0:0:0:0:
510,178,149696,1,0,0:0:0:0:
426,109,149869,1,0,1:0:0:0:
334,167,150041,2,0,L|202:145,1,112.5,8|0,1:0|0:0,0:0:0:0:
23,57,150386,6,0,L|133:38,1,112.5,2|0,1:0|0:0,0:0:0:0:
238,234,150731,2,0,B|206:269|206:269|224:143,1,168.75,10|0,1:0|0:0,0:0:0:0:
236,61,151076,1,4,3:0:0:0:
119,168,151248,1,0,1:0:0:0:
343,178,151421,2,0,P|404:177|450:203,1,112.5,8|0,1:0|0:0,0:0:0:0:
390,93,151765,1,0,1:0:0:0:
377,272,151938,38,0,P|370:306|348:336,1,67.5000025749208,2|0,0:1|0:0,0:0:0:0:
216,270,152110,2,0,P|250:275|286:264,1,67.5000025749208,10|0,1:0|0:0,0:0:0:0:
448,201,152283,2,0,L|464:283,1,67.5000025749208,2|0,0:1|0:0,0:0:0:0:
343,178,152455,6,0,L|336:144,1,33.7500012874604,2|0,3:0|0:0,0:0:0:0:
235,60,152627,2,0,L|242:94,1,33.7500012874604,2|0,1:3|0:0,0:0:0:0:
169,204,152800,2,0,L|163:171,2,33.7500012874604,8|0|0,1:0|0:0|0:0,0:0:0:0:
216,270,153145,1,0,1:0:0:0:
242,94,153317,38,0,P|296:53|368:48,1,135.000005149842,2|8,0:1|1:0,0:0:0:0:
455,156,153662,1,2,0:1:0:0:
468,188,153748,1,2,0:0:0:0:
481,220,153834,2,0,L|413:264,1,67.5000025749208,2|0,0:0|0:0,0:0:0:0:
343,310,154007,1,2,1:0:0:0:
490,351,154179,1,8,1:0:0:0:
262,364,154352,1,2,0:1:0:0:
424,257,154524,6,2,B|478:190|441:121|441:121|428:151|391:175,1,202.500007724762,0|0,1:1|0:0,0:1:0:0:
340,218,154869,1,8,1:0:0:0:
155,136,155041,2,2,P|221:124|279:163,1,135.000005149842,0|0,0:0|0:0,0:1:0:0:
190,277,155386,2,0,L|205:211,1,67.5000025749208,2|4,1:0|3:0,0:0:0:0:
276,158,155558,1,10,1:0:0:0:
144,52,155731,1,2,0:0:0:0:
118,219,155903,6,0,P|75:219|27:194,1,90,0|0,1:0|1:0,0:0:0:0:
144,52,156248,2,0,L|227:44,1,56.25,8|0,1:0|0:0,0:0:0:0:
261,134,156421,6,0,L|93:125,1,168.75,6|0,0:1|0:0,0:0:0:0:
56,45,156765,1,0,1:0:0:0:
62,227,156938,2,0,P|128:225|186:178,1,112.5,8|0,1:0|0:0,0:0:0:0:
144,52,157283,1,0,1:0:0:0:
62,227,157455,38,0,L|71:300,1,67.5000025749208,2|0,0:1|0:0,0:0:0:0:
193,347,157627,2,0,L|201:280,1,67.5000025749208,10|0,1:0|0:0,0:0:0:0:
289,176,157800,2,0,L|298:249,1,67.5000025749208,2|0,0:1|0:0,0:0:0:0:
420,296,157972,6,0,L|424:262,1,33.7500012874604,2|0,3:0|0:0,0:0:0:0:
432,181,158145,2,0,L|436:147,1,33.7500012874604,2|0,1:3|0:0,0:0:0:0:
444,66,158317,2,0,L|448:33,1,33.7500012874604,8|0,1:0|0:0,0:0:0:0:
315,9,158489,38,0,L|333:155,1,135.000005149842,2|0,0:1|1:0,0:0:0:0:
138,268,158834,2,0,B|116:203|116:203|174:150,1,135.000005149842,2|8,0:1|1:0,0:0:0:0:
250,310,159179,1,2,0:1:0:0:
226,334,159266,1,2,0:0:0:0:
202,358,159352,2,0,L|134:361,1,67.5000025749208,2|0,0:0|0:0,0:0:0:0:
18,294,159524,2,0,P|11:227|21:160,1,135.000005149842,2|8,1:0|1:0,0:0:0:0:
88,42,159869,1,2,0:1:0:0:
218,161,160041,6,0,B|157:181|100:166|135:155|78:140|18:161,1,202.500007724762,2|0,1:0|0:0,0:0:0:0:
104,120,160386,1,8,1:0:0:0:
182,328,160558,2,0,L|272:321,1,67.5000025749208,2|0,0:1|0:0,0:0:0:0:
330,313,160731,37,2,0:0:0:0:
345,233,160903,1,0,1:0:0:0:
273,193,161075,1,10,1:0:0:0:
214,249,161248,1,2,0:0:0:0:
343,150,161421,6,0,P|345:92|320:32,1,112.5,2|0,1:0|0:0,0:0:0:0:
205,101,161765,2,0,L|70:93,1,112.5,10|0,1:0|0:0,0:0:0:0:
23,5,162110,1,4,3:0:0:0:
6,209,162283,1,0,1:0:0:0:
205,101,162455,2,0,P|230:176|223:273,1,168.75,8|0,1:0|0:0,0:0:0:0:
180,343,162800,1,0,1:0:0:0:
309,306,162972,38,0,L|396:314,1,67.5000025749208,2|0,0:1|0:0,0:0:0:0:
501,247,163145,2,0,L|434:254,1,67.5000025749208,10|0,1:0|0:0,0:0:0:0:
297,204,163317,2,0,L|365:211,1,67.5000025749208,2|0,0:1|0:0,0:0:0:0:
490,145,163490,6,0,L|456:149,1,33.7500012874604,2|0,3:0|0:0,0:0:0:0:
374,199,163662,2,0,L|340:202,1,33.7500012874604,2|0,1:3|0:0,0:0:0:0:
199,260,163834,2,0,L|232:263,1,33.7500012874604,8|0,1:0|0:0,0:0:0:0:
315,313,164006,2,0,L|348:316,1,33.7500012874604,2|0,3:0|0:0,0:0:0:0:
490,375,164179,38,0,P|421:302|466:221,1,202.500007724762,2|0,1:0|0:0,0:0:0:0:
501,295,164524,1,10,1:0:0:0:
315,313,164696,2,0,B|177:323|177:323|239:289,1,202.500007724762,2|0,0:1|0:0,0:0:0:0:
292,235,165041,1,0,1:0:0:0:
145,159,165214,2,0,P|128:124|136:72,1,67.5000025749208,10|0,1:0|0:0,0:0:0:0:
237,45,165386,2,0,P|221:74|220:108,1,67.5000025749208,2|0,0:1|0:0,0:0:0:0:
292,235,165559,6,0,L|312:101,1,135.000005149842,0|2,1:0|0:0,0:0:0:0:
442,197,165903,1,10,1:0:0:0:
413,37,166076,1,2,3:2:0:0:
408,49,166162,1,0,3:0:0:0:
403,61,166248,1,0,1:0:0:0:
178,15,166421,2,0,L|256:8,1,67.5000025749208,2|0,1:2|1:0,0:0:0:0:
221,129,166593,2,0,P|153:122|88:104,1,135.000005149842,8|2,1:0|0:1,0:0:0:0:
403,61,166938,22,0,L|409:125,1,56.25,4|0,1:0|0:0,0:0:0:0:
336,217,167110,2,0,P|386:193|445:198,1,112.5,2|8,0:1|0:0,0:0:0:0:
270,327,167455,2,0,L|158:316,1,112.5,2|2,0:1|0:0,0:0:0:0:
132,311,167714,1,4,3:0:0:0:
105,306,167800,1,0,1:0:0:0:
2,171,167972,2,0,B|47:115|119:127|119:127|91:137|78:166,1,168.75,8|0,1:0|0:0,0:0:0:0:
146,200,168317,1,0,1:0:0:0:
286,168,168489,38,0,P|301:138|304:98,1,67.5000025749208,2|0,0:1|0:0,0:0:0:0:
384,7,168662,2,0,P|387:40|402:70,1,67.5000025749208,10|0,1:0|0:0,0:0:0:0:
471,192,168834,1,2,0:0:0:0:
429,171,168920,1,2,0:0:0:0:
382,172,169006,1,2,0:1:0:0:
283,351,169179,6,0,L|376:338,1,67.5000025749208,0|0,1:1|0:0,0:0:0:0:
498,285,169352,2,0,L|431:275,1,67.5000025749208,8|0,1:0|0:0,0:0:0:0:
286,168,169524,2,0,B|266:114|266:114|278:36,1,135.000005149842,2|0,0:1|1:0,0:0:0:0:
245,268,169869,38,0,P|311:273|366:236,1,135.000005149842,2|8,0:1|0:0,0:0:0:0:
157,127,170214,1,2,0:0:0:0:
152,173,170300,1,2,0:0:0:0:
147,219,170386,2,0,L|136:320,1,67.5000025749208,2|0,0:1|0:0,0:0:0:0:
303,316,170558,2,0,L|286:160,1,135.000005149842,2|8,1:0|0:0,0:0:0:0:
73,26,170903,6,0,L|62:127,1,67.5000025749208,2|0,0:0|0:0,0:0:0:0:
289,182,171076,2,0,B|258:136|192:145|192:145|152:181|98:173,1,202.500007724762,2|0,1:1|0:0,0:0:0:0:
65,93,171421,1,8,0:0:0:0:
221,33,171593,2,0,P|252:22|289:19,1,67.5000025749208,2|0,0:1|0:0,0:0:0:0:
358,68,171765,37,2,0:0:0:0:
370,152,171938,1,0,0:0:0:0:
382,236,172110,1,8,0:0:0:0:
394,320,172283,1,2,0:0:0:0:
303,204,172455,6,0,P|275:191|246:188,1,56.25,0|0,1:0|0:0,0:0:0:0:
382,236,172627,2,0,L|394:96,1,112.5,2|8,0:1|1:0,0:0:0:0:
242,46,172972,2,0,L|247:102,1,56.25,2|0,0:1|0:0,0:0:0:0:
250,187,173145,1,2,0:0:0:0:
224,199,173231,1,4,3:0:0:0:
197,203,173317,1,0,1:0:0:0:
37,145,173489,2,0,B|98:108|154:131|154:131|121:149|108:197,1,168.75,8|0,0:0|0:0,0:0:0:0:
197,203,173834,1,0,1:0:0:0:
310,99,174007,38,0,P|324:72|327:31,1,67.5000025749208,2|0,0:1|0:0,0:0:0:0:
364,172,174179,2,0,P|378:199|381:240,1,67.5000025749208,10|0,1:0|0:0,0:0:0:0:
401,89,174352,2,0,L|491:72,1,67.5000025749208,2|0,0:1|0:0,0:0:0:0:
488,197,174524,6,0,L|480:249,1,33.7500012874604,2|0,3:0|0:0,0:0:0:0:
381,235,174696,2,0,L|373:287,1,33.7500012874604,2|0,1:3|0:0,0:0:0:0:
467,308,174869,2,0,L|459:360,1,33.7500012874604,8|0,1:0|0:0,0:0:0:0:
360,346,175041,38,0,P|297:324|226:332,1,135.000005149842,2|0,0:1|1:0,0:0:0:0:
79,132,175386,2,0,L|95:306,1,135.000005149842,2|8,0:1|0:0,0:0:0:0:
199,147,175731,1,2,0:0:0:0:
204,113,175817,1,2,0:0:0:0:
209,79,175903,2,0,L|223:-16,1,67.5000025749208,2|0,0:0|0:0,0:0:0:0:
119,36,176076,1,2,1:0:0:0:
306,93,176248,1,8,1:0:0:0:
79,132,176421,2,0,L|86:202,1,67.5000025749208,2|0,0:0|0:0,0:0:0:0:
187,253,176593,6,0,B|223:246|239:218|239:218|283:201|329:214|329:214|302:223|279:259,1,202.500007724762,2|0,1:0|0:0,0:0:0:0:
252,320,176938,1,8,0:0:0:0:
169,172,177110,2,0,L|13:165,1,135.000005149842,2|0,1:0|0:0,0:0:0:0:
306,93,177455,1,0,1:0:0:0:
339,91,177541,1,4,3:0:0:0:
373,89,177627,1,10,1:0:0:0:
218,12,177800,1,2,0:0:0:0:
280,203,177972,6,0,L|379:210,1,90,0|0,1:0|1:0,0:0:0:0:
472,192,178317,2,0,P|480:165|479:138,1,56.25,8|0,1:0|0:0,0:0:0:0:
431,309,178489,6,0,P|357:286|369:210,1,168.75,6|0,0:1|0:0,0:0:0:0:
393,225,178834,1,0,1:0:0:0:
252,341,179007,2,0,B|125:348|125:348|171:316,1,168.75,8|0,1:0|0:0,0:0:0:0:
221,254,179352,1,0,1:0:0:0:
48,149,179524,38,0,L|58:64,1,67.5000025749208,2|0,0:1|0:0,0:0:0:0:
131,15,179696,2,0,P|182:8|213:16,1,67.5000025749208,10|0,1:0|0:0,0:0:0:0:
276,75,179869,1,2,0:0:0:0:
309,68,179955,1,2,0:0:0:0:
342,62,180041,2,0,L|426:71,1,67.5000025749208,2|0,0:1|0:0,0:0:0:0:
481,141,180214,2,0,L|490:225,1,67.5000025749208,0|0,1:0|0:0,0:0:0:0:
416,279,180386,1,10,1:0:0:0:
232,176,180558,2,0,L|366:182,1,135.000005149842,2|0,0:1|1:0,0:0:0:0:
164,248,180903,6,0,B|123:191|123:191|154:106,1,135.000005149842,2|8,0:1|1:0,0:0:0:0:
316,84,181248,2,0,L|305:150,1,67.5000025749208,2|2,0:1|0:0,0:0:0:0:
290,231,181421,1,2,0:0:0:0:
447,193,181593,1,2,1:1:0:0:
401,347,181765,1,8,1:0:0:0:
290,231,181938,2,0,P|278:285|279:312,1,67.5000025749208,2|0,0:1|0:0,0:0:0:0:
187,341,182110,38,0,L|169:176,1,135.000005149842,2|2,1:0|0:0,0:0:0:0:
316,84,182455,1,8,1:0:0:0:
172,206,182627,2,0,L|182:128,1,67.5000025749208,2|0,0:1|0:0,0:0:0:0:
199,39,182800,5,2,0:0:0:0:
158,119,182972,1,0,1:0:0:0:
86,63,183145,1,8,1:0:0:0:
45,143,183317,1,2,0:0:0:0:
180,139,183489,37,0,1:0:0:0:
156,325,183662,2,0,P|121:283|122:227,1,112.5,2|8,0:1|1:0,0:0:0:0:
259,217,184007,1,2,0:1:0:0:
190,83,184179,2,0,L|177:154,1,56.25,4|2,3:0|0:0,0:0:0:0:
264,127,184352,1,0,1:0:0:0:
438,28,184524,2,0,P|362:20|318:24,1,112.5,8|0,1:0|0:0,0:0:0:0:
180,139,184869,1,0,1:0:0:0:
416,232,185041,6,0,L|398:144,1,67.5000025749208,2|0,0:1|0:0,0:0:0:0:
311,294,185214,2,0,L|395:322,1,67.5000025749208,10|0,1:0|0:0,0:0:0:0:
309,172,185386,2,0,L|241:230,1,67.5000025749208,2|0,0:1|0:0,0:0:0:0:
158,274,185558,38,0,P|127:268|104:256,1,33.7500012874604,2|0,3:0|0:0,0:0:0:0:
34,212,185731,2,0,P|65:206|88:194,1,33.7500012874604,2|0,1:3|0:0,0:0:0:0:
158,150,185903,2,0,P|127:144|104:132,1,33.7500012874604,8|0,1:0|0:0,0:0:0:0:
34,88,186076,2,0,P|65:82|88:70,1,33.7500012874604,2|4,3:0|3:0,0:0:0:0:
158,26,186248,6,0,B|190:54|218:65|256:64|290:40|290:40|313:62|313:62|348:49,1,202.500007724762,2|0,1:0|0:0,0:0:0:0:
416,32,186593,1,8,1:0:0:0:
430,196,186765,2,0,B|374:158|374:158|308:171,1,135.000005149842,2|0,1:1|0:0,0:0:0:0:
352,327,187110,1,0,1:0:0:0:
152,274,187283,2,0,L|164:194,1,67.5000025749208,10|0,1:0|0:0,0:0:0:0:
224,155,187455,2,0,L|212:75,1,67.5000025749208,10|0,1:0|0:0,0:0:0:0:
156,31,187627,37,0,3:0:0:0:
88,152,187800,1,2,0:0:0:0:
32,64,187972,1,0,3:0:0:0:
68,252,188145,2,0,L|64:308,2,45,2|0|0,0:0|0:0|3:0,0:0:0:0:
224,216,188489,2,0,L|232:280,1,45,0|0,3:0|3:0,0:0:0:0:
287,318,188662,2,0,L|396:323,1,90,8|0,1:0|0:0,0:0:0:0:
494,209,189007,22,0,L|385:214,1,90,4|0,1:0|0:0,0:0:0:0:
320,143,189352,1,8,1:0:0:0:
361,42,189524,1,0,0:0:0:0:
361,42,189610,1,0,0:0:0:0:
361,42,189696,1,0,0:0:0:0:
404,213,189869,1,0,1:0:0:0:
320,143,190041,2,0,P|274:136|230:145,1,90,8|0,1:0|0:0,0:0:0:0:
29,213,190386,6,0,P|116:197|201:237,1,180,0|8,1:0|1:0,0:0:0:0:
115,161,190903,2,0,L|106:114,2,45
100,327,191248,1,0,1:0:0:0:
197,233,191421,2,0,P|243:226|287:235,1,90,8|0,1:0|0:0,0:0:0:0:
385,273,191765,37,0,1:0:0:0:
470,156,191938,2,0,L|478:62,1,90,0|8,0:0|1:0,0:0:0:0:
463,184,192283,2,0,L|455:90,1,90
470,212,192627,2,0,L|478:118,1,90,0|8,1:0|1:0,0:0:0:0:
463,240,192972,1,0,0:0:0:0:
339,315,193145,6,0,L|318:135,1,180,0|8,1:0|1:0,0:0:0:0:
215,35,193662,2,0,L|203:88,2,45
184,183,194007,1,0,1:0:0:0:
79,152,194179,1,8,1:0:0:0:
18,242,194352,1,0,0:0:0:0:
184,183,194524,38,0,P|226:169|276:170,1,90,0|0,1:0|0:0,0:0:0:0:
429,82,194869,2,0,P|384:82|341:68,1,90,8|0,1:0|0:0,0:0:0:0:
325,60,195127,1,0,0:0:0:0:
309,52,195214,1,0,0:0:0:0:
175,25,195386,1,0,1:0:0:0:
271,169,195558,2,0,L|261:273,1,90,8|0,1:0|0:0,0:0:0:0:
139,335,195903,6,0,P|219:301|311:320,1,180,0|8,1:0|1:0,0:0:0:0:
448,279,196421,1,0,0:0:0:0:
443,261,196507,1,0,0:0:0:0:
438,243,196593,1,0,0:0:0:0:
462,119,196765,1,0,1:0:0:0:
322,202,196938,2,0,P|280:218|224:213,1,90,8|0,1:0|0:0,0:0:0:0:
56,191,197283,38,0,L|65:286,1,90,0|0,1:0|0:0,0:0:0:0:
235,216,197627,2,0,L|243:126,1,90,8|0,1:0|0:0,0:0:0:0:
245,108,197886,1,0,0:0:0:0:
247,90,197972,1,0,0:0:0:0:
93,35,198145,1,0,1:0:0:0:
149,231,198317,2,0,P|193:232|235:216,1,90,8|0,1:0|0:0,0:0:0:0:
482,192,198662,6,0,B|418:186|418:186|383:156|383:156|314:149,1,180,0|8,1:0|1:0,0:0:0:0:
435,40,199179,2,0,L|494:47,2,45
314,149,199524,2,0,L|269:143,1,45,0|0,1:0|1:0,0:0:0:0:
190,185,199696,2,0,P|177:228|185:287,1,90,8|0,1:0|0:0,0:0:0:0:
396,348,200041,5,0,1:0:0:0:
273,238,200214,1,0,1:0:0:0:
404,161,200386,2,0,L|314:149,1,90,8|0,1:0|0:0,0:0:0:0:
317,27,200731,1,0,0:0:0:0:
466,125,200903,2,0,P|475:169|455:210,1,90,0|8,1:0|1:0,0:0:0:0:
361,273,201248,1,0,0:0:0:0:
231,71,201421,6,0,B|284:89|334:76|303:65|353:52|407:71,1,180,0|8,1:0|1:0,0:0:0:0:
464,228,201938,2,0,B|410:209|360:222|391:233|341:246|287:228,1,180,0|0,0:0|1:0,0:0:0:0:
190,184,202455,1,8,1:0:0:0:
240,363,202627,1,0,0:0:0:0:
73,286,202800,37,0,1:0:0:0:
154,104,202972,2,0,P|181:140|190:184,1,90,0|8,0:0|1:0,0:0:0:0:
59,108,203317,2,0,P|67:64|94:28,1,90
254,6,203662,1,0,1:0:0:0:
279,189,203834,2,0,L|190:184,1,90,8|0,1:0|0:0,0:0:0:0:
134,313,204179,6,0,L|327:305,1,180,0|8,1:0|1:0,0:0:0:0:
447,211,204696,2,0,L|441:269,1,45
441,278,204869,1,2,0:0:0:0:
279,189,205041,1,0,1:0:0:0:
416,39,205214,2,0,P|408:93|387:133,1,90,8|0,1:0|0:0,0:0:0:0:
126,68,205558,38,0,P|214:55|304:57,1,180,0|8,1:0|1:0,0:0:0:0:
392,124,206076,1,0,0:0:0:0:
273,278,206248,2,0,L|279:189,1,90,0|0,0:0|1:0,0:0:0:0:
304,57,206593,1,8,1:0:0:0:
381,230,206765,1,0,0:0:0:0:
478,111,206938,6,0,P|434:108|392:124,1,90,0|0,1:0|0:0,0:0:0:0:
279,189,207282,1,8,1:0:0:0:
450,275,207455,2,0,L|452:230,2,45,0|2|0,0:0|0:0|0:0,0:0:0:0:
383,354,207800,1,0,1:0:0:0:
273,278,207972,2,0,L|279:189,1,90,8|0,1:0|0:0,0:0:0:0:
131,108,208317,38,0,L|140:206,1,90,0|0,1:0|0:0,0:0:0:0:
153,332,208662,2,0,P|103:316|56:321,1,90,8|2,1:0|0:0,0:0:0:0:
45,329,208921,1,0,0:0:0:0:
28,345,209007,1,0,0:0:0:0:
8,184,209179,1,0,1:0:0:0:
206,242,209352,2,0,L|216:151,1,90,8|0,1:0|0:0,0:0:0:0:
116,24,209696,6,0,P|109:68|130:107,1,90,0|0,1:0|0:0,0:0:0:0:
388,41,210041,2,0,L|297:36,1,90,8|0,1:0|0:0,0:0:0:0:
283,53,210300,1,0,0:0:0:0:
268,70,210386,1,0,1:0:0:0:
379,221,210558,2,0,L|371:149,1,45,0|4,1:0|3:0,0:0:0:0:
308,256,210731,2,0,P|404:264|452:288,1,135,8|0,1:0|0:0,0:0:0:0:
500,224,211076,6,0,L|506:116,1,90,4|0,1:0|0:0,0:0:0:0:
436,36,211421,1,8,1:0:0:0:
268,70,211593,1,0,0:0:0:0:
271,92,211679,1,0,0:0:0:0:
274,114,211765,1,0,0:0:0:0:
371,162,211938,1,0,1:0:0:0:
198,191,212110,2,0,P|151:196|110:221,1,90,8|0,1:0|0:0,0:0:0:0:
3,277,212455,6,0,B|137:264|137:264|197:287,1,180,0|8,1:0|1:0,0:0:0:0:
350,338,212972,2,0,P|438:348|511:298,1,180,0|0,0:0|1:0,0:0:0:0:
443,122,213489,1,8,1:0:0:0:
412,234,213662,1,0,0:0:0:0:
329,151,213834,38,0,L|310:56,1,90,0|0,1:0|0:0,0:0:0:0:
443,122,214179,1,8,1:0:0:0:
412,234,214352,2,0,L|394:295,2,45
329,151,214696,1,0,1:0:0:0:
217,243,214869,2,0,P|259:228|304:233,1,90,8|0,1:0|0:0,0:0:0:0:
200,333,215214,6,0,B|160:349|111:331|111:331|66:313|22:331,1,180,0|8,1:0|1:0,0:0:0:0:
30,149,215731,2,0,L|224:139,1,180,0|0,0:0|1:0,0:0:0:0:
390,130,216248,1,8,1:0:0:0:
304,225,216421,1,0,0:0:0:0:
295,44,216593,38,0,P|335:28|396:33,1,90,0|0,1:0|0:0,0:0:0:0:
484,234,216938,2,0,P|439:234|397:218,1,90,8|0,1:0|0:0,0:0:0:0:
383,207,217196,1,0,0:0:0:0:
369,196,217283,1,0,0:0:0:0:
264,111,217455,1,0,1:0:0:0:
188,187,217627,2,0,L|200:296,1,90,8|0,1:0|0:0,0:0:0:0:
25,331,217972,6,0,L|41:138,1,180,0|8,1:0|1:0,0:0:0:0:
136,43,218489,2,0,L|141:100,2,45
264,111,218834,1,0,1:0:0:0:
180,206,219007,2,0,P|173:252|187:301,1,90,8|0,1:0|0:0,0:0:0:0:
356,285,219352,38,0,P|321:257|279:245,1,90,0|0,1:0|0:0,0:0:0:0:
95,143,219696,2,0,P|129:114|172:102,1,90,8|0,1:0|0:0,0:0:0:0:
194,108,219955,1,0,0:0:0:0:
216,114,220041,1,0,0:0:0:0:
278,244,220214,1,0,1:0:0:0:
195,312,220386,2,0,L|89:319,1,90,8|0,1:0|0:0,0:0:0:0:
42,187,220731,6,0,P|71:108|43:16,1,180,0|8,1:0|1:0,0:0:0:0:
112,104,221248,2,0,L|164:113,2,45
233,31,221593,2,0,L|277:23,1,45,0|4,1:0|3:0,0:0:0:0:
346,80,221765,2,0,P|359:122|349:178,1,90,8|2,1:0|0:0,0:0:0:0:
277,279,222110,6,0,L|377:288,1,90,4|2,1:0|0:0,0:0:0:0:
443,158,222455,2,0,L|353:166,1,90,8|2,1:0|0:0,0:0:0:0:
335,152,222714,1,0,0:0:0:0:
317,138,222800,1,0,0:0:0:0:
191,187,222972,2,0,P|168:136|172:90,1,90,0|8,1:0|1:0,0:0:0:0:
209,22,223317,1,2,0:0:0:0:
57,58,223489,6,0,L|63:243,1,180,0|8,1:0|1:0,0:0:0:0:
188,290,224007,2,0,L|199:232,2,45
108,332,224352,1,0,1:0:0:0:
150,161,224524,2,0,P|193:146|253:167,1,90,8|0,1:0|0:0,0:0:0:0:
332,249,224869,38,0,L|446:243,1,90,0|0,1:0|0:0,0:0:0:0:
388,28,225214,2,0,L|374:117,1,90,8|0,1:0|0:0,0:0:0:0:
235,155,225558,1,0,0:0:0:0:
270,15,225731,1,0,1:0:0:0:
131,53,225903,2,0,P|73:54|46:38,1,90,8|0,1:0|0:0,0:0:0:0:
58,176,226248,6,0,P|127:158|247:156,1,180,0|8,1:0|1:0,0:0:0:0:
284,280,226765,2,0,L|190:272,1,90
104,259,227110,1,0,1:0:0:0:
235,155,227283,2,0,L|224:53,1,90,8|0,1:0|0:0,0:0:0:0:
76,23,227627,38,0,P|51:66|65:122,1,90,0|0,1:0|0:0,0:0:0:0:
164,236,227972,2,0,L|70:244,1,90,8|2,1:0|0:0,0:0:0:0:
58,227,228231,1,0,0:0:0:0:
42,211,228317,1,0,0:0:0:0:
16,364,228489,1,0,1:0:0:0:
165,320,228662,2,0,L|277:328,1,90,8|0,1:0|0:0,0:0:0:0:
405,216,229007,6,0,B|351:234|301:221|332:210|282:197|228:216,1,180,0|8,1:0|1:0,0:0:0:0:
373,354,229524,2,0,L|367:309,2,45
254,326,229869,1,0,1:0:0:0:
405,216,230041,2,0,P|420:160|413:110,1,90,8|0,1:0|0:0,0:0:0:0:
347,12,230386,38,0,L|295:16,3,45,0|0|0|0,1:0|0:0|0:0|0:0,0:0:0:0:
272,101,230731,2,0,L|220:97,3,45,8|0|0|0,1:0|0:0|0:0|0:0,0:0:0:0:
207,8,231076,2,0,L|155:12,3,45,0|0|0|0,0:0|0:0|1:0|0:0,0:0:0:0:
132,97,231421,2,0,L|80:93,3,45,8|0|0|0,1:0|0:0|0:0|0:0,0:0:0:0:
67,4,231765,5,0,1:0:0:0:
68,26,231851,1,0,0:0:0:0:
70,48,231937,1,0,0:0:0:0:
72,71,232023,1,0,0:0:0:0:
74,93,232109,1,8,1:0:0:0:
76,116,232196,1,0,0:0:0:0:
78,138,232282,1,0,0:0:0:0:
80,160,232368,1,0,0:0:0:0:
82,183,232455,38,0,L|146:192,1,45,0|0,1:0|0:0,0:0:0:0:
175,84,232627,1,0,1:0:0:0:
124,88,232713,1,0,1:0:0:0:
74,93,232799,1,8,1:0:0:0:
