osu file format v14

[General]
AudioFilename: PANIC HOLIC.mp3
AudioLeadIn: 0
PreviewTime: -1
Countdown: 0
SampleSet: None
StackLeniency: 0.7
Mode: 3
LetterboxInBreaks: 1
SpecialStyle: 0
WidescreenStoryboard: 1

[Editor]
DistanceSpacing: 0.8
BeatDivisor: 2
GridSize: 32
TimelineZoom: 1.1

[Metadata]
Title:PANIC HOLIC
TitleUnicode:PANIC HOLIC
Artist:C-Show
ArtistUnicode:C-Show
Creator:The Arrival
Version:BASIC
Source:
Tags:
BeatmapID:827819
BeatmapSetID:377983

[Difficulty]
HPDrainRate:7
CircleSize:4
OverallDifficulty:6
ApproachRate:5
SliderMultiplier:1.4
SliderTickRate:1

[Events]
//Background and Video events
0,0,"BG.jpg",0,0
//Break Periods
//Storyboard Layer 0 (Background)
//Storyboard Layer 1 (Fail)
//Storyboard Layer 2 (Pass)
//Storyboard Layer 3 (Foreground)
//Storyboard Sound Samples

[TimingPoints]
1098.5368471307,272.729820466786,4,2,0,99,1,0

[HitObjects]
192,192,1098,5,0,0:0:0:0:
64,192,1371,1,0,0:0:0:0:
320,192,1643,128,0,1916:0:0:0:0:
448,192,1916,128,0,2189:0:0:0:0:
64,192,2189,1,0,0:0:0:0:
320,192,2462,1,0,0:0:0:0:
448,192,2734,1,0,0:0:0:0:
192,192,3007,1,0,0:0:0:0:
64,192,3280,1,0,0:0:0:0:
320,192,3825,1,0,0:0:0:0:
448,192,4371,1,0,0:0:0:0:
320,192,4916,1,0,0:0:0:0:
64,192,5462,1,0,0:0:0:0:
192,192,6007,1,0,0:0:0:0:
448,192,6553,1,0,0:0:0:0:
192,192,7098,128,0,7644:0:0:0:0:
448,192,7644,1,0,0:0:0:0:
192,192,8189,1,0,0:0:0:0:
64,192,8734,1,0,0:0:0:0:
320,192,9280,1,0,0:0:0:0:
448,192,9825,128,0,10098:0:0:0:0:
192,192,10371,128,0,10644:0:0:0:0:
448,192,10916,1,0,0:0:0:0:
320,192,11325,1,0,0:0:0:0:
64,192,12007,1,0,0:0:0:0:
192,192,12553,1,0,0:0:0:0:
320,192,12962,1,0,0:0:0:0:
192,192,13644,1,0,0:0:0:0:
448,192,13916,1,0,0:0:0:0:
192,192,14325,1,0,0:0:0:0:
320,192,14735,1,0,0:0:0:0:
64,192,15280,128,0,15553:0:0:0:0:
192,192,15689,128,0,15962:0:0:0:0:
192,192,16371,1,0,0:0:0:0:
320,192,16916,1,0,0:0:0:0:
448,192,17325,1,0,0:0:0:0:
192,192,18007,1,0,0:0:0:0:
448,192,18280,1,0,0:0:0:0:
192,192,18689,1,0,0:0:0:0:
320,192,19098,1,0,0:0:0:0:
448,192,19644,1,0,0:0:0:0:
320,192,20053,1,0,0:0:0:0:
64,192,20735,1,0,0:0:0:0:
192,192,21280,1,0,0:0:0:0:
320,192,21689,1,0,0:0:0:0:
192,192,22371,1,0,0:0:0:0:
448,192,22644,1,0,0:0:0:0:
192,192,23053,1,0,0:0:0:0:
320,192,23462,1,0,0:0:0:0:
64,192,24007,128,0,24280:0:0:0:0:
192,192,24416,128,0,24689:0:0:0:0:
192,192,25098,1,0,0:0:0:0:
320,192,25644,1,0,0:0:0:0:
448,192,26053,1,0,0:0:0:0:
192,192,26735,1,0,0:0:0:0:
448,192,27007,1,0,0:0:0:0:
64,192,27416,1,0,0:0:0:0:
192,192,27826,1,0,0:0:0:0:
448,192,28371,128,0,28780:0:0:0:0:
320,192,28780,128,0,29189:0:0:0:0:
192,192,29189,128,0,29462:0:0:0:0:
64,192,29462,1,0,0:0:0:0:
320,192,30007,1,0,0:0:0:0:
448,192,30553,1,0,0:0:0:0:
192,192,31098,1,0,0:0:0:0:
320,192,31371,1,0,0:0:0:0:
64,192,31644,1,0,0:0:0:0:
320,192,32189,1,0,0:0:0:0:
192,192,32735,1,0,0:0:0:0:
448,192,33007,1,0,0:0:0:0:
320,192,33280,1,0,0:0:0:0:
448,192,33826,1,0,0:0:0:0:
320,192,34371,1,0,0:0:0:0:
192,192,34917,1,0,0:0:0:0:
448,192,35462,1,0,0:0:0:0:
192,192,35735,1,0,0:0:0:0:
320,192,36007,1,0,0:0:0:0:
64,192,36280,1,0,0:0:0:0:
448,192,36553,1,0,0:0:0:0:
320,192,37098,1,0,0:0:0:0:
64,192,37371,1,0,0:0:0:0:
192,192,37644,1,0,0:0:0:0:
448,192,37917,128,0,38189:0:0:0:0:
64,192,38189,1,0,0:0:0:0:
320,192,38735,1,0,0:0:0:0:
192,192,39280,1,0,0:0:0:0:
192,192,39826,1,0,0:0:0:0:
448,192,40371,1,0,0:0:0:0:
64,192,40917,1,0,0:0:0:0:
320,192,41462,128,0,41871:0:0:0:0:
192,192,41871,128,0,42280:0:0:0:0:
448,192,42553,1,0,0:0:0:0:
320,192,43098,1,0,0:0:0:0:
64,192,43644,1,0,0:0:0:0:
192,192,44189,1,0,0:0:0:0:
320,192,44462,1,0,0:0:0:0:
64,192,44735,1,0,0:0:0:0:
192,192,45280,1,0,0:0:0:0:
448,192,45826,128,0,46917:0:0:0:0:
320,192,46371,128,0,46917:0:0:0:0:
192,192,46917,1,0,0:0:0:0:
64,192,47189,1,0,0:0:0:0:
192,192,47462,1,0,0:0:0:0:
320,192,48008,1,0,0:0:0:0:
448,192,48553,1,0,0:0:0:0:
192,192,49098,1,0,0:0:0:0:
320,192,49371,1,0,0:0:0:0:
64,192,49644,1,0,0:0:0:0:
320,192,50189,1,0,0:0:0:0:
448,192,50735,128,0,51280:0:0:0:0:
192,192,51280,1,0,0:0:0:0:
320,192,51826,1,0,0:0:0:0:
192,192,52371,1,0,0:0:0:0:
192,192,52917,1,0,0:0:0:0:
448,192,53462,1,0,0:0:0:0:
320,192,53735,1,0,0:0:0:0:
192,192,54008,1,0,0:0:0:0:
64,192,54553,1,0,0:0:0:0:
320,192,55099,1,0,0:0:0:0:
320,192,55371,1,0,0:0:0:0:
192,192,55644,1,0,0:0:0:0:
448,192,56189,1,0,0:0:0:0:
320,192,56735,1,0,0:0:0:0:
64,192,57280,1,0,0:0:0:0:
192,192,57826,1,0,0:0:0:0:
320,192,58099,1,0,0:0:0:0:
64,192,58371,1,0,0:0:0:0:
448,192,58917,1,0,0:0:0:0:
192,192,59189,1,0,0:0:0:0:
64,192,59462,1,0,0:0:0:0:
192,192,60008,1,0,0:0:0:0:
448,192,60280,1,0,0:0:0:0:
64,192,60553,1,0,0:0:0:0:
320,192,60826,1,0,0:0:0:0:
192,192,61099,1,0,0:0:0:0:
448,192,61371,1,0,0:0:0:0:
64,192,61644,1,0,0:0:0:0:
320,192,61917,1,0,0:0:0:0:
192,192,62190,128,0,62326:0:0:0:0:
448,192,62462,128,0,62599:0:0:0:0:
64,192,62735,128,0,62871:0:0:0:0:
192,192,63008,128,0,63144:0:0:0:0:
448,192,63280,128,0,64371:0:0:0:0:
320,192,63826,128,0,64371:0:0:0:0:
192,192,64371,1,0,0:0:0:0:
64,192,66280,1,0,0:0:0:0:
192,192,66553,1,0,0:0:0:0:
192,192,67644,1,0,0:0:0:0:
192,192,68053,1,0,0:0:0:0:
64,192,68462,1,0,0:0:0:0:
192,192,68735,1,0,0:0:0:0:
64,192,70644,1,0,0:0:0:0:
192,192,70917,1,0,0:0:0:0:
192,192,72008,1,0,0:0:0:0:
192,192,72281,1,0,0:0:0:0:
64,192,72690,1,0,0:0:0:0:
192,192,73099,1,0,0:0:0:0:
192,192,74190,1,0,0:0:0:0:
192,192,75281,1,0,0:0:0:0:
192,192,76371,1,0,0:0:0:0:
64,192,77053,1,0,0:0:0:0:
192,192,77462,1,0,0:0:0:0:
448,192,77735,128,0,78008:0:0:0:0:
192,192,78281,128,0,78553:0:0:0:0:
320,192,78826,1,0,0:0:0:0:
448,192,79371,128,0,79644:0:0:0:0:
192,192,79917,1,0,0:0:0:0:
64,192,80190,1,0,0:0:0:0:
320,192,80462,1,0,0:0:0:0:
192,192,80735,1,0,0:0:0:0:
320,192,81008,1,0,0:0:0:0:
192,192,81281,1,0,0:0:0:0:
448,192,81553,128,0,81826:0:0:0:0:
192,192,81826,1,0,0:0:0:0:
320,192,82372,1,0,0:0:0:0:
64,192,82917,1,0,0:0:0:0:
448,192,83462,1,0,0:0:0:0:
320,192,83735,1,0,0:0:0:0:
192,192,84008,1,0,0:0:0:0:
64,192,84553,1,0,0:0:0:0:
448,192,85099,1,0,0:0:0:0:
192,192,85372,1,0,0:0:0:0:
64,192,85644,1,0,0:0:0:0:
192,192,86190,1,0,0:0:0:0:
448,192,86735,1,0,0:0:0:0:
320,192,87281,1,0,0:0:0:0:
320,192,87826,1,0,0:0:0:0:
192,192,88099,1,0,0:0:0:0:
64,192,88372,1,0,0:0:0:0:
448,192,88644,1,0,0:0:0:0:
192,192,88917,1,0,0:0:0:0:
320,192,89462,1,0,0:0:0:0:
192,192,89735,1,0,0:0:0:0:
320,192,90008,1,0,0:0:0:0:
448,192,90553,1,0,0:0:0:0:
192,192,91099,1,0,0:0:0:0:
64,192,91644,1,0,0:0:0:0:
192,192,92190,1,0,0:0:0:0:
320,192,92463,1,0,0:0:0:0:
448,192,92735,1,0,0:0:0:0:
320,192,93281,1,0,0:0:0:0:
64,192,93826,1,0,0:0:0:0:
320,192,94099,1,0,0:0:0:0:
192,192,94372,1,0,0:0:0:0:
448,192,94917,1,0,0:0:0:0:
320,192,95463,1,0,0:0:0:0:
64,192,96008,1,0,0:0:0:0:
320,192,96553,1,0,0:0:0:0:
448,192,97099,1,0,0:0:0:0:
320,192,97372,1,0,0:0:0:0:
64,192,97644,1,0,0:0:0:0:
192,192,97917,1,0,0:0:0:0:
448,192,98190,128,0,98326:0:0:0:0:
320,192,98463,128,0,98599:0:0:0:0:
192,192,98735,128,0,98872:0:0:0:0:
320,192,98872,1,0,0:0:0:0:
448,192,99281,1,0,0:0:0:0:
320,192,101054,1,0,0:0:0:0:
448,192,101463,1,0,0:0:0:0:
