osu file format v14

[General]
AudioFilename: 1-10 On the FM.mp3
AudioLeadIn: 0
PreviewTime: 41836
Countdown: 0
SampleSet: Soft
StackLeniency: 0.7
Mode: 3
LetterboxInBreaks: 0
SpecialStyle: 0
WidescreenStoryboard: 0

[Editor]
DistanceSpacing: 1
BeatDivisor: 4
GridSize: 16
TimelineZoom: 1.1

[Metadata]
Title:On the FM
TitleUnicode:On the FM
Artist:C-Show
ArtistUnicode:C-Show
Creator:Raspberriel
Version:107.1 MHz
Source:beatmania IIDX 23 copula
Tags:konami bemani ln long note
BeatmapID:1475857
BeatmapSetID:696787

[Difficulty]
HPDrainRate:8
CircleSize:4
OverallDifficulty:7
ApproachRate:5
SliderMultiplier:1.4
SliderTickRate:1

[Events]
//Background and Video events
0,0,"got me shaking somehow.png",0,0
//Break Periods
//Storyboard Layer 0 (Background)
//Storyboard Layer 1 (Fail)
//Storyboard Layer 2 (Pass)
//Storyboard Layer 3 (Foreground)
//Storyboard Sound Samples

[TimingPoints]
1036,300,4,2,1,40,1,0
41836,-100,4,2,1,40,0,1
50836,-100,4,2,1,40,0,0
61036,-100,4,2,1,40,0,1
79936,-100,4,2,1,40,0,0
89836,-100,4,2,1,40,0,1
98836,-100,4,2,1,40,0,0

[HitObjects]
64,192,1036,128,0,2161:0:0:0:0:
448,192,1036,128,0,1261:0:0:0:0:
320,192,1036,128,0,2011:0:0:0:0:
192,192,1036,128,0,1786:0:0:0:0:
448,192,1336,128,0,1711:0:0:0:0:
448,192,1786,128,0,1861:0:0:0:0:
192,192,1861,128,0,2161:0:0:0:0:
448,192,1936,128,0,2161:0:0:0:0:
320,192,2086,128,0,3061:0:0:0:0:
448,192,2236,128,0,3361:0:0:0:0:
64,192,2236,128,0,2461:0:0:0:0:
192,192,2236,128,0,2986:0:0:0:0:
64,192,2536,128,0,2911:0:0:0:0:
64,192,2986,128,0,3061:0:0:0:0:
192,192,3061,128,0,3136:0:0:0:0:
64,192,3136,128,0,3436:0:0:0:0:
320,192,3136,128,0,3286:0:0:0:0:
448,192,3436,128,0,3736:0:0:0:0:
320,192,3436,128,0,3511:0:0:0:0:
320,192,3586,128,0,3736:0:0:0:0:
192,192,3736,128,0,4036:0:0:0:0:
64,192,3736,128,0,3811:0:0:0:0:
64,192,3886,128,0,4036:0:0:0:0:
320,192,4036,128,0,4336:0:0:0:0:
448,192,4036,128,0,4111:0:0:0:0:
448,192,4186,128,0,4336:0:0:0:0:
64,192,4336,128,0,4636:0:0:0:0:
192,192,4336,128,0,4411:0:0:0:0:
192,192,4486,128,0,4636:0:0:0:0:
448,192,4636,128,0,4936:0:0:0:0:
320,192,4711,128,0,4861:0:0:0:0:
64,192,4786,128,0,5086:0:0:0:0:
192,192,4861,128,0,5011:0:0:0:0:
320,192,4936,128,0,5161:0:0:0:0:
448,192,5011,128,0,5161:0:0:0:0:
192,192,5086,128,0,5236:0:0:0:0:
64,192,5161,128,0,5236:0:0:0:0:
448,192,5236,128,0,5536:0:0:0:0:
320,192,5236,128,0,5311:0:0:0:0:
320,192,5386,128,0,5686:0:0:0:0:
192,192,5386,128,0,5461:0:0:0:0:
192,192,5536,128,0,5836:0:0:0:0:
64,192,5536,128,0,5611:0:0:0:0:
64,192,5686,128,0,5836:0:0:0:0:
320,192,5836,128,0,6136:0:0:0:0:
448,192,5836,128,0,6061:0:0:0:0:
192,192,5986,128,0,6061:0:0:0:0:
192,192,6136,128,0,6436:0:0:0:0:
64,192,6136,128,0,6361:0:0:0:0:
448,192,6136,1,0,0:0:0:0:
320,192,6286,128,0,6361:0:0:0:0:
448,192,6436,128,0,6736:0:0:0:0:
320,192,6436,128,0,6661:0:0:0:0:
64,192,6436,1,0,0:0:0:0:
64,192,6586,128,0,6661:0:0:0:0:
192,192,6736,128,0,7036:0:0:0:0:
320,192,6736,1,0,0:0:0:0:
64,192,6736,128,0,6961:0:0:0:0:
320,192,6886,128,0,7036:0:0:0:0:
64,192,7036,128,0,8236:0:0:0:0:
448,192,7036,128,0,7336:0:0:0:0:
320,192,7336,128,0,7411:0:0:0:0:
320,192,7486,128,0,7561:0:0:0:0:
320,192,7636,128,0,7711:0:0:0:0:
320,192,7786,128,0,7861:0:0:0:0:
448,192,7936,128,0,8236:0:0:0:0:
192,192,8236,128,0,8436:0:0:0:0:
320,192,8236,128,0,8336:0:0:0:0:
448,192,8336,128,0,8536:0:0:0:0:
320,192,8436,128,0,8536:0:0:0:0:
64,192,8436,128,0,8636:0:0:0:0:
192,192,8536,128,0,8736:0:0:0:0:
448,192,8636,128,0,8736:0:0:0:0:
320,192,8636,128,0,8836:0:0:0:0:
64,192,8736,128,0,8836:0:0:0:0:
192,192,8836,1,0,0:0:0:0:
448,192,8836,128,0,9436:0:0:0:0:
320,192,8986,128,0,9136:0:0:0:0:
192,192,9136,1,0,0:0:0:0:
64,192,9136,1,0,0:0:0:0:
320,192,9286,128,0,9436:0:0:0:0:
64,192,9436,128,0,10561:0:0:0:0:
192,192,9436,1,0,0:0:0:0:
192,192,9586,128,0,9736:0:0:0:0:
448,192,9736,1,0,0:0:0:0:
320,192,9736,1,0,0:0:0:0:
192,192,9886,128,0,10036:0:0:0:0:
448,192,9886,1,0,0:0:0:0:
320,192,10036,128,0,10336:0:0:0:0:
448,192,10186,1,0,0:0:0:0:
192,192,10186,1,0,0:0:0:0:
192,192,10336,128,0,10636:0:0:0:0:
448,192,10636,128,0,12661:0:0:0:0:
64,192,10636,128,0,10786:0:0:0:0:
320,192,10636,128,0,10936:0:0:0:0:
64,192,10936,128,0,11086:0:0:0:0:
192,192,10936,1,0,0:0:0:0:
320,192,11086,128,0,11311:0:0:0:0:
192,192,11086,1,0,0:0:0:0:
64,192,11236,1,0,0:0:0:0:
192,192,11236,1,0,0:0:0:0:
64,192,11386,128,0,11536:0:0:0:0:
320,192,11386,1,0,0:0:0:0:
192,192,11461,128,0,11611:0:0:0:0:
320,192,11536,128,0,11686:0:0:0:0:
192,192,11686,128,0,11836:0:0:0:0:
64,192,11836,1,0,0:0:0:0:
320,192,11836,1,0,0:0:0:0:
64,192,11986,128,0,12136:0:0:0:0:
192,192,12136,1,0,0:0:0:0:
320,192,12136,1,0,0:0:0:0:
320,192,12286,128,0,12436:0:0:0:0:
192,192,12286,1,0,0:0:0:0:
192,192,12436,1,0,0:0:0:0:
64,192,12436,1,0,0:0:0:0:
320,192,12586,1,0,0:0:0:0:
64,192,12586,1,0,0:0:0:0:
448,192,12736,1,0,0:0:0:0:
64,192,12736,128,0,12786:0:0:0:0:
192,192,12786,128,0,12836:0:0:0:0:
320,192,12836,128,0,12886:0:0:0:0:
64,192,13036,128,0,13186:0:0:0:0:
192,192,13036,128,0,13111:0:0:0:0:
320,192,13036,1,0,0:0:0:0:
192,192,13486,1,0,0:0:0:0:
320,192,13486,128,0,13561:0:0:0:0:
448,192,13486,128,0,13636:0:0:0:0:
64,192,13936,128,0,14136:0:0:0:0:
320,192,13936,1,0,0:0:0:0:
192,192,13936,128,0,14036:0:0:0:0:
192,192,14386,1,0,0:0:0:0:
320,192,14386,128,0,14486:0:0:0:0:
448,192,14386,128,0,14586:0:0:0:0:
64,192,14836,128,0,15136:0:0:0:0:
192,192,14836,128,0,14986:0:0:0:0:
320,192,14836,1,0,0:0:0:0:
192,192,15136,1,0,0:0:0:0:
320,192,15136,128,0,15286:0:0:0:0:
448,192,15136,128,0,15436:0:0:0:0:
64,192,15436,128,0,19036:0:0:0:0:
192,192,15436,128,0,17236:0:0:0:0:
320,192,15436,128,0,16636:0:0:0:0:
192,192,17836,128,0,18061:0:0:0:0:
448,192,17836,128,0,17911:0:0:0:0:
320,192,17911,128,0,17986:0:0:0:0:
448,192,17986,128,0,18061:0:0:0:0:
320,192,18061,128,0,18136:0:0:0:0:
192,192,18136,128,0,18211:0:0:0:0:
448,192,18136,1,0,0:0:0:0:
320,192,18211,128,0,18286:0:0:0:0:
448,192,18286,128,0,18361:0:0:0:0:
320,192,18361,128,0,18436:0:0:0:0:
192,192,18436,128,0,18661:0:0:0:0:
448,192,18436,1,0,0:0:0:0:
320,192,18511,128,0,18586:0:0:0:0:
448,192,18586,128,0,18661:0:0:0:0:
320,192,18661,128,0,18736:0:0:0:0:
192,192,18736,128,0,18811:0:0:0:0:
320,192,18811,128,0,18886:0:0:0:0:
448,192,18886,128,0,18961:0:0:0:0:
320,192,18961,128,0,19036:0:0:0:0:
448,192,19036,128,0,19186:0:0:0:0:
320,192,19111,128,0,19261:0:0:0:0:
192,192,19186,128,0,19336:0:0:0:0:
448,192,19261,128,0,19411:0:0:0:0:
320,192,19336,128,0,19486:0:0:0:0:
64,192,19486,128,0,19636:0:0:0:0:
448,192,19486,1,0,0:0:0:0:
192,192,19561,128,0,19711:0:0:0:0:
320,192,19636,128,0,19786:0:0:0:0:
192,192,19786,128,0,19936:0:0:0:0:
64,192,19936,1,0,0:0:0:0:
448,192,19936,1,0,0:0:0:0:
320,192,19936,1,0,0:0:0:0:
64,192,20236,128,0,20461:0:0:0:0:
448,192,20236,1,0,0:0:0:0:
320,192,20236,128,0,20311:0:0:0:0:
192,192,20311,128,0,20386:0:0:0:0:
320,192,20386,128,0,20536:0:0:0:0:
64,192,20536,1,0,0:0:0:0:
448,192,20536,128,0,20761:0:0:0:0:
192,192,20536,128,0,20611:0:0:0:0:
320,192,20611,128,0,20686:0:0:0:0:
192,192,20686,128,0,20836:0:0:0:0:
64,192,20836,128,0,21061:0:0:0:0:
448,192,20836,1,0,0:0:0:0:
320,192,20836,1,0,0:0:0:0:
320,192,20986,128,0,21136:0:0:0:0:
64,192,21136,1,0,0:0:0:0:
448,192,21136,128,0,21361:0:0:0:0:
192,192,21136,1,0,0:0:0:0:
192,192,21286,128,0,21436:0:0:0:0:
64,192,21436,128,0,21661:0:0:0:0:
320,192,21436,1,0,0:0:0:0:
448,192,21436,1,0,0:0:0:0:
448,192,21586,128,0,21661:0:0:0:0:
320,192,21586,1,0,0:0:0:0:
448,192,21736,128,0,21811:0:0:0:0:
64,192,21736,1,0,0:0:0:0:
192,192,21736,1,0,0:0:0:0:
448,192,21886,128,0,22186:0:0:0:0:
320,192,21886,1,0,0:0:0:0:
64,192,22036,1,0,0:0:0:0:
192,192,22036,1,0,0:0:0:0:
320,192,22186,1,0,0:0:0:0:
448,192,22336,1,0,0:0:0:0:
64,192,22336,128,0,22561:0:0:0:0:
192,192,22336,1,0,0:0:0:0:
320,192,22411,128,0,22561:0:0:0:0:
448,192,22486,128,0,22561:0:0:0:0:
192,192,22561,128,0,22636:0:0:0:0:
64,192,22636,128,0,22861:0:0:0:0:
320,192,22636,128,0,22711:0:0:0:0:
448,192,22636,1,0,0:0:0:0:
192,192,22711,128,0,22786:0:0:0:0:
320,192,22786,128,0,22936:0:0:0:0:
192,192,22936,128,0,23011:0:0:0:0:
64,192,22936,1,0,0:0:0:0:
448,192,22936,128,0,23161:0:0:0:0:
320,192,23011,128,0,23086:0:0:0:0:
192,192,23086,128,0,23236:0:0:0:0:
64,192,23236,128,0,23461:0:0:0:0:
448,192,23236,1,0,0:0:0:0:
320,192,23236,1,0,0:0:0:0:
320,192,23386,128,0,23536:0:0:0:0:
192,192,23536,1,0,0:0:0:0:
448,192,23536,128,0,23761:0:0:0:0:
64,192,23536,1,0,0:0:0:0:
192,192,23686,128,0,23836:0:0:0:0:
448,192,23836,1,0,0:0:0:0:
64,192,23836,128,0,24061:0:0:0:0:
320,192,23836,1,0,0:0:0:0:
448,192,23986,128,0,24061:0:0:0:0:
64,192,24136,1,0,0:0:0:0:
448,192,24136,128,0,24361:0:0:0:0:
320,192,24136,1,0,0:0:0:0:
192,192,24286,128,0,24361:0:0:0:0:
192,192,24436,128,0,24661:0:0:0:0:
64,192,24436,1,0,0:0:0:0:
448,192,24436,1,0,0:0:0:0:
320,192,24586,128,0,24961:0:0:0:0:
448,192,24736,128,0,24961:0:0:0:0:
192,192,24736,1,0,0:0:0:0:
64,192,24736,1,0,0:0:0:0:
64,192,24886,1,0,0:0:0:0:
192,192,24886,1,0,0:0:0:0:
192,192,25036,128,0,25261:0:0:0:0:
448,192,25036,128,0,25111:0:0:0:0:
320,192,25036,1,0,0:0:0:0:
64,192,25111,128,0,25186:0:0:0:0:
448,192,25186,128,0,25336:0:0:0:0:
64,192,25336,128,0,25411:0:0:0:0:
320,192,25336,128,0,25561:0:0:0:0:
192,192,25336,1,0,0:0:0:0:
448,192,25411,128,0,25486:0:0:0:0:
64,192,25486,128,0,25636:0:0:0:0:
320,192,25636,1,0,0:0:0:0:
192,192,25636,128,0,25861:0:0:0:0:
448,192,25636,1,0,0:0:0:0:
448,192,25786,128,0,25936:0:0:0:0:
64,192,25936,1,0,0:0:0:0:
192,192,25936,1,0,0:0:0:0:
320,192,25936,128,0,26161:0:0:0:0:
64,192,26086,128,0,26236:0:0:0:0:
320,192,26236,1,0,0:0:0:0:
448,192,26236,1,0,0:0:0:0:
192,192,26236,128,0,26461:0:0:0:0:
320,192,26386,128,0,26461:0:0:0:0:
448,192,26386,1,0,0:0:0:0:
64,192,26536,1,0,0:0:0:0:
320,192,26536,128,0,26611:0:0:0:0:
192,192,26536,1,0,0:0:0:0:
448,192,26686,1,0,0:0:0:0:
320,192,26686,128,0,26986:0:0:0:0:
192,192,26836,1,0,0:0:0:0:
64,192,26836,1,0,0:0:0:0:
448,192,26986,1,0,0:0:0:0:
192,192,27136,128,0,27361:0:0:0:0:
64,192,27136,1,0,0:0:0:0:
320,192,27136,1,0,0:0:0:0:
448,192,27211,128,0,27361:0:0:0:0:
320,192,27286,128,0,27361:0:0:0:0:
64,192,27361,128,0,27436:0:0:0:0:
320,192,27436,1,0,0:0:0:0:
192,192,27436,128,0,27661:0:0:0:0:
448,192,27436,128,0,27511:0:0:0:0:
64,192,27511,128,0,27586:0:0:0:0:
448,192,27586,128,0,27736:0:0:0:0:
64,192,27736,128,0,27811:0:0:0:0:
192,192,27736,1,0,0:0:0:0:
320,192,27736,128,0,27961:0:0:0:0:
448,192,27811,128,0,27886:0:0:0:0:
64,192,27886,128,0,28036:0:0:0:0:
192,192,28036,128,0,28261:0:0:0:0:
320,192,28036,1,0,0:0:0:0:
448,192,28036,1,0,0:0:0:0:
448,192,28186,128,0,28336:0:0:0:0:
64,192,28336,1,0,0:0:0:0:
320,192,28336,128,0,28786:0:0:0:0:
192,192,28336,1,0,0:0:0:0:
64,192,28486,128,0,28861:0:0:0:0:
192,192,28486,128,0,28861:0:0:0:0:
448,192,28486,128,0,28711:0:0:0:0:
448,192,28786,128,0,28936:0:0:0:0:
320,192,28861,128,0,29011:0:0:0:0:
192,192,28936,128,0,29086:0:0:0:0:
64,192,28936,1,0,0:0:0:0:
320,192,29086,128,0,29236:0:0:0:0:
192,192,29161,128,0,29311:0:0:0:0:
64,192,29236,128,0,29386:0:0:0:0:
448,192,29236,1,0,0:0:0:0:
448,192,29386,128,0,29536:0:0:0:0:
320,192,29461,128,0,29611:0:0:0:0:
192,192,29536,128,0,29686:0:0:0:0:
64,192,29536,1,0,0:0:0:0:
320,192,29686,128,0,29836:0:0:0:0:
64,192,29836,128,0,30061:0:0:0:0:
192,192,29836,1,0,0:0:0:0:
448,192,29911,128,0,30211:0:0:0:0:
320,192,29986,128,0,30211:0:0:0:0:
64,192,30136,1,0,0:0:0:0:
192,192,30136,128,0,30361:0:0:0:0:
320,192,30286,128,0,30511:0:0:0:0:
448,192,30286,128,0,30511:0:0:0:0:
192,192,30436,1,0,0:0:0:0:
64,192,30436,128,0,30661:0:0:0:0:
320,192,30586,128,0,30811:0:0:0:0:
448,192,30586,128,0,30811:0:0:0:0:
64,192,30736,1,0,0:0:0:0:
192,192,30736,128,0,30961:0:0:0:0:
320,192,30886,128,0,31111:0:0:0:0:
448,192,30886,128,0,31111:0:0:0:0:
192,192,31036,1,0,0:0:0:0:
64,192,31036,128,0,31411:0:0:0:0:
448,192,31186,128,0,31561:0:0:0:0:
320,192,31186,128,0,31411:0:0:0:0:
192,192,31336,128,0,31711:0:0:0:0:
320,192,31486,128,0,31936:0:0:0:0:
64,192,31486,128,0,31861:0:0:0:0:
448,192,31636,1,0,0:0:0:0:
192,192,31786,1,0,0:0:0:0:
448,192,31936,128,0,32011:0:0:0:0:
64,192,31936,1,0,0:0:0:0:
192,192,32011,128,0,32086:0:0:0:0:
320,192,32086,128,0,32161:0:0:0:0:
64,192,32161,128,0,32236:0:0:0:0:
448,192,32236,128,0,32461:0:0:0:0:
320,192,32236,1,0,0:0:0:0:
64,192,32311,128,0,32611:0:0:0:0:
192,192,32386,128,0,32611:0:0:0:0:
320,192,32536,128,0,32761:0:0:0:0:
448,192,32536,1,0,0:0:0:0:
64,192,32686,128,0,32911:0:0:0:0:
192,192,32686,128,0,32911:0:0:0:0:
448,192,32836,128,0,33061:0:0:0:0:
320,192,32836,1,0,0:0:0:0:
64,192,32986,128,0,33211:0:0:0:0:
192,192,32986,128,0,33211:0:0:0:0:
448,192,33136,1,0,0:0:0:0:
320,192,33136,128,0,33361:0:0:0:0:
64,192,33286,128,0,33511:0:0:0:0:
192,192,33286,128,0,33511:0:0:0:0:
320,192,33436,1,0,0:0:0:0:
448,192,33436,128,0,33811:0:0:0:0:
64,192,33586,128,0,33961:0:0:0:0:
192,192,33586,128,0,33886:0:0:0:0:
448,192,33886,128,0,34261:0:0:0:0:
320,192,33886,128,0,34111:0:0:0:0:
192,192,33961,128,0,34261:0:0:0:0:
64,192,34036,128,0,34261:0:0:0:0:
320,192,34186,128,0,34411:0:0:0:0:
192,192,34336,128,0,34636:0:0:0:0:
448,192,34336,1,0,0:0:0:0:
64,192,34336,1,0,0:0:0:0:
448,192,34486,1,0,0:0:0:0:
320,192,34486,1,0,0:0:0:0:
448,192,34636,1,0,0:0:0:0:
320,192,34636,128,0,34861:0:0:0:0:
64,192,34711,128,0,35011:0:0:0:0:
448,192,34786,128,0,35011:0:0:0:0:
192,192,34936,128,0,35161:0:0:0:0:
320,192,34936,1,0,0:0:0:0:
64,192,35086,128,0,35311:0:0:0:0:
448,192,35086,128,0,35311:0:0:0:0:
320,192,35236,128,0,35461:0:0:0:0:
192,192,35236,1,0,0:0:0:0:
64,192,35386,128,0,35611:0:0:0:0:
448,192,35386,128,0,35611:0:0:0:0:
192,192,35536,128,0,35761:0:0:0:0:
320,192,35536,1,0,0:0:0:0:
64,192,35686,128,0,36061:0:0:0:0:
448,192,35686,128,0,35911:0:0:0:0:
320,192,35836,1,0,0:0:0:0:
192,192,35836,1,0,0:0:0:0:
448,192,35986,128,0,36211:0:0:0:0:
320,192,35986,128,0,36361:0:0:0:0:
64,192,36136,128,0,36661:0:0:0:0:
192,192,36286,128,0,36661:0:0:0:0:
448,192,36286,128,0,36511:0:0:0:0:
320,192,36436,1,0,0:0:0:0:
448,192,36586,1,0,0:0:0:0:
64,192,36736,128,0,36811:0:0:0:0:
192,192,36736,1,0,0:0:0:0:
448,192,36811,128,0,36886:0:0:0:0:
192,192,36886,128,0,36961:0:0:0:0:
320,192,36961,128,0,37036:0:0:0:0:
64,192,37036,128,0,37261:0:0:0:0:
448,192,37036,128,0,37111:0:0:0:0:
320,192,37111,128,0,37261:0:0:0:0:
448,192,37186,128,0,37261:0:0:0:0:
448,192,37336,1,0,0:0:0:0:
320,192,37336,128,0,37411:0:0:0:0:
64,192,37336,128,0,37411:0:0:0:0:
192,192,37411,128,0,37486:0:0:0:0:
448,192,37486,1,0,0:0:0:0:
64,192,37486,128,0,37561:0:0:0:0:
320,192,37486,128,0,37561:0:0:0:0:
448,192,37636,128,0,37936:0:0:0:0:
64,192,37636,1,0,0:0:0:0:
192,192,37636,128,0,37786:0:0:0:0:
320,192,37636,1,0,0:0:0:0:
64,192,37786,128,0,37936:0:0:0:0:
320,192,37786,128,0,37936:0:0:0:0:
192,192,37936,128,0,38086:0:0:0:0:
448,192,38086,128,0,38311:0:0:0:0:
320,192,38086,128,0,38311:0:0:0:0:
64,192,38086,128,0,38311:0:0:0:0:
192,192,38161,128,0,38386:0:0:0:0:
448,192,38386,128,0,38461:0:0:0:0:
320,192,38386,128,0,38461:0:0:0:0:
64,192,38386,128,0,38536:0:0:0:0:
192,192,38461,128,0,38536:0:0:0:0:
320,192,38536,128,0,38686:0:0:0:0:
448,192,38536,128,0,38611:0:0:0:0:
448,192,38686,128,0,38836:0:0:0:0:
64,192,38686,128,0,38761:0:0:0:0:
192,192,38686,128,0,38761:0:0:0:0:
320,192,38761,128,0,38836:0:0:0:0:
64,192,38836,128,0,38911:0:0:0:0:
192,192,38836,128,0,38986:0:0:0:0:
64,192,38986,128,0,39061:0:0:0:0:
320,192,38986,128,0,39061:0:0:0:0:
448,192,38986,128,0,39061:0:0:0:0:
192,192,39061,128,0,39136:0:0:0:0:
320,192,39136,128,0,39361:0:0:0:0:
448,192,39136,128,0,39361:0:0:0:0:
64,192,39136,128,0,39361:0:0:0:0:
448,192,39436,1,0,0:0:0:0:
320,192,39436,1,0,0:0:0:0:
64,192,39436,128,0,39511:0:0:0:0:
192,192,39511,128,0,39586:0:0:0:0:
320,192,39586,128,0,39661:0:0:0:0:
192,192,39736,128,0,39811:0:0:0:0:
320,192,39811,128,0,39886:0:0:0:0:
448,192,39886,128,0,39961:0:0:0:0:
64,192,40036,128,0,40136:0:0:0:0:
320,192,40186,128,0,40286:0:0:0:0:
192,192,40336,128,0,40436:0:0:0:0:
448,192,40486,128,0,40586:0:0:0:0:
64,192,40636,128,0,40786:0:0:0:0:
320,192,40786,128,0,40936:0:0:0:0:
448,192,40936,128,0,41236:0:0:0:0:
192,192,40936,128,0,41161:0:0:0:0:
320,192,41086,128,0,41386:0:0:0:0:
192,192,41236,128,0,41536:0:0:0:0:
320,192,41536,128,0,41836:0:0:0:0:
448,192,41536,128,0,41761:0:0:0:0:
64,192,41536,1,0,0:0:0:0:
64,192,41836,128,0,42061:0:0:0:0:
448,192,41836,128,0,42511:0:0:0:0:
192,192,41836,128,0,42136:0:0:0:0:
320,192,42136,128,0,42211:0:0:0:0:
64,192,42136,128,0,42511:0:0:0:0:
192,192,42436,1,0,0:0:0:0:
320,192,42436,1,0,0:0:0:0:
64,192,42586,128,0,42961:0:0:0:0:
448,192,42586,128,0,42661:0:0:0:0:
320,192,42736,1,0,0:0:0:0:
448,192,42886,128,0,42961:0:0:0:0:
320,192,43036,1,0,0:0:0:0:
64,192,43036,128,0,43411:0:0:0:0:
448,192,43186,128,0,43261:0:0:0:0:
320,192,43336,1,0,0:0:0:0:
320,192,43486,1,0,0:0:0:0:
448,192,43486,128,0,43561:0:0:0:0:
64,192,43486,128,0,43561:0:0:0:0:
448,192,43636,128,0,44161:0:0:0:0:
64,192,43636,1,0,0:0:0:0:
192,192,43636,1,0,0:0:0:0:
64,192,43786,1,0,0:0:0:0:
320,192,43786,128,0,44161:0:0:0:0:
192,192,43936,128,0,44236:0:0:0:0:
448,192,44236,128,0,44461:0:0:0:0:
64,192,44236,128,0,44911:0:0:0:0:
320,192,44236,128,0,44611:0:0:0:0:
448,192,44536,128,0,44911:0:0:0:0:
192,192,44536,128,0,44611:0:0:0:0:
320,192,44686,128,0,44911:0:0:0:0:
192,192,44836,1,0,0:0:0:0:
64,192,44986,128,0,45061:0:0:0:0:
320,192,44986,1,0,0:0:0:0:
448,192,44986,128,0,45361:0:0:0:0:
192,192,45136,1,0,0:0:0:0:
64,192,45286,128,0,45361:0:0:0:0:
192,192,45436,1,0,0:0:0:0:
448,192,45436,128,0,45811:0:0:0:0:
64,192,45586,128,0,45661:0:0:0:0:
192,192,45736,1,0,0:0:0:0:
64,192,45736,128,0,45811:0:0:0:0:
448,192,45886,128,0,45961:0:0:0:0:
64,192,45886,128,0,45961:0:0:0:0:
192,192,45886,1,0,0:0:0:0:
64,192,46036,128,0,46561:0:0:0:0:
320,192,46036,1,0,0:0:0:0:
448,192,46036,1,0,0:0:0:0:
192,192,46186,128,0,46561:0:0:0:0:
320,192,46336,128,0,46561:0:0:0:0:
64,192,46636,1,0,0:0:0:0:
192,192,46636,1,0,0:0:0:0:
448,192,46636,128,0,46861:0:0:0:0:
192,192,46936,128,0,47011:0:0:0:0:
448,192,46936,128,0,47311:0:0:0:0:
64,192,47086,1,0,0:0:0:0:
320,192,47086,1,0,0:0:0:0:
64,192,47236,1,0,0:0:0:0:
320,192,47236,1,0,0:0:0:0:
192,192,47386,128,0,47461:0:0:0:0:
448,192,47386,128,0,47761:0:0:0:0:
64,192,47536,1,0,0:0:0:0:
320,192,47536,1,0,0:0:0:0:
192,192,47686,128,0,47761:0:0:0:0:
448,192,47836,128,0,48211:0:0:0:0:
192,192,47986,128,0,48061:0:0:0:0:
64,192,47986,1,0,0:0:0:0:
320,192,47986,1,0,0:0:0:0:
64,192,48136,1,0,0:0:0:0:
320,192,48136,1,0,0:0:0:0:
192,192,48286,128,0,48361:0:0:0:0:
448,192,48286,128,0,48511:0:0:0:0:
320,192,48436,128,0,49036:0:0:0:0:
192,192,48436,1,0,0:0:0:0:
64,192,48436,128,0,48961:0:0:0:0:
448,192,48586,128,0,48961:0:0:0:0:
192,192,48736,128,0,49036:0:0:0:0:
448,192,49036,128,0,49111:0:0:0:0:
64,192,49036,128,0,49111:0:0:0:0:
448,192,49186,128,0,49261:0:0:0:0:
64,192,49186,128,0,49261:0:0:0:0:
192,192,49261,128,0,49336:0:0:0:0:
448,192,49336,128,0,49411:0:0:0:0:
320,192,49336,128,0,49411:0:0:0:0:
448,192,49486,128,0,49561:0:0:0:0:
192,192,49486,128,0,49561:0:0:0:0:
320,192,49636,128,0,49711:0:0:0:0:
64,192,49636,128,0,49711:0:0:0:0:
320,192,49786,128,0,49861:0:0:0:0:
64,192,49786,128,0,49861:0:0:0:0:
192,192,49861,128,0,49936:0:0:0:0:
320,192,49936,128,0,50011:0:0:0:0:
448,192,49936,128,0,50011:0:0:0:0:
320,192,50086,128,0,50161:0:0:0:0:
448,192,50086,128,0,50161:0:0:0:0:
192,192,50236,128,0,50311:0:0:0:0:
64,192,50236,128,0,50311:0:0:0:0:
192,192,50386,128,0,50461:0:0:0:0:
64,192,50386,128,0,50461:0:0:0:0:
320,192,50461,128,0,50536:0:0:0:0:
192,192,50536,128,0,50761:0:0:0:0:
448,192,50536,128,0,50611:0:0:0:0:
448,192,50686,128,0,50761:0:0:0:0:
192,192,50836,128,0,51061:0:0:0:0:
64,192,50836,1,0,0:0:0:0:
320,192,50836,1,0,0:0:0:0:
448,192,50836,128,0,51361:0:0:0:0:
192,192,51136,128,0,51361:0:0:0:0:
64,192,51436,128,0,51886:0:0:0:0:
192,192,51436,128,0,51736:0:0:0:0:
320,192,51436,128,0,51586:0:0:0:0:
448,192,51436,1,0,0:0:0:0:
192,192,51886,128,0,52036:0:0:0:0:
320,192,51886,128,0,52186:0:0:0:0:
448,192,51886,128,0,52336:0:0:0:0:
64,192,52336,128,0,52786:0:0:0:0:
192,192,52336,128,0,52636:0:0:0:0:
320,192,52336,128,0,52486:0:0:0:0:
192,192,52786,128,0,52936:0:0:0:0:
320,192,52786,128,0,53086:0:0:0:0:
448,192,52786,128,0,53236:0:0:0:0:
64,192,53236,128,0,53536:0:0:0:0:
320,192,53236,1,0,0:0:0:0:
192,192,53236,128,0,53386:0:0:0:0:
192,192,53536,1,0,0:0:0:0:
320,192,53536,128,0,53686:0:0:0:0:
448,192,53536,128,0,53836:0:0:0:0:
64,192,53836,128,0,53986:0:0:0:0:
192,192,53836,128,0,54286:0:0:0:0:
320,192,53836,128,0,54136:0:0:0:0:
320,192,54286,128,0,54736:0:0:0:0:
64,192,54286,128,0,54586:0:0:0:0:
448,192,54286,128,0,54436:0:0:0:0:
192,192,54736,128,0,55186:0:0:0:0:
64,192,54736,128,0,54886:0:0:0:0:
448,192,54736,128,0,55036:0:0:0:0:
320,192,55186,128,0,55636:0:0:0:0:
64,192,55186,128,0,55486:0:0:0:0:
448,192,55186,128,0,55336:0:0:0:0:
64,192,55636,1,0,0:0:0:0:
192,192,55636,128,0,55936:0:0:0:0:
448,192,55636,128,0,55786:0:0:0:0:
320,192,55936,128,0,56161:0:0:0:0:
64,192,55936,128,0,56086:0:0:0:0:
448,192,55936,1,0,0:0:0:0:
64,192,56236,128,0,56461:0:0:0:0:
192,192,56236,128,0,56386:0:0:0:0:
448,192,56236,128,0,56311:0:0:0:0:
320,192,56236,1,0,0:0:0:0:
192,192,56536,128,0,56761:0:0:0:0:
320,192,56536,128,0,56686:0:0:0:0:
448,192,56536,128,0,56611:0:0:0:0:
64,192,56536,1,0,0:0:0:0:
320,192,56836,128,0,57061:0:0:0:0:
448,192,56836,128,0,56986:0:0:0:0:
64,192,56836,128,0,56911:0:0:0:0:
192,192,56836,1,0,0:0:0:0:
448,192,57136,128,0,57361:0:0:0:0:
64,192,57136,128,0,57286:0:0:0:0:
192,192,57136,128,0,57211:0:0:0:0:
320,192,57136,1,0,0:0:0:0:
64,192,57436,128,0,57536:0:0:0:0:
448,192,57436,128,0,57536:0:0:0:0:
192,192,57536,128,0,57636:0:0:0:0:
320,192,57536,128,0,57636:0:0:0:0:
448,192,57636,128,0,57736:0:0:0:0:
64,192,57636,128,0,57736:0:0:0:0:
192,192,57736,128,0,57836:0:0:0:0:
320,192,57736,128,0,57836:0:0:0:0:
448,192,57836,128,0,57936:0:0:0:0:
64,192,57836,128,0,57936:0:0:0:0:
192,192,57936,128,0,58036:0:0:0:0:
320,192,57936,128,0,58036:0:0:0:0:
64,192,58036,128,0,58236:0:0:0:0:
448,192,58036,128,0,58336:0:0:0:0:
192,192,58136,128,0,58236:0:0:0:0:
320,192,58236,128,0,58436:0:0:0:0:
64,192,58336,128,0,58536:0:0:0:0:
192,192,58336,128,0,58536:0:0:0:0:
448,192,58436,128,0,58536:0:0:0:0:
320,192,58536,128,0,58636:0:0:0:0:
64,192,58636,128,0,59086:0:0:0:0:
192,192,58636,128,0,58936:0:0:0:0:
448,192,58636,128,0,58786:0:0:0:0:
448,192,59086,128,0,59536:0:0:0:0:
192,192,59086,128,0,59236:0:0:0:0:
320,192,59086,128,0,59386:0:0:0:0:
64,192,59536,128,0,59836:0:0:0:0:
192,192,59536,128,0,59761:0:0:0:0:
320,192,59536,128,0,59686:0:0:0:0:
192,192,59836,128,0,59986:0:0:0:0:
320,192,59836,128,0,60061:0:0:0:0:
448,192,59836,128,0,60136:0:0:0:0:
320,192,60136,128,0,60436:0:0:0:0:
192,192,60436,128,0,60736:0:0:0:0:
320,192,60636,128,0,60836:0:0:0:0:
448,192,60636,128,0,60936:0:0:0:0:
64,192,60736,128,0,60936:0:0:0:0:
192,192,60836,128,0,61036:0:0:0:0:
320,192,60936,128,0,61036:0:0:0:0:
64,192,61036,128,0,61336:0:0:0:0:
448,192,61036,128,0,61136:0:0:0:0:
448,192,61236,128,0,61836:0:0:0:0:
320,192,61336,128,0,61436:0:0:0:0:
192,192,61336,1,0,0:0:0:0:
320,192,61536,128,0,61836:0:0:0:0:
64,192,61636,128,0,61836:0:0:0:0:
192,192,61636,1,0,0:0:0:0:
192,192,61836,1,0,0:0:0:0:
64,192,61936,1,0,0:0:0:0:
320,192,61936,1,0,0:0:0:0:
448,192,61936,1,0,0:0:0:0:
320,192,62136,128,0,62236:0:0:0:0:
192,192,62186,128,0,62286:0:0:0:0:
448,192,62236,128,0,62436:0:0:0:0:
64,192,62236,128,0,62336:0:0:0:0:
64,192,62436,128,0,62736:0:0:0:0:
192,192,62536,128,0,62636:0:0:0:0:
448,192,62536,128,0,62836:0:0:0:0:
320,192,62636,128,0,62736:0:0:0:0:
192,192,62736,128,0,63036:0:0:0:0:
320,192,62836,128,0,62936:0:0:0:0:
64,192,62836,128,0,63036:0:0:0:0:
448,192,62936,128,0,63036:0:0:0:0:
320,192,63036,128,0,63136:0:0:0:0:
192,192,63136,1,0,0:0:0:0:
64,192,63136,1,0,0:0:0:0:
448,192,63136,1,0,0:0:0:0:
64,192,63336,128,0,63636:0:0:0:0:
448,192,63436,128,0,63536:0:0:0:0:
192,192,63436,128,0,63636:0:0:0:0:
320,192,63536,128,0,63736:0:0:0:0:
448,192,63636,128,0,63836:0:0:0:0:
64,192,63736,128,0,63936:0:0:0:0:
192,192,63736,128,0,63936:0:0:0:0:
320,192,63836,128,0,63936:0:0:0:0:
448,192,63936,128,0,64036:0:0:0:0:
320,192,64036,128,0,64336:0:0:0:0:
64,192,64036,1,0,0:0:0:0:
192,192,64036,1,0,0:0:0:0:
64,192,64236,128,0,64336:0:0:0:0:
192,192,64336,1,0,0:0:0:0:
448,192,64336,1,0,0:0:0:0:
192,192,64536,128,0,64836:0:0:0:0:
320,192,64536,128,0,64736:0:0:0:0:
64,192,64636,128,0,64736:0:0:0:0:
448,192,64636,128,0,64836:0:0:0:0:
64,192,64836,128,0,65136:0:0:0:0:
320,192,64836,128,0,64936:0:0:0:0:
448,192,64936,128,0,65136:0:0:0:0:
192,192,64936,128,0,65036:0:0:0:0:
320,192,65036,128,0,65236:0:0:0:0:
192,192,65136,128,0,65336:0:0:0:0:
64,192,65236,128,0,65436:0:0:0:0:
448,192,65236,128,0,65536:0:0:0:0:
192,192,65436,1,0,0:0:0:0:
320,192,65536,1,0,0:0:0:0:
64,192,65536,128,0,65736:0:0:0:0:
192,192,65636,128,0,65836:0:0:0:0:
320,192,65736,128,0,65836:0:0:0:0:
64,192,65836,128,0,65936:0:0:0:0:
448,192,65836,128,0,66136:0:0:0:0:
64,192,66036,128,0,66636:0:0:0:0:
192,192,66136,128,0,66236:0:0:0:0:
320,192,66136,1,0,0:0:0:0:
192,192,66336,128,0,66636:0:0:0:0:
448,192,66436,128,0,66636:0:0:0:0:
320,192,66436,1,0,0:0:0:0:
320,192,66636,1,0,0:0:0:0:
448,192,66736,1,0,0:0:0:0:
192,192,66736,1,0,0:0:0:0:
64,192,66736,1,0,0:0:0:0:
192,192,66936,128,0,67036:0:0:0:0:
320,192,66986,128,0,67086:0:0:0:0:
64,192,67036,128,0,67236:0:0:0:0:
448,192,67036,128,0,67136:0:0:0:0:
448,192,67236,128,0,67536:0:0:0:0:
320,192,67336,128,0,67436:0:0:0:0:
64,192,67336,128,0,67636:0:0:0:0:
192,192,67336,128,0,67536:0:0:0:0:
320,192,67536,128,0,67836:0:0:0:0:
192,192,67636,128,0,67736:0:0:0:0:
448,192,67636,128,0,68036:0:0:0:0:
64,192,67736,128,0,67836:0:0:0:0:
192,192,67836,128,0,67936:0:0:0:0:
64,192,67936,128,0,68136:0:0:0:0:
320,192,67936,128,0,68136:0:0:0:0:
192,192,68036,128,0,68236:0:0:0:0:
448,192,68136,128,0,68436:0:0:0:0:
64,192,68236,128,0,68336:0:0:0:0:
320,192,68236,128,0,68436:0:0:0:0:
192,192,68336,128,0,68536:0:0:0:0:
64,192,68436,128,0,68636:0:0:0:0:
448,192,68536,128,0,68936:0:0:0:0:
320,192,68536,128,0,68836:0:0:0:0:
192,192,68636,128,0,68736:0:0:0:0:
64,192,68736,128,0,69036:0:0:0:0:
192,192,68836,128,0,69036:0:0:0:0:
320,192,68936,128,0,69136:0:0:0:0:
448,192,69036,128,0,69136:0:0:0:0:
64,192,69136,1,0,0:0:0:0:
192,192,69136,1,0,0:0:0:0:
320,192,69336,128,0,69636:0:0:0:0:
192,192,69336,128,0,69536:0:0:0:0:
64,192,69436,128,0,69636:0:0:0:0:
448,192,69436,128,0,69536:0:0:0:0:
448,192,69636,128,0,69836:0:0:0:0:
192,192,69636,128,0,69936:0:0:0:0:
320,192,69736,128,0,69836:0:0:0:0:
64,192,69736,128,0,69936:0:0:0:0:
320,192,69936,128,0,70136:0:0:0:0:
448,192,69936,128,0,70236:0:0:0:0:
64,192,70036,128,0,70236:0:0:0:0:
192,192,70036,128,0,70236:0:0:0:0:
320,192,70236,1,0,0:0:0:0:
192,192,70336,1,0,0:0:0:0:
64,192,70336,1,0,0:0:0:0:
448,192,70336,1,0,0:0:0:0:
192,192,70536,128,0,70636:0:0:0:0:
320,192,70536,128,0,70636:0:0:0:0:
64,192,70636,128,0,70936:0:0:0:0:
448,192,70636,128,0,70736:0:0:0:0:
448,192,70836,128,0,71436:0:0:0:0:
320,192,70936,1,0,0:0:0:0:
192,192,70936,128,0,71036:0:0:0:0:
192,192,71136,128,0,71436:0:0:0:0:
320,192,71236,1,0,0:0:0:0:
64,192,71236,128,0,71436:0:0:0:0:
320,192,71436,1,0,0:0:0:0:
448,192,71536,1,0,0:0:0:0:
192,192,71536,1,0,0:0:0:0:
64,192,71536,1,0,0:0:0:0:
192,192,71736,128,0,71836:0:0:0:0:
320,192,71786,128,0,71886:0:0:0:0:
448,192,71836,128,0,72036:0:0:0:0:
64,192,71836,128,0,71936:0:0:0:0:
64,192,72036,128,0,72336:0:0:0:0:
448,192,72136,128,0,72436:0:0:0:0:
320,192,72136,128,0,72236:0:0:0:0:
192,192,72236,128,0,72336:0:0:0:0:
320,192,72336,128,0,72636:0:0:0:0:
64,192,72436,128,0,72636:0:0:0:0:
192,192,72436,128,0,72536:0:0:0:0:
448,192,72536,128,0,72636:0:0:0:0:
192,192,72636,128,0,72736:0:0:0:0:
320,192,72736,1,0,0:0:0:0:
64,192,72736,1,0,0:0:0:0:
448,192,72736,1,0,0:0:0:0:
64,192,72936,128,0,73236:0:0:0:0:
320,192,73036,128,0,73236:0:0:0:0:
448,192,73036,128,0,73136:0:0:0:0:
192,192,73136,128,0,73336:0:0:0:0:
448,192,73236,128,0,73436:0:0:0:0:
320,192,73336,128,0,73536:0:0:0:0:
64,192,73336,128,0,73536:0:0:0:0:
192,192,73436,128,0,73536:0:0:0:0:
448,192,73536,128,0,73636:0:0:0:0:
192,192,73636,128,0,73936:0:0:0:0:
64,192,73636,1,0,0:0:0:0:
320,192,73636,1,0,0:0:0:0:
64,192,73836,128,0,73936:0:0:0:0:
320,192,73936,1,0,0:0:0:0:
448,192,73936,1,0,0:0:0:0:
192,192,74136,128,0,74336:0:0:0:0:
320,192,74136,128,0,74436:0:0:0:0:
64,192,74236,128,0,74336:0:0:0:0:
448,192,74236,128,0,74436:0:0:0:0:
64,192,74436,128,0,74736:0:0:0:0:
192,192,74436,128,0,74536:0:0:0:0:
320,192,74536,128,0,74636:0:0:0:0:
448,192,74536,128,0,74736:0:0:0:0:
192,192,74636,128,0,74836:0:0:0:0:
320,192,74736,128,0,74936:0:0:0:0:
64,192,74836,128,0,75036:0:0:0:0:
448,192,74836,128,0,75136:0:0:0:0:
320,192,75036,1,0,0:0:0:0:
64,192,75136,128,0,75336:0:0:0:0:
192,192,75136,1,0,0:0:0:0:
320,192,75236,128,0,75436:0:0:0:0:
192,192,75336,128,0,75436:0:0:0:0:
448,192,75436,128,0,75736:0:0:0:0:
64,192,75436,128,0,75536:0:0:0:0:
64,192,75636,128,0,76236:0:0:0:0:
192,192,75736,1,0,0:0:0:0:
320,192,75736,128,0,75836:0:0:0:0:
320,192,75936,128,0,76236:0:0:0:0:
448,192,76036,128,0,76236:0:0:0:0:
192,192,76036,1,0,0:0:0:0:
192,192,76236,1,0,0:0:0:0:
448,192,76336,1,0,0:0:0:0:
320,192,76336,1,0,0:0:0:0:
64,192,76336,1,0,0:0:0:0:
320,192,76536,128,0,76636:0:0:0:0:
192,192,76586,128,0,76686:0:0:0:0:
448,192,76636,128,0,76736:0:0:0:0:
64,192,76636,128,0,76836:0:0:0:0:
448,192,76836,128,0,77136:0:0:0:0:
192,192,76936,128,0,77036:0:0:0:0:
64,192,76936,128,0,77236:0:0:0:0:
320,192,76936,128,0,77136:0:0:0:0:
192,192,77136,128,0,77436:0:0:0:0:
320,192,77236,128,0,77336:0:0:0:0:
448,192,77236,128,0,77636:0:0:0:0:
64,192,77336,128,0,77436:0:0:0:0:
320,192,77436,128,0,77536:0:0:0:0:
192,192,77536,128,0,77736:0:0:0:0:
64,192,77536,128,0,77736:0:0:0:0:
320,192,77636,128,0,77836:0:0:0:0:
448,192,77736,128,0,78036:0:0:0:0:
64,192,77836,128,0,77936:0:0:0:0:
192,192,77836,128,0,78036:0:0:0:0:
320,192,77936,128,0,78136:0:0:0:0:
64,192,78036,128,0,78236:0:0:0:0:
448,192,78136,128,0,78536:0:0:0:0:
192,192,78136,128,0,78436:0:0:0:0:
320,192,78236,128,0,78336:0:0:0:0:
64,192,78336,128,0,78636:0:0:0:0:
320,192,78436,128,0,78636:0:0:0:0:
192,192,78536,128,0,78736:0:0:0:0:
448,192,78636,128,0,78736:0:0:0:0:
64,192,78736,1,0,0:0:0:0:
320,192,78736,1,0,0:0:0:0:
192,192,78936,128,0,79136:0:0:0:0:
320,192,78936,128,0,79236:0:0:0:0:
448,192,79036,128,0,79136:0:0:0:0:
64,192,79036,128,0,79236:0:0:0:0:
192,192,79236,128,0,79536:0:0:0:0:
448,192,79236,128,0,79436:0:0:0:0:
320,192,79336,128,0,79436:0:0:0:0:
64,192,79336,128,0,79536:0:0:0:0:
320,192,79536,128,0,79736:0:0:0:0:
448,192,79536,128,0,79836:0:0:0:0:
192,192,79636,128,0,79836:0:0:0:0:
64,192,79636,128,0,79836:0:0:0:0:
320,192,79836,128,0,80036:0:0:0:0:
64,192,79936,128,0,80136:0:0:0:0:
192,192,79936,128,0,80136:0:0:0:0:
448,192,79936,128,0,80036:0:0:0:0:
448,192,80136,128,0,80536:0:0:0:0:
320,192,80136,128,0,80361:0:0:0:0:
192,192,80236,128,0,80536:0:0:0:0:
64,192,80236,128,0,80686:0:0:0:0:
448,192,80686,128,0,81136:0:0:0:0:
320,192,80686,128,0,80986:0:0:0:0:
192,192,80686,128,0,80836:0:0:0:0:
192,192,81136,128,0,81436:0:0:0:0:
64,192,81136,128,0,81586:0:0:0:0:
320,192,81136,128,0,81286:0:0:0:0:
448,192,81586,128,0,82036:0:0:0:0:
320,192,81586,128,0,81886:0:0:0:0:
192,192,81586,128,0,81736:0:0:0:0:
192,192,82036,128,0,82186:0:0:0:0:
320,192,82036,1,0,0:0:0:0:
64,192,82036,128,0,82336:0:0:0:0:
192,192,82336,1,0,0:0:0:0:
448,192,82336,128,0,82636:0:0:0:0:
320,192,82336,128,0,82486:0:0:0:0:
64,192,82636,128,0,82786:0:0:0:0:
320,192,82636,128,0,82936:0:0:0:0:
192,192,82636,128,0,83086:0:0:0:0:
448,192,83086,128,0,83236:0:0:0:0:
320,192,83086,128,0,83536:0:0:0:0:
64,192,83086,128,0,83386:0:0:0:0:
448,192,83536,128,0,83836:0:0:0:0:
192,192,83536,128,0,83986:0:0:0:0:
64,192,83536,128,0,83686:0:0:0:0:
64,192,83986,128,0,84286:0:0:0:0:
320,192,83986,128,0,84436:0:0:0:0:
448,192,83986,128,0,84136:0:0:0:0:
448,192,84436,128,0,84586:0:0:0:0:
192,192,84436,128,0,84736:0:0:0:0:
64,192,84436,1,0,0:0:0:0:
448,192,84736,1,0,0:0:0:0:
64,192,84736,128,0,84886:0:0:0:0:
320,192,84736,128,0,84961:0:0:0:0:
320,192,85036,1,0,0:0:0:0:
448,192,85036,128,0,85111:0:0:0:0:
64,192,85036,128,0,85261:0:0:0:0:
192,192,85036,128,0,85186:0:0:0:0:
320,192,85336,128,0,85486:0:0:0:0:
448,192,85336,128,0,85411:0:0:0:0:
192,192,85336,128,0,85561:0:0:0:0:
64,192,85336,1,0,0:0:0:0:
64,192,85636,128,0,85711:0:0:0:0:
192,192,85636,1,0,0:0:0:0:
448,192,85636,128,0,85786:0:0:0:0:
320,192,85636,128,0,85861:0:0:0:0:
448,192,85936,128,0,86161:0:0:0:0:
192,192,85936,128,0,86011:0:0:0:0:
64,192,85936,128,0,86086:0:0:0:0:
320,192,85936,1,0,0:0:0:0:
448,192,86236,128,0,86336:0:0:0:0:
320,192,86236,128,0,86336:0:0:0:0:
64,192,86336,128,0,86436:0:0:0:0:
192,192,86336,128,0,86436:0:0:0:0:
448,192,86436,128,0,86536:0:0:0:0:
320,192,86436,128,0,86536:0:0:0:0:
64,192,86536,128,0,86636:0:0:0:0:
192,192,86536,128,0,86636:0:0:0:0:
448,192,86636,128,0,86736:0:0:0:0:
320,192,86636,128,0,86736:0:0:0:0:
64,192,86736,128,0,86836:0:0:0:0:
192,192,86736,128,0,86836:0:0:0:0:
448,192,86836,128,0,87036:0:0:0:0:
320,192,86836,128,0,87136:0:0:0:0:
192,192,86936,128,0,87036:0:0:0:0:
64,192,87036,128,0,87236:0:0:0:0:
448,192,87136,128,0,87336:0:0:0:0:
192,192,87136,128,0,87336:0:0:0:0:
320,192,87236,128,0,87336:0:0:0:0:
64,192,87336,128,0,87436:0:0:0:0:
448,192,87436,128,0,87886:0:0:0:0:
320,192,87436,128,0,87736:0:0:0:0:
192,192,87436,128,0,87586:0:0:0:0:
64,192,87886,128,0,88336:0:0:0:0:
192,192,87886,128,0,88186:0:0:0:0:
320,192,87886,128,0,88036:0:0:0:0:
320,192,88336,128,0,88561:0:0:0:0:
192,192,88336,128,0,88486:0:0:0:0:
448,192,88336,128,0,88636:0:0:0:0:
64,192,88636,128,0,88936:0:0:0:0:
320,192,88636,128,0,88786:0:0:0:0:
192,192,88636,128,0,88861:0:0:0:0:
448,192,88936,128,0,89236:0:0:0:0:
64,192,89236,128,0,89761:0:0:0:0:
448,192,89386,128,0,89761:0:0:0:0:
192,192,89536,128,0,89836:0:0:0:0:
320,192,89686,128,0,89761:0:0:0:0:
448,192,89836,128,0,90061:0:0:0:0:
320,192,89836,128,0,90136:0:0:0:0:
64,192,89836,128,0,90511:0:0:0:0:
192,192,90136,128,0,90211:0:0:0:0:
448,192,90136,128,0,90511:0:0:0:0:
192,192,90436,1,0,0:0:0:0:
320,192,90436,1,0,0:0:0:0:
448,192,90586,128,0,90961:0:0:0:0:
64,192,90586,128,0,90661:0:0:0:0:
192,192,90736,1,0,0:0:0:0:
64,192,90886,128,0,90961:0:0:0:0:
448,192,91036,128,0,91411:0:0:0:0:
192,192,91036,1,0,0:0:0:0:
64,192,91186,128,0,91261:0:0:0:0:
192,192,91336,1,0,0:0:0:0:
64,192,91486,128,0,91561:0:0:0:0:
192,192,91486,1,0,0:0:0:0:
448,192,91486,128,0,91561:0:0:0:0:
320,192,91636,1,0,0:0:0:0:
64,192,91636,128,0,92161:0:0:0:0:
448,192,91636,1,0,0:0:0:0:
192,192,91786,128,0,92161:0:0:0:0:
448,192,91786,1,0,0:0:0:0:
320,192,91936,128,0,92236:0:0:0:0:
64,192,92236,128,0,92461:0:0:0:0:
192,192,92236,128,0,92611:0:0:0:0:
448,192,92236,128,0,92911:0:0:0:0:
64,192,92536,128,0,92911:0:0:0:0:
320,192,92536,128,0,92611:0:0:0:0:
192,192,92686,128,0,92911:0:0:0:0:
320,192,92836,1,0,0:0:0:0:
192,192,92986,1,0,0:0:0:0:
64,192,92986,128,0,93361:0:0:0:0:
448,192,92986,128,0,93061:0:0:0:0:
320,192,93136,1,0,0:0:0:0:
448,192,93286,128,0,93361:0:0:0:0:
320,192,93436,1,0,0:0:0:0:
64,192,93436,128,0,93811:0:0:0:0:
448,192,93586,128,0,93661:0:0:0:0:
320,192,93736,1,0,0:0:0:0:
448,192,93736,128,0,93811:0:0:0:0:
448,192,93886,128,0,93961:0:0:0:0:
64,192,93886,128,0,93961:0:0:0:0:
320,192,93886,1,0,0:0:0:0:
192,192,94036,1,0,0:0:0:0:
448,192,94036,128,0,94561:0:0:0:0:
64,192,94036,1,0,0:0:0:0:
320,192,94186,128,0,94561:0:0:0:0:
192,192,94336,128,0,94561:0:0:0:0:
320,192,94636,1,0,0:0:0:0:
64,192,94636,128,0,94861:0:0:0:0:
448,192,94636,1,0,0:0:0:0:
64,192,94936,128,0,95311:0:0:0:0:
320,192,94936,128,0,95011:0:0:0:0:
192,192,95086,1,0,0:0:0:0:
448,192,95086,1,0,0:0:0:0:
192,192,95236,1,0,0:0:0:0:
448,192,95236,1,0,0:0:0:0:
64,192,95386,128,0,95761:0:0:0:0:
320,192,95386,128,0,95461:0:0:0:0:
192,192,95536,1,0,0:0:0:0:
448,192,95536,1,0,0:0:0:0:
320,192,95686,128,0,95761:0:0:0:0:
64,192,95836,128,0,96211:0:0:0:0:
192,192,95986,1,0,0:0:0:0:
448,192,95986,1,0,0:0:0:0:
320,192,95986,128,0,96061:0:0:0:0:
448,192,96136,1,0,0:0:0:0:
192,192,96136,1,0,0:0:0:0:
64,192,96286,128,0,96511:0:0:0:0:
320,192,96286,128,0,96361:0:0:0:0:
448,192,96436,128,0,96961:0:0:0:0:
320,192,96436,1,0,0:0:0:0:
192,192,96436,128,0,97036:0:0:0:0:
64,192,96586,128,0,96961:0:0:0:0:
320,192,96736,128,0,97036:0:0:0:0:
64,192,97036,128,0,97111:0:0:0:0:
448,192,97036,128,0,97111:0:0:0:0:
64,192,97186,128,0,97261:0:0:0:0:
448,192,97186,128,0,97261:0:0:0:0:
320,192,97261,128,0,97336:0:0:0:0:
192,192,97336,128,0,97411:0:0:0:0:
64,192,97336,128,0,97411:0:0:0:0:
64,192,97486,128,0,97561:0:0:0:0:
320,192,97486,128,0,97561:0:0:0:0:
448,192,97636,128,0,97711:0:0:0:0:
192,192,97636,128,0,97711:0:0:0:0:
192,192,97786,128,0,97861:0:0:0:0:
448,192,97786,128,0,97861:0:0:0:0:
320,192,97861,128,0,97936:0:0:0:0:
64,192,97936,128,0,98011:0:0:0:0:
192,192,97936,128,0,98011:0:0:0:0:
192,192,98086,128,0,98161:0:0:0:0:
64,192,98086,128,0,98161:0:0:0:0:
320,192,98236,128,0,98311:0:0:0:0:
448,192,98236,128,0,98311:0:0:0:0:
320,192,98386,128,0,98461:0:0:0:0:
448,192,98386,128,0,98461:0:0:0:0:
192,192,98461,128,0,98536:0:0:0:0:
320,192,98536,128,0,98761:0:0:0:0:
64,192,98536,128,0,98611:0:0:0:0:
64,192,98686,128,0,98761:0:0:0:0:
64,192,98836,128,0,99361:0:0:0:0:
320,192,98836,128,0,99061:0:0:0:0:
192,192,98836,1,0,0:0:0:0:
448,192,98836,1,0,0:0:0:0:
320,192,99136,128,0,99361:0:0:0:0:
448,192,99436,128,0,99886:0:0:0:0:
64,192,99436,1,0,0:0:0:0:
192,192,99436,128,0,99586:0:0:0:0:
320,192,99436,128,0,99736:0:0:0:0:
64,192,99886,128,0,100336:0:0:0:0:
192,192,99886,128,0,100186:0:0:0:0:
320,192,99886,128,0,100036:0:0:0:0:
192,192,100336,128,0,100486:0:0:0:0:
320,192,100336,128,0,100561:0:0:0:0:
448,192,100336,128,0,100636:0:0:0:0:
64,192,100636,128,0,100936:0:0:0:0:
320,192,100636,128,0,100786:0:0:0:0:
192,192,100636,128,0,100861:0:0:0:0:
448,192,100936,1,0,0:0:0:0:
320,192,100936,1,0,0:0:0:0:
192,192,101236,1,0,0:0:0:0:
64,192,101236,1,0,0:0:0:0:
