osu file format v12

[General]
AudioFilename: 11. WorkaHolic.mp3
AudioLeadIn: 1500
PreviewTime: 132045
Countdown: 0
SampleSet: None
StackLeniency: 0.7
Mode: 3
LetterboxInBreaks: 0
SpecialStyle: 0
WidescreenStoryboard: 0

[Editor]
DistanceSpacing: 1.2
BeatDivisor: 4
GridSize: 16
TimelineZoom: 1

[Metadata]
Title:Workaholic
TitleUnicode:Workaholic
Artist:C-SHOW
ArtistUnicode:C-SHOW
Creator:Agka
Version:Normal
Source:
Tags:Voltage Ignition
BeatmapID:217415
BeatmapSetID:77441

[Difficulty]
HPDrainRate:7
CircleSize:7
OverallDifficulty:7
ApproachRate:9
SliderMultiplier:1.4
SliderTickRate:1

[Events]
//Background and Video events
0,0,"1295631212054.jpg",0,0
//Break Periods
//Storyboard Layer 0 (Background)
//Storyboard Layer 1 (Fail)
//Storyboard Layer 2 (Pass)
//Storyboard Layer 3 (Foreground)
//Storyboard Sound Samples
//Background Colour Transformations
3,100,163,162,255

[TimingPoints]
9864,272.7273,4,1,1,45,1,0
20364,-100,4,3,1,45,0,0
44773,-100,4,1,1,45,0,0
97136,-100,4,3,1,45,0,0
130954,-100,4,1,1,45,0,0
166973,-100,4,3,1,45,0,0
184409,-100,4,3,1,45,0,1
219318,-100,4,3,1,45,0,0

[HitObjects]
36,192,9863,5,0,0:0:0:0:
36,192,10136,5,0,2:0:0:0:
329,192,10409,1,8,0:0:0:0:
182,192,10682,1,0,0:0:0:0:
182,192,10954,1,0,2:0:0:0:
182,192,11227,1,0,0:0:0:0:
329,192,11500,1,8,0:0:0:0:
402,192,11773,1,2,2:0:0:0:
182,192,12045,1,0,0:0:0:0:
182,192,12318,1,0,0:0:0:0:
329,192,12591,1,8,0:0:0:0:
402,192,12864,1,0,0:0:0:0:
182,192,13136,1,0,0:0:0:0:
182,192,13409,1,0,0:0:0:0:
402,192,13682,1,8,0:0:0:0:
402,0,13954,128,0,14227:0:0:0:0:
182,192,14227,1,0,0:0:0:0:
109,192,14500,1,0,0:0:0:0:
329,192,14773,1,8,0:0:0:0:
402,192,15045,1,0,0:0:0:0:
109,192,15318,1,0,0:0:0:0:
182,192,15591,1,0,0:0:0:0:
329,192,15864,1,8,0:0:0:0:
402,192,16136,1,10,0:2:0:0:
109,192,16409,1,0,0:0:0:0:
109,192,16682,1,0,0:0:0:0:
329,192,16954,1,8,0:0:0:0:
182,192,17227,1,0,0:0:0:0:
109,192,17500,1,0,0:0:0:0:
329,0,17773,128,0,18045:0:0:0:0:
109,192,18045,1,8,0:0:0:0:
182,192,18045,1,8,0:0:0:0:
329,192,18318,1,8,0:0:0:0:
402,192,18318,1,8,0:0:0:0:
109,0,18591,128,0,18864:0:0:0:0:
402,0,18864,128,0,19136:0:0:0:0:
182,192,19136,1,8,0:0:0:0:
329,0,19273,128,0,19545:0:0:0:0:
182,192,19545,1,0,0:0:0:0:
256,0,19682,128,0,19954:0:0:0:0:
109,192,19954,1,0,0:0:0:0:
182,192,20091,1,0,3:0:0:0:
256,192,20364,1,0,0:0:0:0:
182,192,20500,1,0,0:0:0:0:
109,192,20636,1,0,0:0:0:0:
36,192,20773,1,0,0:0:0:0:
329,0,21045,128,0,21318:0:0:0:0:
182,192,21318,1,8,0:0:0:0:
402,0,21454,128,0,21727:0:0:0:0:
256,192,21727,1,0,0:0:0:0:
329,0,21864,128,0,22136:0:0:0:0:
256,192,22136,1,0,0:0:0:0:
402,0,22273,128,0,22545:0:0:0:0:
329,192,22545,1,0,0:0:0:0:
256,192,22682,1,0,0:0:0:0:
182,192,22818,1,0,0:0:0:0:
256,0,22954,128,0,23227:0:0:0:0:
402,0,23227,128,0,23500:0:0:0:0:
256,192,23500,1,8,0:0:0:0:
329,0,23636,128,0,24045:0:0:0:0:
182,192,23909,1,0,0:0:0:0:
109,0,24045,128,0,24318:0:0:0:0:
329,192,24318,1,0,0:0:0:0:
402,0,24454,128,0,24727:0:0:0:0:
329,192,24727,1,0,0:0:0:0:
256,192,24864,1,0,0:0:0:0:
182,192,25000,1,0,0:0:0:0:
329,192,25136,1,0,0:0:0:0:
109,0,25136,128,8,25409:1:0:0:0:
402,0,25409,128,0,25954:0:0:0:0:
329,0,25954,128,0,26227:0:0:0:0:
182,192,26227,1,0,0:0:0:0:
109,192,26500,1,0,0:0:0:0:
402,192,26773,1,4,0:2:0:0:
182,192,26773,1,4,0:2:0:0:
109,192,27318,1,0,0:0:0:0:
182,192,27318,1,0,0:0:0:0:
402,0,27591,128,0,27864:0:0:0:0:
182,192,27864,1,0,0:0:0:0:
256,192,27864,1,0,0:0:0:0:
36,0,28136,128,0,28409:0:0:0:0:
182,192,28409,1,0,0:0:0:0:
256,192,28409,1,0,0:0:0:0:
36,0,28682,128,0,28954:0:0:0:0:
109,192,28954,1,0,0:0:0:0:
329,192,28954,1,0,0:0:0:0:
256,192,29091,1,0,0:0:0:0:
109,192,29227,1,0,0:0:0:0:
36,192,29364,1,0,0:0:0:0:
109,192,29500,1,0,0:0:0:0:
256,192,29500,1,0,0:0:0:0:
329,0,29773,128,0,30045:0:0:0:0:
182,192,30045,1,0,0:0:0:0:
256,192,30045,1,0,0:0:0:0:
329,0,30318,128,0,30591:0:0:0:0:
182,192,30591,1,8,0:0:0:0:
256,192,30591,1,8,0:0:0:0:
402,192,30864,1,0,0:0:0:0:
109,192,31000,1,8,0:0:0:0:
182,192,31000,1,8,0:0:0:0:
109,192,31273,1,8,0:0:0:0:
182,192,31273,1,8,0:0:0:0:
182,192,31545,1,0,0:0:0:0:
36,192,31682,1,0,0:0:0:0:
329,192,31682,1,0,0:0:0:0:
402,192,31954,1,0,0:0:0:0:
182,192,32227,1,0,0:0:0:0:
256,192,32227,1,0,0:0:0:0:
329,192,32364,1,0,0:0:0:0:
109,192,32636,1,0,0:0:0:0:
182,192,32773,1,0,0:0:0:0:
256,192,32773,1,0,0:0:0:0:
36,192,33045,1,0,0:0:0:0:
182,192,33182,1,0,0:0:0:0:
256,192,33318,1,0,0:0:0:0:
329,192,33318,1,0,0:0:0:0:
36,192,33591,1,0,0:0:0:0:
256,192,33864,1,0,0:0:0:0:
182,0,33864,128,0,34136:0:0:0:0:
402,0,34136,128,0,34409:0:0:0:0:
182,192,34409,1,0,0:0:0:0:
256,192,34409,1,0,0:0:0:0:
329,192,34545,1,0,0:0:0:0:
109,192,34818,1,0,0:0:0:0:
256,192,34954,1,8,0:0:0:0:
329,192,35091,1,8,0:0:0:0:
182,192,35227,1,8,0:0:0:0:
329,192,35364,1,8,0:0:0:0:
182,192,35636,1,8,0:0:0:0:
329,192,36045,1,0,0:0:0:0:
109,0,36045,128,0,36318:0:0:0:0:
402,0,36318,128,0,36591:0:0:0:0:
182,192,36591,1,0,0:0:0:0:
329,192,36591,1,0,0:0:0:0:
109,192,36727,1,0,0:0:0:0:
329,192,37000,1,0,0:0:0:0:
256,192,37136,1,0,0:0:0:0:
182,0,37136,128,0,37409:0:0:0:0:
256,192,37409,1,0,0:0:0:0:
329,192,37545,1,0,0:0:0:0:
36,192,37682,1,0,0:0:0:0:
109,192,37682,1,0,0:0:0:0:
256,192,37818,1,0,0:0:0:0:
182,192,37954,1,0,0:0:0:0:
329,192,38227,1,0,0:0:0:0:
36,0,38227,128,0,38500:0:0:0:0:
402,0,38500,128,0,38773:0:0:0:0:
182,192,38773,1,0,0:0:0:0:
256,192,38773,1,0,0:0:0:0:
329,192,38909,1,0,0:0:0:0:
109,192,39182,1,0,0:0:0:0:
182,192,39318,1,4,0:2:0:0:
256,0,39318,128,4,39591:0:2:0:0:
109,192,39591,1,0,0:0:0:0:
182,192,39727,1,0,0:0:0:0:
329,192,39727,1,0,0:0:0:0:
182,192,40000,1,0,0:0:0:0:
329,192,40000,1,0,0:0:0:0:
109,192,40136,1,0,0:0:0:0:
36,192,40273,1,0,0:0:0:0:
182,192,40409,1,4,0:2:0:0:
402,192,40409,1,4,0:2:0:0:
475,192,40682,1,0,0:0:0:0:
109,192,40954,1,0,0:0:0:0:
329,192,40954,1,8,0:0:0:0:
402,0,41091,128,0,41364:0:0:0:0:
256,192,41364,1,0,0:0:0:0:
182,192,41500,1,4,0:2:0:0:
329,0,41500,128,4,41773:0:2:0:0:
256,192,41773,1,0,0:0:0:0:
402,192,41909,1,0,0:0:0:0:
109,192,42045,1,0,0:0:0:0:
182,192,42045,1,0,0:0:0:0:
256,192,42182,1,0,0:0:0:0:
182,192,42318,1,0,0:0:0:0:
109,192,42454,1,0,0:0:0:0:
329,192,42591,1,4,0:2:0:0:
36,0,42591,128,0,43682:0:0:0:0:
329,192,43136,1,4,0:2:0:0:
182,0,43682,128,2,44773:0:0:0:0:
329,0,43682,128,2,44773:0:0:0:0:
109,192,44773,1,0,0:0:0:0:
36,0,44773,128,0,45318:0:0:0:0:
329,192,45045,1,0,0:0:0:0:
256,192,45318,1,4,0:0:0:0:
329,192,45318,1,4,0:0:0:0:
402,0,45591,128,0,45864:0:0:0:0:
109,192,45864,1,0,0:0:0:0:
256,192,45864,1,0,0:0:0:0:
329,192,46000,1,0,0:0:0:0:
329,192,46273,1,0,0:0:0:0:
182,192,46409,1,4,0:0:0:0:
329,192,46545,1,0,0:0:0:0:
256,192,46682,1,0,0:0:0:0:
329,192,46818,1,0,0:0:0:0:
182,192,46954,1,0,0:0:0:0:
402,192,47091,1,0,0:0:0:0:
182,192,47227,1,0,0:0:0:0:
402,192,47364,1,0,0:0:0:0:
182,192,47500,1,4,0:0:0:0:
402,192,47636,1,0,0:0:0:0:
329,192,47773,1,0,0:0:0:0:
402,192,47909,1,0,0:0:0:0:
109,192,48045,1,0,0:0:0:0:
182,192,48045,1,0,0:0:0:0:
329,192,48318,1,0,0:0:0:0:
36,192,48591,1,4,0:0:0:0:
329,0,48864,128,0,49136:0:0:0:0:
109,192,49136,1,0,0:0:0:0:
256,0,49136,128,0,49682:0:0:0:0:
109,192,49682,1,4,0:0:0:0:
402,192,49682,1,4,0:0:0:0:
329,192,49818,1,0,0:0:0:0:
256,192,49954,1,0,0:0:0:0:
182,192,50091,1,0,0:0:0:0:
109,192,50227,1,0,0:0:0:0:
402,192,50227,1,0,0:0:0:0:
256,192,50500,1,0,0:0:0:0:
109,192,50773,1,4,0:0:0:0:
329,192,50773,1,4,0:0:0:0:
256,192,51045,1,0,0:0:0:0:
182,192,51182,1,0,0:0:0:0:
109,192,51318,1,0,0:0:0:0:
329,192,51454,1,0,0:0:0:0:
256,192,51591,1,0,0:0:0:0:
182,192,51864,1,4,0:0:0:0:
402,192,51864,1,4,0:0:0:0:
182,192,52136,1,0,0:0:0:0:
402,0,52136,128,0,52409:0:0:0:0:
109,192,52409,1,0,0:0:0:0:
182,192,52545,1,0,0:0:0:0:
256,192,52682,1,0,0:0:0:0:
109,192,52954,1,4,0:0:0:0:
402,192,52954,1,4,0:0:0:0:
182,0,53091,128,0,53500:0:0:0:0:
109,192,53500,1,0,0:0:0:0:
329,192,53500,1,0,0:0:0:0:
256,192,53636,1,0,0:0:0:0:
109,192,53909,1,0,0:0:0:0:
182,192,54045,1,4,0:0:0:0:
402,192,54045,1,4,0:0:0:0:
329,192,54182,1,0,0:0:0:0:
182,192,54454,1,0,0:0:0:0:
329,192,54591,1,0,0:0:0:0:
402,192,54727,1,2,0:0:0:0:
402,192,55000,1,2,0:0:0:0:
182,192,55136,1,0,0:0:0:0:
402,192,55273,1,2,0:0:0:0:
329,192,55409,1,2,0:0:0:0:
402,192,55545,1,2,0:0:0:0:
109,192,55682,1,0,0:0:0:0:
182,192,55682,1,0,0:0:0:0:
402,192,55818,1,8,0:0:0:0:
402,192,56091,1,8,0:0:0:0:
109,192,56227,1,4,0:0:0:0:
182,192,56227,1,4,0:0:0:0:
402,192,56364,1,8,0:0:0:0:
329,192,56500,1,8,0:0:0:0:
402,192,56636,1,8,0:0:0:0:
109,192,56773,1,0,0:0:0:0:
182,192,56773,1,0,0:0:0:0:
329,192,57045,1,0,0:0:0:0:
402,192,57318,1,4,0:0:0:0:
475,192,57318,1,4,0:0:0:0:
329,192,57591,1,0,0:0:0:0:
109,192,57864,1,0,0:0:0:0:
182,192,57864,1,0,0:0:0:0:
256,192,58000,1,0,0:0:0:0:
329,192,58136,1,0,0:0:0:0:
109,192,58409,1,4,0:0:0:0:
182,192,58409,1,4,0:0:0:0:
256,192,58682,1,0,0:0:0:0:
182,192,58818,1,0,0:0:0:0:
109,192,58954,1,0,0:0:0:0:
329,192,58954,1,0,0:0:0:0:
256,192,59091,1,0,0:0:0:0:
329,192,59227,1,0,0:0:0:0:
109,192,59500,1,4,0:0:0:0:
402,192,59500,1,4,0:0:0:0:
329,192,59636,1,0,0:0:0:0:
256,192,59773,1,0,0:0:0:0:
182,192,59909,1,0,0:0:0:0:
36,192,60045,1,0,0:0:0:0:
109,192,60045,1,0,0:0:0:0:
329,0,60318,128,0,60591:0:0:0:0:
182,192,60591,1,4,0:0:0:0:
402,192,60591,1,4,0:0:0:0:
182,192,60864,1,0,0:0:0:0:
329,0,60864,128,0,61136:0:0:0:0:
182,192,61136,1,0,0:0:0:0:
256,192,61273,1,0,0:0:0:0:
329,192,61409,1,0,0:0:0:0:
329,192,61682,1,4,0:0:0:0:
182,0,61682,128,4,61954:0:0:0:0:
329,192,61954,1,4,0:0:0:0:
475,192,62227,1,0,0:0:0:0:
475,192,62364,1,0,0:0:0:0:
475,192,62636,1,0,0:0:0:0:
109,192,62773,1,4,0:0:0:0:
475,192,62773,1,4,0:0:0:0:
256,192,63182,1,0,0:0:0:0:
109,192,63318,1,0,0:0:0:0:
329,192,63318,1,0,0:0:0:0:
402,192,63454,1,2,0:0:0:0:
402,192,63727,1,2,0:0:0:0:
182,192,63864,1,0,0:0:0:0:
402,192,64000,1,2,0:0:0:0:
256,192,64136,1,2,0:0:0:0:
402,192,64273,1,2,0:0:0:0:
329,192,64409,1,0,0:0:0:0:
182,0,64409,128,0,64954:0:0:0:0:
402,192,64818,1,8,0:0:0:0:
109,192,64954,1,0,0:0:0:0:
402,192,65091,1,8,0:0:0:0:
256,192,65227,1,8,0:0:0:0:
402,192,65364,1,8,0:0:0:0:
182,192,65500,1,0,0:0:0:0:
256,192,65636,1,0,0:0:0:0:
329,0,65773,128,0,66045:0:0:0:0:
402,192,66045,1,4,0:0:0:0:
329,192,66182,1,0,0:0:0:0:
256,192,66318,1,0,0:0:0:0:
182,192,66454,1,0,0:0:0:0:
36,192,66591,1,0,0:0:0:0:
109,0,66591,128,0,66864:0:0:0:0:
256,192,66864,1,0,0:0:0:0:
109,192,67136,1,4,0:0:0:0:
182,192,67273,1,0,0:0:0:0:
329,192,67409,1,0,0:0:0:0:
182,192,67545,1,0,0:0:0:0:
402,192,67682,1,0,0:0:0:0:
182,192,67818,1,0,0:0:0:0:
256,192,67954,1,0,0:0:0:0:
109,192,68227,1,4,0:0:0:0:
182,192,68227,1,4,0:0:0:0:
329,192,68227,1,4,0:0:0:0:
109,192,68773,1,0,0:0:0:0:
329,192,68773,1,0,0:0:0:0:
182,192,68909,1,0,0:0:0:0:
256,192,69045,1,0,0:0:0:0:
109,192,69318,1,4,0:0:0:0:
329,192,69318,1,4,0:0:0:0:
256,192,69454,1,0,0:0:0:0:
182,0,69591,128,0,69864:0:0:0:0:
36,192,69864,1,0,0:0:0:0:
256,192,70000,1,0,0:0:0:0:
182,192,70136,1,0,0:0:0:0:
109,192,70273,1,0,0:0:0:0:
329,192,70409,1,0,0:0:0:0:
109,192,70545,1,0,0:0:0:0:
329,192,70682,1,4,0:0:0:0:
109,192,70818,1,0,0:0:0:0:
329,192,70954,1,4,0:0:0:0:
475,192,71091,1,0,0:0:0:0:
475,192,71364,1,0,0:0:0:0:
109,192,71500,1,4,0:0:0:0:
329,192,71500,1,4,0:0:0:0:
402,192,71636,1,0,0:0:0:0:
329,192,71909,1,0,0:0:0:0:
109,192,72045,1,0,0:0:0:0:
182,192,72045,1,0,0:0:0:0:
329,192,72182,1,2,0:0:0:0:
329,192,72454,1,2,0:0:0:0:
182,192,72591,1,4,0:0:0:0:
256,192,72591,1,4,0:0:0:0:
329,192,72727,1,2,0:0:0:0:
256,192,72864,1,8,0:0:0:0:
329,192,73000,1,8,0:0:0:0:
109,192,73136,1,0,0:0:0:0:
256,192,73136,1,0,0:0:0:0:
329,192,73273,1,8,0:0:0:0:
402,192,73409,1,8,0:0:0:0:
475,192,73545,1,8,0:0:0:0:
182,192,73682,1,4,0:0:0:0:
475,192,73818,1,8,0:0:0:0:
182,192,73954,1,8,0:0:0:0:
475,192,74091,1,8,0:0:0:0:
109,192,74227,1,0,0:0:0:0:
182,192,74227,1,0,0:0:0:0:
402,192,74500,1,0,0:0:0:0:
109,192,74636,1,0,0:0:0:0:
182,192,74636,1,0,0:0:0:0:
109,192,74909,1,0,0:0:0:0:
182,192,74909,1,0,0:0:0:0:
256,192,75045,1,0,0:0:0:0:
329,192,75182,1,0,0:0:0:0:
109,192,75318,1,0,0:0:0:0:
402,192,75318,1,0,0:0:0:0:
256,192,75454,1,0,0:0:0:0:
109,192,75591,1,0,0:0:0:0:
402,192,75727,1,0,0:0:0:0:
182,192,75864,1,4,0:0:0:0:
329,192,75864,1,4,0:0:0:0:
109,192,76000,1,0,0:0:0:0:
402,192,76273,1,0,0:0:0:0:
182,192,76409,1,0,0:0:0:0:
329,192,76409,1,0,0:0:0:0:
256,192,76545,1,0,0:0:0:0:
182,192,76682,1,0,0:0:0:0:
109,192,76954,1,4,0:0:0:0:
402,192,76954,1,4,0:0:0:0:
329,192,77091,1,0,0:0:0:0:
256,192,77227,1,0,0:0:0:0:
182,192,77364,1,0,0:0:0:0:
109,192,77500,1,0,0:0:0:0:
402,192,77500,1,0,0:0:0:0:
109,192,77909,1,0,0:0:0:0:
329,192,77909,1,0,0:0:0:0:
182,192,78182,1,0,0:0:0:0:
256,192,78182,1,0,0:0:0:0:
329,0,78318,128,0,78591:0:0:0:0:
109,192,78591,1,0,0:0:0:0:
182,192,78591,1,0,0:0:0:0:
329,192,78727,1,0,0:0:0:0:
402,192,78727,1,0,0:0:0:0:
109,192,78864,1,0,0:0:0:0:
182,192,78864,1,0,0:0:0:0:
329,192,79000,1,0,0:0:0:0:
402,0,79000,128,0,79273:0:0:0:0:
182,192,79273,1,0,0:0:0:0:
36,0,79409,128,2,79682:0:0:0:0:
109,192,79682,1,4,0:2:0:0:
182,192,79682,1,4,0:2:0:0:
402,192,79682,1,4,0:2:0:0:
402,192,79954,1,0,0:0:0:0:
402,192,80227,1,0,0:0:0:0:
402,192,80500,1,0,0:0:0:0:
182,192,80773,1,0,0:0:0:0:
182,192,81045,1,0,0:0:0:0:
182,192,81318,1,0,0:0:0:0:
182,192,81591,1,0,0:0:0:0:
329,192,81864,1,4,0:2:0:0:
402,192,81864,1,4,0:2:0:0:
402,192,82136,1,0,0:0:0:0:
402,192,82409,1,0,0:0:0:0:
402,192,82682,1,0,0:0:0:0:
109,192,82954,1,0,0:0:0:0:
109,192,83227,1,0,0:0:0:0:
109,192,83500,1,0,0:0:0:0:
109,192,83773,1,0,0:0:0:0:
182,192,84045,1,4,0:2:0:0:
329,192,84045,1,4,0:2:0:0:
329,192,84318,1,0,0:0:0:0:
182,192,84454,1,4,0:2:0:0:
329,192,84591,1,0,0:0:0:0:
329,192,84864,1,0,0:0:0:0:
182,192,85136,1,0,0:0:0:0:
182,192,85409,1,0,0:0:0:0:
182,192,85682,1,0,0:0:0:0:
182,192,85954,1,0,0:0:0:0:
182,192,86227,1,4,0:2:0:0:
329,192,86227,1,4,0:2:0:0:
329,192,86500,1,0,0:0:0:0:
329,192,86773,1,0,0:0:0:0:
329,192,87045,1,0,0:0:0:0:
182,192,87318,1,8,0:0:0:0:
182,192,87591,1,8,0:0:0:0:
182,192,87864,1,8,0:0:0:0:
329,192,88000,1,0,0:0:0:0:
182,192,88136,1,0,0:0:0:0:
36,192,88273,1,0,0:0:0:0:
109,192,88409,1,4,0:2:0:0:
329,192,88409,1,4,0:2:0:0:
329,192,88682,1,0,0:0:0:0:
329,192,88954,1,0,0:0:0:0:
329,192,89227,1,0,0:0:0:0:
109,192,89500,1,4,0:2:0:0:
329,192,89500,1,4,0:2:0:0:
109,192,89773,1,0,0:0:0:0:
109,192,90045,1,0,0:0:0:0:
109,192,90318,1,0,0:0:0:0:
109,192,90591,1,4,0:2:0:0:
329,192,90591,1,4,0:2:0:0:
329,192,90864,1,0,0:0:0:0:
329,192,91136,1,0,0:0:0:0:
329,192,91409,1,0,0:0:0:0:
182,192,91682,1,4,0:2:0:0:
329,192,91682,1,4,0:2:0:0:
182,192,91954,1,0,0:0:0:0:
182,192,92227,1,0,0:0:0:0:
182,192,92500,1,0,0:0:0:0:
182,192,92773,1,4,0:2:0:0:
329,192,92773,1,4,0:2:0:0:
329,192,93045,1,0,0:0:0:0:
182,192,93318,1,4,0:2:0:0:
329,192,93318,1,4,0:2:0:0:
182,192,93591,1,0,0:0:0:0:
329,192,93864,1,4,0:2:0:0:
182,192,93864,1,4,0:2:0:0:
329,192,94136,1,0,0:0:0:0:
182,192,94409,1,4,0:2:0:0:
329,192,94409,1,4,0:2:0:0:
182,192,94682,1,0,0:0:0:0:
182,192,94954,1,4,0:2:0:0:
329,192,94954,1,4,0:2:0:0:
182,192,95227,1,4,0:2:0:0:
329,192,95227,1,4,0:2:0:0:
182,192,95500,1,4,0:2:0:0:
329,192,95500,1,4,0:2:0:0:
182,192,95773,1,4,0:2:0:0:
329,192,95773,1,4,0:2:0:0:
402,192,96045,1,4,0:2:0:0:
109,192,96045,1,4,0:2:0:0:
182,192,96182,1,4,0:2:0:0:
329,192,96182,1,4,0:2:0:0:
109,192,96318,1,4,0:2:0:0:
402,192,96318,1,4,0:2:0:0:
109,192,96591,1,0,0:0:0:0:
402,192,96591,1,0,0:0:0:0:
256,192,96864,1,2,0:0:0:0:
109,192,97136,1,0,0:0:0:0:
256,192,97273,1,0,0:0:0:0:
475,192,97409,1,0,0:0:0:0:
36,192,97545,1,0,0:0:0:0:
256,192,97682,1,0,0:0:0:0:
329,192,97818,1,0,0:0:0:0:
475,192,97954,1,0,0:0:0:0:
36,192,98091,1,0,0:0:0:0:
256,192,98227,1,0,0:0:0:0:
182,192,98364,1,0,0:0:0:0:
329,192,98500,1,0,0:0:0:0:
402,192,98636,1,0,0:0:0:0:
109,192,98773,1,0,0:0:0:0:
329,192,98909,1,0,0:0:0:0:
256,192,99045,1,0,0:0:0:0:
182,192,99318,1,0,0:0:0:0:
256,192,99454,1,0,0:0:0:0:
402,192,99591,1,0,0:0:0:0:
109,192,99727,1,0,0:0:0:0:
329,192,99864,1,0,0:0:0:0:
402,192,100000,1,0,0:0:0:0:
182,192,100136,1,0,0:0:0:0:
256,192,100273,1,0,0:0:0:0:
182,192,100409,1,0,0:0:0:0:
329,192,100545,1,0,0:0:0:0:
256,192,100682,1,0,0:0:0:0:
402,192,100818,1,0,0:0:0:0:
329,192,100954,1,0,0:0:0:0:
475,192,101091,1,0,0:0:0:0:
402,192,101227,1,0,0:0:0:0:
182,192,101500,1,0,0:0:0:0:
36,192,101636,1,0,0:0:0:0:
329,192,101773,1,0,0:0:0:0:
109,192,101909,1,0,0:0:0:0:
256,192,102045,1,0,0:0:0:0:
329,192,102182,1,0,0:0:0:0:
182,192,102318,1,0,0:0:0:0:
329,192,102454,1,0,0:0:0:0:
182,192,102591,1,0,0:0:0:0:
402,192,102727,1,0,0:0:0:0:
182,192,102864,1,0,0:0:0:0:
329,192,103000,1,0,0:0:0:0:
182,192,103136,1,0,0:0:0:0:
256,192,103273,1,0,0:0:0:0:
182,192,103409,1,0,0:0:0:0:
329,192,103545,1,0,0:0:0:0:
182,192,103682,1,0,0:0:0:0:
256,192,103818,1,0,0:0:0:0:
402,192,103954,1,0,0:0:0:0:
36,192,104091,1,0,0:0:0:0:
329,192,104227,1,0,0:0:0:0:
402,192,104364,1,0,0:0:0:0:
109,192,104500,1,0,0:0:0:0:
256,192,104636,1,0,0:0:0:0:
329,192,104773,1,0,0:0:0:0:
402,192,104909,1,0,0:0:0:0:
329,192,105045,1,0,0:0:0:0:
475,192,105182,1,0,0:0:0:0:
329,192,105318,1,0,0:0:0:0:
256,192,105454,1,0,0:0:0:0:
109,192,105591,1,0,0:0:0:0:
36,192,105727,1,0,0:0:0:0:
329,192,105864,1,4,0:2:0:0:
402,192,105864,1,4,0:2:0:0:
182,192,106000,1,0,0:0:0:0:
402,192,106136,1,0,0:0:0:0:
109,192,106273,1,0,0:0:0:0:
256,192,106409,1,0,0:0:0:0:
329,192,106545,1,0,0:0:0:0:
182,192,106682,1,0,0:0:0:0:
402,192,106818,1,0,0:0:0:0:
256,192,106954,1,0,0:0:0:0:
329,192,107091,1,0,0:0:0:0:
475,192,107227,1,0,0:0:0:0:
256,192,107364,1,0,0:0:0:0:
109,192,107500,1,0,0:0:0:0:
329,192,107636,1,0,0:0:0:0:
256,192,107773,1,0,0:0:0:0:
329,192,108045,1,0,0:0:0:0:
475,192,108182,1,0,0:0:0:0:
109,192,108318,1,0,0:0:0:0:
475,192,108454,1,0,0:0:0:0:
182,192,108591,1,0,0:0:0:0:
402,192,108727,1,0,0:0:0:0:
256,192,108864,1,0,0:0:0:0:
329,192,109000,1,0,0:0:0:0:
36,192,109136,1,0,0:0:0:0:
402,192,109136,1,0,0:0:0:0:
109,192,109273,1,0,0:0:0:0:
182,192,109409,1,0,0:0:0:0:
256,192,109545,1,0,0:0:0:0:
402,192,109545,1,0,0:0:0:0:
402,192,109818,1,0,0:0:0:0:
329,192,109954,1,0,0:0:0:0:
256,192,110091,1,0,0:0:0:0:
182,192,110227,1,0,0:0:0:0:
256,192,110364,1,0,0:0:0:0:
402,192,110500,1,0,0:0:0:0:
109,192,110636,1,0,0:0:0:0:
256,192,110773,1,0,0:0:0:0:
402,192,110909,1,0,0:0:0:0:
182,192,111045,1,0,0:0:0:0:
402,192,111182,1,0,0:0:0:0:
256,192,111318,1,0,0:0:0:0:
329,192,111454,1,0,0:0:0:0:
402,192,111591,1,0,0:0:0:0:
329,192,111727,1,0,0:0:0:0:
182,192,111864,1,0,0:0:0:0:
36,192,112000,1,0,0:0:0:0:
329,192,112136,1,0,0:0:0:0:
475,192,112409,1,0,0:0:0:0:
109,192,112545,1,0,0:0:0:0:
329,192,112682,1,0,0:0:0:0:
256,192,112818,1,0,0:0:0:0:
475,192,112954,1,0,0:0:0:0:
329,192,113091,1,0,0:0:0:0:
256,192,113227,1,0,0:0:0:0:
109,192,113364,1,0,0:0:0:0:
329,192,113500,1,0,0:0:0:0:
109,192,113636,1,0,0:0:0:0:
182,192,113773,1,0,0:0:0:0:
402,192,113909,1,0,0:0:0:0:
109,192,114045,1,0,0:0:0:0:
402,192,114182,1,0,0:0:0:0:
256,0,114318,128,2,114591:1:0:0:0:
402,192,114591,1,0,0:0:0:0:
329,192,114727,1,0,0:0:0:0:
182,192,114864,1,0,0:0:0:0:
402,192,115000,1,0,0:0:0:0:
329,192,115136,1,0,0:0:0:0:
182,192,115273,1,0,0:0:0:0:
402,192,115409,1,0,0:0:0:0:
109,192,115545,1,0,0:0:0:0:
329,192,115682,1,0,0:0:0:0:
182,192,115818,1,0,0:0:0:0:
109,192,115954,1,0,0:0:0:0:
256,192,116091,1,0,0:0:0:0:
475,192,116227,1,0,0:0:0:0:
182,192,116364,1,0,0:0:0:0:
329,192,116500,1,0,0:0:0:0:
109,192,116636,1,0,0:0:0:0:
256,192,116773,1,0,0:0:0:0:
36,192,116909,1,0,0:0:0:0:
475,192,117045,1,0,0:0:0:0:
36,192,117182,1,0,0:0:0:0:
402,192,117318,1,0,0:0:0:0:
109,192,117454,1,0,0:0:0:0:
329,192,117591,1,0,0:0:0:0:
182,192,117727,1,0,0:0:0:0:
36,192,117864,1,0,0:0:0:0:
475,192,117864,1,0,0:0:0:0:
402,192,118000,1,0,0:0:0:0:
329,192,118136,1,0,0:0:0:0:
475,192,118273,1,0,0:0:0:0:
475,192,118545,1,0,0:0:0:0:
182,192,118682,1,0,0:0:0:0:
256,192,118818,1,0,0:0:0:0:
402,192,118954,1,0,0:0:0:0:
256,192,119091,1,0,0:0:0:0:
182,192,119227,1,0,0:0:0:0:
402,192,119364,1,0,0:0:0:0:
329,192,119500,1,0,0:0:0:0:
109,192,119636,1,0,0:0:0:0:
402,192,119773,1,0,0:0:0:0:
109,192,119909,1,0,0:0:0:0:
329,192,120045,1,0,0:0:0:0:
182,192,120182,1,0,0:0:0:0:
256,192,120318,1,0,0:0:0:0:
182,192,120454,1,0,0:0:0:0:
402,192,120591,1,0,0:0:0:0:
475,192,120727,1,0,0:0:0:0:
402,192,120864,1,0,0:0:0:0:
256,192,121000,1,0,0:0:0:0:
182,192,121136,1,0,0:0:0:0:
402,192,121273,1,0,0:0:0:0:
329,192,121409,1,0,0:0:0:0:
256,192,121545,1,0,0:0:0:0:
109,192,121682,1,0,0:0:0:0:
182,192,121818,1,0,0:0:0:0:
329,192,121954,1,0,0:0:0:0:
402,192,122091,1,0,0:0:0:0:
36,192,122227,1,4,2:0:0:0:
475,192,122227,1,4,2:0:0:0:
109,192,122364,1,4,2:0:0:0:
402,192,122364,1,4,2:0:0:0:
182,192,122500,1,4,2:0:0:0:
329,192,122500,1,4,2:0:0:0:
329,192,122773,1,4,2:0:0:0:
182,192,122773,1,4,2:0:0:0:
109,192,122909,1,0,0:0:0:0:
256,192,123045,1,0,0:0:0:0:
182,192,123182,1,0,0:0:0:0:
329,192,123318,1,0,0:0:0:0:
402,192,123318,1,0,0:0:0:0:
182,192,123454,1,0,0:0:0:0:
402,192,123591,1,0,0:0:0:0:
109,192,123727,1,0,0:0:0:0:
256,192,123864,1,0,0:0:0:0:
329,192,124000,1,0,0:0:0:0:
182,192,124136,1,0,0:0:0:0:
402,192,124273,1,0,0:0:0:0:
256,192,124409,1,0,0:0:0:0:
329,192,124545,1,0,0:0:0:0:
475,192,124682,1,0,0:0:0:0:
256,192,124818,1,0,0:0:0:0:
109,192,124954,1,0,0:0:0:0:
329,192,125091,1,0,0:0:0:0:
256,192,125227,1,0,0:0:0:0:
402,192,125364,1,0,0:0:0:0:
329,192,125500,1,0,0:0:0:0:
475,192,125636,1,0,0:0:0:0:
109,192,125773,1,0,0:0:0:0:
475,192,125909,1,0,0:0:0:0:
182,192,126045,1,0,0:0:0:0:
402,192,126182,1,0,0:0:0:0:
256,192,126318,1,0,0:0:0:0:
329,192,126454,1,0,0:0:0:0:
402,192,126591,1,0,0:0:0:0:
475,192,126591,1,0,0:0:0:0:
109,192,126727,1,0,0:0:0:0:
182,192,126864,1,0,0:0:0:0:
256,192,127000,1,0,0:0:0:0:
402,192,127000,1,0,0:0:0:0:
36,192,127273,1,0,0:0:0:0:
329,192,127409,1,0,0:0:0:0:
402,192,127409,1,0,0:0:0:0:
256,192,127545,1,0,0:0:0:0:
109,192,127682,1,0,0:0:0:0:
182,192,127682,1,0,0:0:0:0:
256,192,127818,1,0,0:0:0:0:
402,192,127954,1,0,0:0:0:0:
109,192,128091,1,0,0:0:0:0:
256,192,128227,1,0,0:0:0:0:
402,192,128364,1,0,0:0:0:0:
182,192,128500,1,0,0:0:0:0:
402,192,128636,1,0,0:0:0:0:
256,192,128773,1,0,0:0:0:0:
329,192,128909,1,0,0:0:0:0:
402,192,129045,1,0,0:0:0:0:
329,192,129182,1,0,0:0:0:0:
182,192,129318,1,0,0:0:0:0:
36,192,129454,1,0,0:0:0:0:
329,192,129591,1,0,0:0:0:0:
256,192,129727,1,0,0:0:0:0:
475,192,129864,1,0,0:0:0:0:
36,0,129864,128,0,130954:0:0:0:0:
109,192,130000,1,0,0:0:0:0:
329,192,130136,1,0,0:0:0:0:
256,192,130273,1,0,0:0:0:0:
475,192,130409,1,0,0:0:0:0:
329,192,130545,1,0,0:0:0:0:
256,192,130682,1,0,0:0:0:0:
109,192,130818,1,0,0:0:0:0:
329,0,130954,128,8,131227:0:0:0:0:
109,192,131227,1,0,0:0:0:0:
329,0,131500,128,2,131773:0:0:0:0:
109,192,131773,1,0,0:0:0:0:
329,192,132045,1,0,0:0:0:0:
182,192,132182,1,0,0:0:0:0:
402,192,132318,1,0,0:0:0:0:
109,192,132454,1,0,0:0:0:0:
256,192,132591,1,4,0:0:0:0:
329,192,132591,1,4,0:0:0:0:
402,192,132727,1,0,0:0:0:0:
109,192,132864,1,0,0:0:0:0:
402,192,133000,1,0,0:0:0:0:
329,192,133136,1,0,0:0:0:0:
256,192,133273,1,2,0:0:0:0:
329,192,133409,1,2,0:0:0:0:
256,192,133545,1,2,0:0:0:0:
182,192,133682,1,4,0:0:0:0:
256,192,133818,1,2,0:0:0:0:
182,192,133954,1,2,0:0:0:0:
256,192,134091,1,2,0:0:0:0:
475,192,134227,1,0,0:0:0:0:
182,192,134364,1,0,0:0:0:0:
402,192,134500,1,0,0:0:0:0:
109,192,134636,1,0,0:0:0:0:
256,192,134773,1,4,0:0:0:0:
402,192,134773,1,4,0:0:0:0:
329,192,134909,1,0,0:0:0:0:
109,192,135045,1,0,0:0:0:0:
402,192,135182,1,0,0:0:0:0:
329,192,135318,1,0,0:0:0:0:
402,192,135454,1,2,0:0:0:0:
329,192,135591,1,2,0:0:0:0:
402,192,135727,1,2,0:0:0:0:
36,192,135864,1,0,0:0:0:0:
329,192,135864,1,4,0:0:0:0:
182,192,136000,1,2,0:2:0:0:
109,192,136136,1,2,0:2:0:0:
36,192,136273,1,2,0:2:0:0:
329,192,136409,1,0,0:0:0:0:
329,192,136682,1,0,0:0:0:0:
402,192,136818,1,0,0:0:0:0:
36,192,136954,1,4,0:0:0:0:
256,192,136954,1,4,0:0:0:0:
402,192,137091,1,0,0:0:0:0:
256,192,137227,1,0,0:0:0:0:
329,192,137364,1,0,0:0:0:0:
256,192,137500,1,0,0:0:0:0:
402,192,137636,1,2,0:0:0:0:
329,192,137773,1,2,0:0:0:0:
402,192,137909,1,2,0:0:0:0:
109,192,138045,1,4,0:0:0:0:
182,192,138045,1,4,0:0:0:0:
402,192,138182,1,2,0:0:0:0:
329,192,138318,1,2,0:0:0:0:
402,192,138454,1,2,0:0:0:0:
109,192,138591,1,0,0:0:0:0:
182,192,138727,1,0,0:0:0:0:
402,192,138864,1,0,0:0:0:0:
109,192,139000,1,0,0:0:0:0:
329,192,139136,1,4,0:0:0:0:
402,192,139136,1,4,0:0:0:0:
256,192,139273,1,0,0:0:0:0:
109,192,139409,1,0,0:0:0:0:
402,192,139545,1,0,0:0:0:0:
329,192,139682,1,0,0:0:0:0:
109,192,139818,1,4,0:0:0:0:
182,192,139954,1,0,0:0:0:0:
256,192,140091,1,0,0:0:0:0:
329,192,140227,1,4,0:0:0:0:
402,192,140364,1,2,0:0:0:0:
329,0,140500,128,0,140773:0:0:0:0:
256,192,140773,1,0,0:0:0:0:
36,192,140909,1,0,0:0:0:0:
329,192,141045,1,0,0:0:0:0:
109,192,141182,1,0,0:0:0:0:
36,192,141318,1,4,0:0:0:0:
256,192,141318,1,4,0:0:0:0:
329,192,141454,1,0,0:0:0:0:
402,192,141591,1,0,0:0:0:0:
475,192,141727,1,0,0:0:0:0:
109,192,141864,1,0,0:0:0:0:
256,192,141864,1,0,0:0:0:0:
402,192,142000,1,2,0:0:0:0:
329,192,142136,1,2,0:0:0:0:
402,192,142273,1,2,0:0:0:0:
109,192,142409,1,4,0:0:0:0:
182,192,142409,1,4,0:0:0:0:
402,192,142545,1,2,0:0:0:0:
329,192,142682,1,2,0:0:0:0:
402,192,142818,1,2,0:0:0:0:
256,192,142954,1,0,0:0:0:0:
109,192,143091,1,0,0:0:0:0:
402,192,143227,1,0,0:0:0:0:
182,192,143364,1,0,0:0:0:0:
256,192,143500,1,4,0:0:0:0:
329,192,143500,1,4,0:0:0:0:
402,192,143636,1,0,0:0:0:0:
109,192,143773,1,0,0:0:0:0:
402,192,143909,1,0,0:0:0:0:
329,192,144045,1,0,0:0:0:0:
402,192,144182,1,8,0:0:0:0:
329,192,144318,1,8,0:0:0:0:
402,192,144454,1,8,0:0:0:0:
329,192,144591,1,0,0:0:0:0:
182,192,144727,1,0,0:0:0:0:
109,192,144864,1,0,0:0:0:0:
36,192,145000,1,0,0:0:0:0:
329,192,145136,1,0,0:0:0:0:
402,192,145136,1,0,0:0:0:0:
182,192,145273,1,0,0:0:0:0:
329,192,145409,1,0,0:0:0:0:
109,192,145545,1,0,0:0:0:0:
256,192,145682,1,4,0:0:0:0:
329,192,145682,1,4,0:0:0:0:
402,192,145818,1,0,0:0:0:0:
109,192,145954,1,0,0:0:0:0:
402,192,146091,1,0,0:0:0:0:
256,192,146227,1,0,0:0:0:0:
402,192,146364,1,8,0:0:0:0:
329,192,146500,1,8,0:0:0:0:
402,192,146636,1,8,0:0:0:0:
182,192,146773,1,0,0:0:0:0:
256,192,146773,1,0,0:0:0:0:
402,192,146909,1,8,0:0:0:0:
329,192,147045,1,8,0:0:0:0:
402,192,147182,1,8,0:0:0:0:
256,192,147318,1,0,0:0:0:0:
109,192,147454,1,0,0:0:0:0:
402,192,147591,1,0,0:0:0:0:
36,192,147727,1,0,0:0:0:0:
256,192,147864,1,4,0:0:0:0:
329,192,147864,1,4,0:0:0:0:
402,192,148000,1,0,0:0:0:0:
182,192,148136,1,0,0:0:0:0:
402,192,148273,1,0,0:0:0:0:
329,192,148409,1,0,0:0:0:0:
109,192,148545,1,0,0:0:0:0:
36,192,148682,1,0,0:0:0:0:
256,192,148818,1,0,0:0:0:0:
329,192,148954,1,4,0:0:0:0:
182,192,149091,1,0,0:0:0:0:
329,192,149227,1,0,0:0:0:0:
402,192,149364,1,0,0:0:0:0:
256,0,149500,128,0,150045:0:0:0:0:
109,192,150045,1,2,0:0:0:0:
402,192,150182,1,2,0:0:0:0:
329,192,150318,1,2,0:0:0:0:
402,192,150454,1,2,0:0:0:0:
182,192,150591,1,0,0:0:0:0:
256,192,150591,1,0,0:0:0:0:
402,192,150727,1,2,0:0:0:0:
329,192,150864,1,2,0:0:0:0:
402,192,151000,1,2,0:0:0:0:
256,192,151136,1,4,0:0:0:0:
402,192,151273,1,2,0:0:0:0:
329,192,151409,1,2,0:0:0:0:
402,192,151545,1,2,0:0:0:0:
256,192,151682,1,0,0:0:0:0:
109,192,151818,1,0,0:0:0:0:
329,192,151954,1,0,0:0:0:0:
36,192,152091,1,0,0:0:0:0:
182,192,152227,1,4,0:0:0:0:
256,192,152227,1,4,0:0:0:0:
329,192,152364,1,0,0:0:0:0:
109,192,152500,1,0,0:0:0:0:
402,192,152636,1,0,0:0:0:0:
329,192,152773,1,0,0:0:0:0:
402,192,152909,1,2,0:0:0:0:
109,192,153045,1,2,0:0:0:0:
402,192,153182,1,2,0:0:0:0:
36,192,153318,1,4,0:0:0:0:
329,192,153318,1,4,0:0:0:0:
402,192,153454,1,0,0:0:0:0:
329,192,153591,1,0,0:0:0:0:
256,192,153727,1,0,0:0:0:0:
182,192,153864,1,0,0:0:0:0:
36,192,154000,1,0,0:0:0:0:
329,192,154136,1,0,0:0:0:0:
109,192,154273,1,0,0:0:0:0:
256,192,154409,1,4,0:0:0:0:
402,192,154409,1,4,0:0:0:0:
329,192,154545,1,0,0:0:0:0:
109,192,154682,1,0,0:0:0:0:
402,192,154818,1,0,0:0:0:0:
329,192,154954,1,0,0:0:0:0:
402,192,155091,1,2,0:0:0:0:
256,192,155227,1,2,0:0:0:0:
402,192,155364,1,2,0:0:0:0:
109,192,155500,1,4,0:0:0:0:
182,192,155500,1,4,0:0:0:0:
256,192,155636,1,2,0:0:0:0:
109,192,155773,1,2,0:0:0:0:
256,192,155909,1,2,0:0:0:0:
182,192,156045,1,0,0:0:0:0:
256,192,156182,1,0,0:0:0:0:
329,192,156318,1,0,0:0:0:0:
402,192,156454,1,0,0:0:0:0:
36,192,156591,1,4,0:0:0:0:
475,192,156591,1,4,0:0:0:0:
329,192,156727,1,0,0:0:0:0:
256,192,156864,1,0,0:0:0:0:
182,192,157000,1,0,0:0:0:0:
402,192,157136,1,0,0:0:0:0:
36,192,157273,1,0,0:0:0:0:
256,192,157409,1,0,0:0:0:0:
329,192,157545,1,0,0:0:0:0:
402,0,157682,128,0,158091:0:0:0:0:
256,192,158091,1,0,0:0:0:0:
109,192,158227,1,0,0:0:0:0:
182,192,158364,1,0,0:0:0:0:
329,192,158500,1,0,0:0:0:0:
402,192,158636,1,0,0:0:0:0:
182,192,158773,1,4,0:0:0:0:
256,192,158773,1,4,0:0:0:0:
402,192,158909,1,0,0:0:0:0:
109,192,159045,1,0,0:0:0:0:
402,192,159182,1,0,0:0:0:0:
36,192,159318,1,0,0:0:0:0:
256,192,159318,1,0,0:0:0:0:
329,192,159454,1,2,0:0:0:0:
182,192,159591,1,2,0:0:0:0:
329,192,159727,1,2,0:0:0:0:
36,192,159864,1,4,0:0:0:0:
475,192,159864,1,4,0:0:0:0:
182,192,160000,1,2,0:0:0:0:
329,192,160136,1,2,0:0:0:0:
182,192,160273,1,2,0:0:0:0:
36,192,160409,1,0,0:0:0:0:
109,192,160409,1,0,0:0:0:0:
329,192,160545,1,0,0:0:0:0:
402,192,160682,1,0,0:0:0:0:
182,192,160818,1,0,0:0:0:0:
109,192,160954,1,4,0:0:0:0:
329,192,160954,1,4,0:0:0:0:
402,192,161091,1,0,0:0:0:0:
36,192,161227,1,0,0:0:0:0:
402,192,161364,1,0,0:0:0:0:
36,192,161500,1,0,0:0:0:0:
256,192,161500,1,0,0:0:0:0:
402,192,161636,1,0,0:0:0:0:
109,192,161773,1,0,0:0:0:0:
329,192,161773,1,0,0:0:0:0:
402,192,161909,1,0,0:0:0:0:
182,0,162045,128,0,162591:0:0:0:0:
36,192,162591,1,0,0:0:0:0:
329,192,162727,1,0,0:0:0:0:
256,192,162864,1,0,0:0:0:0:
182,192,163000,1,0,0:0:0:0:
256,192,163136,1,0,0:0:0:0:
402,192,163136,1,0,0:0:0:0:
475,192,163273,1,0,0:0:0:0:
109,192,163409,1,0,0:0:0:0:
475,192,163545,1,0,0:0:0:0:
329,192,163682,1,0,0:0:0:0:
402,192,163682,1,0,0:0:0:0:
109,192,163818,1,2,0:0:0:0:
182,192,163954,1,2,0:0:0:0:
256,192,164091,1,2,0:0:0:0:
36,192,164227,1,0,0:0:0:0:
402,192,164227,1,2,0:0:0:0:
329,192,164364,1,2,0:0:0:0:
256,192,164500,1,2,0:0:0:0:
182,192,164636,1,0,0:0:0:0:
402,192,164773,1,0,0:0:0:0:
109,192,164909,1,0,0:0:0:0:
329,192,165045,1,0,0:0:0:0:
36,192,165182,1,0,0:0:0:0:
402,192,165318,1,0,0:0:0:0:
109,192,165454,1,0,0:0:0:0:
182,192,165591,1,0,0:0:0:0:
402,192,165727,1,0,0:0:0:0:
109,0,165864,128,0,166409:0:0:0:0:
402,0,166545,128,0,166954:0:0:0:0:
36,192,166954,1,4,0:2:0:0:
475,192,167091,1,0,0:0:0:0:
402,192,167227,1,0,0:0:0:0:
36,192,167364,1,4,0:2:0:0:
182,192,167364,1,0,0:0:0:0:
256,192,167500,1,0,0:0:0:0:
329,192,167636,1,0,0:0:0:0:
109,192,167773,1,0,0:0:0:0:
402,192,167909,1,0,0:0:0:0:
329,192,168045,1,0,0:0:0:0:
109,192,168182,1,0,0:0:0:0:
182,192,168318,1,0,0:0:0:0:
329,192,168454,1,0,0:0:0:0:
109,192,168591,1,0,0:0:0:0:
256,192,168727,1,2,0:2:0:0:
402,192,168727,1,2,0:2:0:0:
109,192,168864,1,0,0:0:0:0:
329,192,169000,1,0,0:0:0:0:
36,192,169136,1,4,0:2:0:0:
402,192,169136,1,0,0:0:0:0:
475,192,169273,1,0,0:0:0:0:
402,192,169409,1,0,0:0:0:0:
36,192,169545,1,4,0:2:0:0:
256,192,169545,1,0,0:0:0:0:
329,192,169682,1,0,0:0:0:0:
402,192,169818,1,0,0:0:0:0:
109,192,169954,1,0,0:0:0:0:
402,192,170091,1,0,0:0:0:0:
329,192,170227,1,0,0:0:0:0:
109,192,170364,1,0,0:0:0:0:
182,192,170500,1,0,0:0:0:0:
256,192,170636,1,0,0:0:0:0:
36,192,170773,1,0,0:0:0:0:
402,192,170909,1,2,0:2:0:0:
475,192,170909,1,2,0:2:0:0:
256,192,171045,1,0,0:0:0:0:
182,192,171182,1,0,0:0:0:0:
256,192,171318,1,4,0:0:0:0:
329,192,171318,1,4,0:0:0:0:
109,192,171454,1,0,0:0:0:0:
329,192,171591,1,0,0:0:0:0:
256,192,171727,1,4,0:0:0:0:
109,192,171864,1,0,0:0:0:0:
182,192,172000,1,0,0:0:0:0:
36,192,172136,1,0,0:0:0:0:
402,192,172273,1,0,0:0:0:0:
329,192,172409,1,0,0:0:0:0:
36,192,172545,1,0,0:0:0:0:
256,192,172682,1,0,0:0:0:0:
329,192,172818,1,0,0:0:0:0:
36,192,172954,1,0,0:0:0:0:
109,192,173091,1,2,0:0:0:0:
182,192,173091,1,2,0:0:0:0:
36,192,173227,1,0,0:0:0:0:
329,192,173364,1,0,0:0:0:0:
182,192,173500,1,8,0:0:0:0:
402,192,173500,1,8,0:0:0:0:
475,192,173636,1,0,0:0:0:0:
402,192,173773,1,0,0:0:0:0:
182,192,173909,1,8,0:0:0:0:
256,192,174045,1,0,0:0:0:0:
329,192,174182,1,0,0:0:0:0:
36,192,174318,1,0,0:0:0:0:
402,192,174454,1,0,0:0:0:0:
329,192,174591,1,0,0:0:0:0:
36,192,174727,1,0,0:0:0:0:
109,192,174864,1,0,0:0:0:0:
182,192,175000,1,0,0:0:0:0:
36,192,175136,1,0,0:0:0:0:
402,192,175273,1,8,0:0:0:0:
475,192,175273,1,8,0:0:0:0:
182,192,175409,1,0,0:0:0:0:
256,192,175545,1,0,0:0:0:0:
36,192,175682,1,2,0:0:0:0:
182,192,175682,1,2,0:0:0:0:
402,192,175818,1,0,0:0:0:0:
329,192,175954,1,0,0:0:0:0:
182,192,176091,1,2,0:0:0:0:
402,192,176091,1,2,0:0:0:0:
256,192,176227,1,0,0:0:0:0:
329,192,176364,1,0,0:0:0:0:
182,192,176500,1,0,0:0:0:0:
402,192,176636,1,0,0:0:0:0:
36,192,176773,1,4,0:0:0:0:
329,192,176773,1,4,0:0:0:0:
109,192,176909,1,0,0:0:0:0:
256,192,177045,1,0,0:0:0:0:
329,192,177182,1,4,0:0:0:0:
402,192,177182,1,4,0:0:0:0:
36,192,177318,1,0,0:0:0:0:
109,192,177454,1,0,0:0:0:0:
36,192,177591,1,0,0:0:0:0:
329,192,177727,1,0,0:0:0:0:
182,192,177864,1,4,0:0:0:0:
256,192,178000,1,0,0:0:0:0:
402,192,178136,1,0,0:0:0:0:
256,192,178273,1,4,0:0:0:0:
329,192,178409,1,0,0:0:0:0:
402,192,178545,1,0,0:0:0:0:
109,192,178682,1,0,0:0:0:0:
402,192,178818,1,0,0:0:0:0:
182,192,178954,1,4,0:0:0:0:
256,192,178954,1,4,0:0:0:0:
36,192,179091,1,0,0:0:0:0:
109,192,179227,1,0,0:0:0:0:
256,192,179364,1,4,0:0:0:0:
329,192,179364,1,4,0:0:0:0:
36,192,179500,1,0,0:0:0:0:
182,192,179636,1,8,0:0:0:0:
402,192,179636,1,8,0:0:0:0:
329,192,179773,1,0,0:0:0:0:
256,192,179909,1,0,0:0:0:0:
329,192,180045,1,0,0:0:0:0:
402,192,180045,1,0,0:0:0:0:
109,192,180182,1,0,0:0:0:0:
329,0,180318,128,2,180591:0:0:0:0:
109,192,180591,1,0,0:0:0:0:
256,192,180727,1,0,0:0:0:0:
402,0,180864,128,8,181136:0:0:0:0:
109,192,181136,1,0,0:0:0:0:
256,192,181273,1,0,0:0:0:0:
475,0,181409,128,4,181682:0:0:0:0:
182,192,181682,1,0,0:0:0:0:
329,192,181818,1,0,0:0:0:0:
36,0,181954,128,0,182227:0:0:0:0:
182,192,182227,1,0,0:0:0:0:
475,192,182364,1,0,0:0:0:0:
402,192,182500,1,0,0:0:0:0:
109,192,182636,1,0,0:0:0:0:
182,192,182773,1,0,0:0:0:0:
256,192,182909,1,0,0:0:0:0:
109,192,183045,1,0,0:0:0:0:
475,192,183182,1,0,0:0:0:0:
402,192,183318,1,0,0:0:0:0:
109,192,183454,1,0,0:0:0:0:
182,192,183591,1,0,0:0:0:0:
256,192,183727,1,0,0:0:0:0:
36,192,183864,1,0,0:0:0:0:
109,192,184000,1,0,0:0:0:0:
256,0,184136,128,2,184409:0:0:0:0:
36,192,184409,1,0,0:0:0:0:
475,192,184545,1,0,0:0:0:0:
402,192,184682,1,0,0:0:0:0:
36,192,184818,1,0,0:0:0:0:
256,192,184954,1,0,0:0:0:0:
329,192,185091,1,0,0:0:0:0:
182,192,185227,1,0,0:0:0:0:
475,192,185364,1,0,0:0:0:0:
402,192,185500,1,0,0:0:0:0:
36,192,185636,1,0,0:0:0:0:
256,192,185773,1,0,0:0:0:0:
329,192,185909,1,0,0:0:0:0:
182,192,186045,1,0,0:0:0:0:
109,192,186182,1,0,0:0:0:0:
329,192,186318,1,0,0:0:0:0:
402,192,186454,1,0,0:0:0:0:
182,192,186591,1,0,0:0:0:0:
475,192,186727,1,0,0:0:0:0:
402,192,186864,1,0,0:0:0:0:
36,192,187000,1,0,0:0:0:0:
256,192,187136,1,0,0:0:0:0:
329,192,187273,1,0,0:0:0:0:
182,192,187409,1,0,0:0:0:0:
475,192,187545,1,0,0:0:0:0:
402,192,187682,1,0,0:0:0:0:
36,192,187818,1,0,0:0:0:0:
256,192,187954,1,0,0:0:0:0:
329,192,188091,1,0,0:0:0:0:
182,192,188227,1,0,0:0:0:0:
475,192,188364,1,0,0:0:0:0:
402,192,188500,1,0,0:0:0:0:
329,192,188636,1,0,0:0:0:0:
182,192,188773,1,0,0:0:0:0:
475,192,188909,1,0,0:0:0:0:
402,192,189045,1,0,0:0:0:0:
36,192,189182,1,0,0:0:0:0:
182,192,189318,1,0,0:0:0:0:
329,192,189454,1,0,0:0:0:0:
182,192,189591,1,0,0:0:0:0:
475,192,189727,1,0,0:0:0:0:
402,192,189864,1,0,0:0:0:0:
36,192,190000,1,0,0:0:0:0:
329,192,190136,1,0,0:0:0:0:
402,192,190273,1,0,0:0:0:0:
109,192,190409,1,0,0:0:0:0:
182,192,190545,1,0,0:0:0:0:
329,192,190682,1,0,0:0:0:0:
402,192,190818,1,0,0:0:0:0:
109,192,190954,1,0,0:0:0:0:
475,192,191091,1,0,0:0:0:0:
402,192,191227,1,0,0:0:0:0:
36,192,191364,1,0,0:0:0:0:
329,192,191500,1,0,0:0:0:0:
402,192,191636,1,0,0:0:0:0:
182,192,191773,1,0,0:0:0:0:
475,192,191909,1,0,0:0:0:0:
402,192,192045,1,0,0:0:0:0:
36,192,192182,1,0,0:0:0:0:
329,192,192318,1,0,0:0:0:0:
256,192,192454,1,0,0:0:0:0:
36,192,192591,1,0,0:0:0:0:
256,192,192727,1,0,0:0:0:0:
182,192,192864,1,0,0:0:0:0:
256,192,193000,1,0,0:0:0:0:
329,192,193136,1,4,0:2:0:0:
109,192,193136,1,4,0:2:0:0:
475,192,193273,1,0,0:0:0:0:
402,192,193409,1,0,0:0:0:0:
36,192,193545,1,0,0:0:0:0:
256,192,193682,1,0,0:0:0:0:
329,192,193818,1,0,0:0:0:0:
182,192,193954,1,0,0:0:0:0:
475,192,194091,1,0,0:0:0:0:
402,192,194227,1,0,0:0:0:0:
36,192,194364,1,0,0:0:0:0:
256,192,194500,1,0,0:0:0:0:
329,192,194636,1,0,0:0:0:0:
182,192,194773,1,0,0:0:0:0:
109,192,194909,1,0,0:0:0:0:
329,192,195045,1,0,0:0:0:0:
402,192,195182,1,0,0:0:0:0:
182,192,195318,1,0,0:0:0:0:
475,192,195454,1,0,0:0:0:0:
402,192,195591,1,0,0:0:0:0:
36,192,195727,1,0,0:0:0:0:
256,192,195864,1,0,0:0:0:0:
329,192,196000,1,0,0:0:0:0:
182,192,196136,1,0,0:0:0:0:
475,192,196273,1,0,0:0:0:0:
402,192,196409,1,0,0:0:0:0:
36,192,196545,1,8,0:0:0:0:
256,192,196682,1,8,0:0:0:0:
402,192,196818,1,8,0:0:0:0:
36,192,196954,1,8,0:0:0:0:
475,192,197091,1,0,0:0:0:0:
402,192,197227,1,0,0:0:0:0:
329,192,197364,1,0,0:0:0:0:
182,192,197500,1,0,0:0:0:0:
475,192,197636,1,0,0:0:0:0:
402,192,197773,1,0,0:0:0:0:
36,192,197909,1,0,0:0:0:0:
182,192,198045,1,0,0:0:0:0:
329,192,198182,1,0,0:0:0:0:
182,192,198318,1,0,0:0:0:0:
475,192,198454,1,0,0:0:0:0:
402,192,198591,1,0,0:0:0:0:
36,192,198727,1,0,0:0:0:0:
329,192,198864,1,0,0:0:0:0:
402,192,199000,1,0,0:0:0:0:
109,192,199136,1,0,0:0:0:0:
182,192,199273,1,0,0:0:0:0:
329,192,199409,1,0,0:0:0:0:
402,192,199545,1,0,0:0:0:0:
109,192,199682,1,0,0:0:0:0:
475,192,199818,1,0,0:0:0:0:
402,192,199954,1,0,0:0:0:0:
36,192,200091,1,0,0:0:0:0:
329,192,200227,1,0,0:0:0:0:
402,192,200364,1,0,0:0:0:0:
182,192,200500,1,0,0:0:0:0:
475,192,200636,1,0,0:0:0:0:
402,192,200773,1,0,0:0:0:0:
36,192,200909,1,0,0:0:0:0:
329,192,201045,1,0,0:0:0:0:
256,192,201182,1,0,0:0:0:0:
36,192,201318,1,0,0:0:0:0:
256,192,201454,1,0,0:0:0:0:
329,192,201591,1,2,0:0:0:0:
402,192,201727,1,2,0:0:0:0:
329,192,201864,1,4,0:2:0:0:
36,192,201864,1,4,0:2:0:0:
475,192,202000,1,0,0:0:0:0:
402,192,202136,1,0,0:0:0:0:
36,192,202273,1,0,0:0:0:0:
256,192,202409,1,0,0:0:0:0:
329,192,202545,1,0,0:0:0:0:
182,192,202682,1,0,0:0:0:0:
475,192,202818,1,0,0:0:0:0:
402,192,202954,1,0,0:0:0:0:
36,192,203091,1,0,0:0:0:0:
256,192,203227,1,0,0:0:0:0:
329,192,203364,1,0,0:0:0:0:
182,192,203500,1,0,0:0:0:0:
109,192,203636,1,0,0:0:0:0:
329,192,203773,1,0,0:0:0:0:
402,192,203909,1,0,0:0:0:0:
182,192,204045,1,0,0:0:0:0:
475,192,204182,1,0,0:0:0:0:
402,192,204318,1,0,0:0:0:0:
36,192,204454,1,0,0:0:0:0:
256,192,204591,1,0,0:0:0:0:
329,192,204727,1,0,0:0:0:0:
182,192,204864,1,0,0:0:0:0:
475,192,205000,1,0,0:0:0:0:
402,192,205136,1,8,0:0:0:0:
36,192,205273,1,8,0:0:0:0:
109,192,205409,1,8,0:0:0:0:
402,192,205545,1,8,0:0:0:0:
182,192,205682,1,8,0:0:0:0:
475,192,205818,1,0,0:0:0:0:
402,192,205954,1,0,0:0:0:0:
329,192,206091,1,0,0:0:0:0:
182,192,206227,1,0,0:0:0:0:
475,192,206364,1,0,0:0:0:0:
402,192,206500,1,0,0:0:0:0:
36,192,206636,1,0,0:0:0:0:
182,192,206773,1,0,0:0:0:0:
329,192,206909,1,0,0:0:0:0:
182,192,207045,1,0,0:0:0:0:
475,192,207182,1,0,0:0:0:0:
402,192,207318,1,0,0:0:0:0:
36,192,207454,1,0,0:0:0:0:
329,192,207591,1,0,0:0:0:0:
402,192,207727,1,0,0:0:0:0:
109,192,207864,1,0,0:0:0:0:
182,192,208000,1,0,0:0:0:0:
329,192,208136,1,0,0:0:0:0:
402,192,208273,1,0,0:0:0:0:
109,192,208409,1,0,0:0:0:0:
475,192,208545,1,0,0:0:0:0:
402,192,208682,1,0,0:0:0:0:
36,192,208818,1,0,0:0:0:0:
329,192,208954,1,0,0:0:0:0:
402,192,209091,1,0,0:0:0:0:
182,192,209227,1,0,0:0:0:0:
475,192,209364,1,0,0:0:0:0:
402,192,209500,1,0,0:0:0:0:
36,192,209636,1,0,0:0:0:0:
329,192,209773,1,0,0:0:0:0:
256,192,209909,1,0,0:0:0:0:
36,192,210045,1,0,0:0:0:0:
256,192,210182,1,2,0:0:0:0:
182,192,210318,1,2,0:0:0:0:
256,192,210454,1,2,0:0:0:0:
329,192,210591,1,4,2:2:0:0:
36,192,210591,1,0,2:0:0:0:
475,192,210727,1,0,0:0:0:0:
402,192,210864,1,0,0:0:0:0:
36,192,211000,1,0,0:0:0:0:
256,192,211136,1,0,0:0:0:0:
329,192,211273,1,0,0:0:0:0:
182,192,211409,1,0,0:0:0:0:
475,192,211545,1,0,0:0:0:0:
402,192,211682,1,0,0:0:0:0:
36,192,211818,1,0,0:0:0:0:
256,192,211954,1,0,0:0:0:0:
329,192,212091,1,0,0:0:0:0:
182,192,212227,1,0,0:0:0:0:
109,192,212364,1,0,0:0:0:0:
329,192,212500,1,0,0:0:0:0:
402,192,212636,1,0,0:0:0:0:
182,192,212773,1,0,0:0:0:0:
475,192,212909,1,0,0:0:0:0:
402,192,213045,1,0,0:0:0:0:
36,192,213182,1,0,0:0:0:0:
256,192,213318,1,0,0:0:0:0:
329,192,213454,1,0,0:0:0:0:
182,192,213591,1,0,0:0:0:0:
475,192,213727,1,0,0:0:0:0:
402,192,213864,1,0,0:0:0:0:
36,192,214000,1,0,0:0:0:0:
256,192,214136,1,0,0:0:0:0:
329,192,214273,1,0,0:0:0:0:
182,192,214409,1,0,0:0:0:0:
475,192,214545,1,0,0:0:0:0:
402,192,214682,1,0,0:0:0:0:
329,192,214818,1,0,0:0:0:0:
475,192,214954,1,0,0:0:0:0:
36,192,215091,1,0,0:0:0:0:
329,192,215227,1,0,0:0:0:0:
475,192,215364,1,0,0:0:0:0:
402,192,215500,1,0,0:0:0:0:
182,192,215636,1,0,0:0:0:0:
475,192,215773,1,0,0:0:0:0:
36,192,215909,1,0,0:0:0:0:
329,192,216045,1,0,0:0:0:0:
475,192,216182,1,0,0:0:0:0:
402,192,216318,1,0,0:0:0:0:
109,192,216454,1,0,0:0:0:0:
475,192,216591,1,0,0:0:0:0:
329,192,216727,1,0,0:0:0:0:
402,192,216864,1,0,0:0:0:0:
109,192,217000,1,0,0:0:0:0:
475,192,217136,1,0,0:0:0:0:
36,192,217273,1,0,0:0:0:0:
329,192,217409,1,0,0:0:0:0:
475,192,217545,1,0,0:0:0:0:
402,192,217682,1,0,0:0:0:0:
109,192,217818,1,0,0:0:0:0:
475,192,217954,1,0,0:0:0:0:
36,192,218091,1,0,0:0:0:0:
329,192,218227,1,0,0:0:0:0:
109,0,218227,128,0,219318:0:0:0:0:
475,192,218364,1,0,0:0:0:0:
402,192,218500,1,0,0:0:0:0:
329,192,218636,1,0,0:0:0:0:
475,192,218773,1,0,0:0:0:0:
402,192,218909,1,0,0:0:0:0:
329,192,219045,1,0,0:0:0:0:
256,192,219182,1,0,0:0:0:0:
329,192,219318,1,0,0:0:0:0:
475,192,219454,1,0,0:0:0:0:
402,192,219591,1,0,0:0:0:0:
36,192,219727,1,0,0:0:0:0:
256,192,219864,1,0,0:0:0:0:
329,192,220000,1,0,0:0:0:0:
182,192,220136,1,0,0:0:0:0:
475,192,220273,1,0,0:0:0:0:
402,192,220409,1,0,0:0:0:0:
36,192,220545,1,0,0:0:0:0:
256,192,220682,1,0,0:0:0:0:
329,192,220818,1,0,0:0:0:0:
182,192,220954,1,0,0:0:0:0:
109,192,221091,1,0,0:0:0:0:
329,192,221227,1,0,0:0:0:0:
402,192,221364,1,0,0:0:0:0:
36,192,221500,1,4,0:2:0:0:
182,192,221500,1,4,0:2:0:0:
475,192,221636,1,0,0:0:0:0:
402,192,221773,1,0,0:0:0:0:
36,192,221909,1,4,0:2:0:0:
109,192,221909,1,4,0:2:0:0:
256,192,222045,1,0,0:0:0:0:
329,192,222182,1,0,0:0:0:0:
182,192,222318,1,0,0:0:0:0:
475,192,222454,1,0,0:0:0:0:
402,192,222591,1,0,0:0:0:0:
36,192,222727,1,0,0:0:0:0:
256,192,222864,1,0,0:0:0:0:
329,192,223000,1,0,0:0:0:0:
182,192,223136,1,0,0:0:0:0:
36,192,223273,1,0,0:0:0:0:
475,192,223273,1,0,0:0:0:0:
402,192,223409,1,2,0:0:0:0:
329,192,223545,1,0,0:0:0:0:
36,192,223682,1,0,0:0:0:0:
182,192,223682,1,0,0:0:0:0:
475,192,223818,1,0,0:0:0:0:
402,192,223954,1,0,0:0:0:0:
36,192,224091,1,0,0:0:0:0:
182,192,224227,1,0,0:0:0:0:
329,192,224364,1,0,0:0:0:0:
182,192,224500,1,0,0:0:0:0:
475,192,224636,1,0,0:0:0:0:
402,192,224773,1,0,0:0:0:0:
36,192,224909,1,0,0:0:0:0:
329,192,225045,1,0,0:0:0:0:
402,192,225182,1,0,0:0:0:0:
109,192,225318,1,0,0:0:0:0:
182,192,225454,1,0,0:0:0:0:
329,192,225591,1,0,0:0:0:0:
402,192,225727,1,0,0:0:0:0:
36,192,225864,1,4,0:2:0:0:
109,192,225864,1,4,0:2:0:0:
475,192,226000,1,0,0:0:0:0:
402,192,226136,1,0,0:0:0:0:
36,192,226273,1,4,0:2:0:0:
109,192,226273,1,4,0:2:0:0:
329,192,226409,1,0,0:0:0:0:
402,192,226545,1,0,0:0:0:0:
182,192,226682,1,0,0:0:0:0:
475,192,226818,1,0,0:0:0:0:
402,192,226954,1,0,0:0:0:0:
36,192,227091,1,0,0:0:0:0:
329,192,227227,1,0,0:0:0:0:
256,192,227364,1,0,0:0:0:0:
36,192,227500,1,0,0:0:0:0:
329,192,227636,1,8,0:0:0:0:
402,192,227636,1,8,0:0:0:0:
182,0,227773,128,0,228045:0:0:0:0:
329,192,228045,1,0,0:0:0:0:
402,192,228182,1,0,0:0:0:0:
256,192,228318,1,0,0:0:0:0:
36,192,228454,1,0,0:0:0:0:
329,192,228591,1,0,0:0:0:0:
402,192,228727,1,0,0:0:0:0:
256,192,228864,1,0,0:0:0:0:
402,192,229000,1,0,0:0:0:0:
329,192,229136,1,0,0:0:0:0:
36,192,229273,1,0,0:0:0:0:
256,192,229409,1,0,0:0:0:0:
329,192,229545,1,0,0:0:0:0:
182,192,229682,1,0,0:0:0:0:
402,192,229818,1,0,0:0:0:0:
475,192,229954,1,0,0:0:0:0:
329,192,230091,1,0,0:0:0:0:
36,192,230227,1,4,0:0:0:0:
182,192,230227,1,4,0:0:0:0:
402,192,230364,1,0,0:0:0:0:
329,192,230500,1,0,0:0:0:0:
36,192,230636,1,4,0:0:0:0:
182,192,230636,1,4,0:0:0:0:
402,192,230773,1,0,0:0:0:0:
256,192,230909,1,0,0:0:0:0:
109,192,231045,1,0,0:0:0:0:
256,192,231182,1,0,0:0:0:0:
109,192,231318,1,0,0:0:0:0:
182,192,231454,1,0,0:0:0:0:
329,192,231591,1,0,0:0:0:0:
256,192,231727,1,0,0:0:0:0:
329,192,231864,1,0,0:0:0:0:
36,192,232000,1,0,0:0:0:0:
109,192,232000,1,0,0:0:0:0:
182,0,232136,128,2,232409:0:0:0:0:
256,192,232409,1,0,0:0:0:0:
402,192,232545,1,0,0:0:0:0:
256,192,232682,1,0,0:0:0:0:
36,192,232818,1,0,0:0:0:0:
256,192,232954,1,0,0:0:0:0:
329,192,233091,1,0,0:0:0:0:
475,192,233227,1,0,0:0:0:0:
109,192,233364,1,0,0:0:0:0:
329,192,233500,1,0,0:0:0:0:
36,192,233636,1,0,0:0:0:0:
256,192,233773,1,0,0:0:0:0:
329,192,233909,1,0,0:0:0:0:
256,192,234045,1,0,0:0:0:0:
402,192,234182,1,0,0:0:0:0:
475,192,234318,1,0,0:0:0:0:
182,192,234454,1,0,0:0:0:0:
109,192,234591,1,0,0:0:0:0:
402,192,234727,1,0,0:0:0:0:
256,192,234864,1,0,0:0:0:0:
109,192,235000,1,0,0:0:0:0:
256,192,235136,1,0,0:0:0:0:
329,192,235273,1,0,0:0:0:0:
109,192,235409,1,0,0:0:0:0:
402,192,235545,1,0,0:0:0:0:
256,192,235682,1,0,0:0:0:0:
36,192,235818,1,0,0:0:0:0:
256,192,235954,1,0,0:0:0:0:
36,192,236091,1,0,0:0:0:0:
109,192,236227,1,0,0:0:0:0:
182,192,236364,1,0,0:0:0:0:
256,0,236500,128,2,236773:0:0:0:0:
36,192,236773,1,0,0:0:0:0:
475,192,236909,1,0,0:0:0:0:
402,192,237045,1,0,0:0:0:0:
109,192,237182,1,0,0:0:0:0:
182,192,237318,1,0,0:0:0:0:
256,192,237454,1,0,0:0:0:0:
36,192,237591,1,0,0:0:0:0:
475,192,237727,1,0,0:0:0:0:
402,192,237864,1,0,0:0:0:0:
109,192,238000,1,0,0:0:0:0:
182,192,238136,1,0,0:0:0:0:
256,192,238273,1,0,0:0:0:0:
36,192,238409,1,0,0:0:0:0:
182,192,238545,1,2,0:2:0:0:
329,0,238545,128,2,238954:0:2:0:0:
182,192,238954,1,4,0:2:0:0:
402,192,238954,1,4,0:2:0:0:
182,192,239364,1,4,0:2:0:0:
402,192,239364,1,4,0:2:0:0:
