osu file format v12

[General]
AudioFilename: 11. WorkaHolic.mp3
AudioLeadIn: 1500
PreviewTime: 132045
Countdown: 0
SampleSet: Normal
StackLeniency: 0.7
Mode: 3
LetterboxInBreaks: 0
SpecialStyle: 0
WidescreenStoryboard: 0

[Editor]
DistanceSpacing: 1.2
BeatDivisor: 2
GridSize: 16
TimelineZoom: 1

[Metadata]
Title:Workaholic
TitleUnicode:Workaholic
Artist:C-SHOW
ArtistUnicode:C-SHOW
Creator:Agka
Version:Easy
Source:
Tags:Voltage Ignition
BeatmapID:218078
BeatmapSetID:77441

[Difficulty]
HPDrainRate:6
CircleSize:7
OverallDifficulty:7
ApproachRate:9
SliderMultiplier:1.4
SliderTickRate:1

[Events]
//Background and Video events
0,0,"1295631212054.jpg",0,0
//Break Periods
//Storyboard Layer 0 (Background)
//Storyboard Layer 1 (Fail)
//Storyboard Layer 2 (Pass)
//Storyboard Layer 3 (Foreground)
//Storyboard Sound Samples
//Background Colour Transformations
3,100,163,162,255

[TimingPoints]
9864,272.7273,4,1,1,60,1,0
25886,-76.9231,4,1,1,60,0,0
25954,-100,4,1,1,60,0,0
79682,-100,4,2,1,60,0,0
88476,-100,4,1,1,60,0,0
166409,-100,4,2,1,60,0,0
184000,-100,4,1,1,60,0,0
184409,-100,4,1,1,60,0,1
219318,-100,4,1,1,60,0,0
236773,-100,4,3,1,60,0,0

[HitObjects]
36,192,9863,5,0,0:0:0:0:
329,192,10409,1,8,0:0:0:0:
182,192,10682,1,0,0:0:0:0:
182,192,11227,1,0,0:0:0:0:
329,192,11500,1,8,0:0:0:0:
182,192,12045,1,0,0:0:0:0:
402,192,12591,1,8,0:0:0:0:
182,192,12864,1,0,0:0:0:0:
182,192,13409,1,0,0:0:0:0:
329,192,13682,1,8,0:0:0:0:
402,192,13954,1,2,2:0:0:0:
182,192,14227,1,0,0:0:0:0:
329,192,14773,1,8,0:0:0:0:
182,192,15045,1,0,0:0:0:0:
182,192,15591,1,0,0:0:0:0:
329,192,15864,1,8,0:0:0:0:
182,192,16409,1,0,0:0:0:0:
329,192,16954,1,8,0:0:0:0:
182,192,17227,1,0,0:0:0:0:
329,192,17773,1,0,0:0:0:0:
109,192,18045,1,4,0:0:0:0:
182,192,18045,1,4,0:0:0:0:
329,192,18318,1,4,0:0:0:0:
402,192,18318,1,4,0:0:0:0:
109,192,18591,1,0,0:0:0:0:
402,192,18864,1,0,0:0:0:0:
182,192,19136,1,8,0:0:0:0:
329,192,19409,1,0,0:0:0:0:
256,192,19682,1,0,0:0:0:0:
402,192,19954,1,0,0:0:0:0:
256,192,20227,1,8,0:0:0:0:
182,192,20500,1,0,0:0:0:0:
36,192,20773,1,0,0:0:0:0:
329,192,21045,1,0,0:0:0:0:
402,192,21318,1,8,0:0:0:0:
256,192,21591,1,0,0:0:0:0:
329,192,21864,1,0,0:0:0:0:
402,192,22136,1,0,0:0:0:0:
475,192,22409,1,8,0:0:0:0:
256,192,22682,1,0,0:0:0:0:
256,192,22954,1,0,0:0:0:0:
402,192,23227,1,0,0:0:0:0:
256,192,23500,1,8,0:0:0:0:
182,192,23773,1,0,0:0:0:0:
256,192,24045,1,0,0:0:0:0:
402,192,24318,1,0,0:0:0:0:
475,192,24591,1,8,0:0:0:0:
256,192,24864,1,0,0:0:0:0:
182,192,25136,1,8,0:0:0:0:
329,192,25136,1,8,0:0:0:0:
402,0,25409,128,0,25954:0:0:0:0:
182,192,26227,1,0,0:0:0:0:
109,192,26500,1,0,0:0:0:0:
402,192,26773,1,2,0:0:0:0:
182,192,27318,1,0,0:0:0:0:
329,192,27318,1,0,0:0:0:0:
109,192,27864,1,0,0:0:0:0:
402,192,27864,1,0,0:0:0:0:
109,192,28409,1,0,0:0:0:0:
402,192,28409,1,0,0:0:0:0:
182,192,28954,1,0,0:0:0:0:
329,192,28954,1,0,0:0:0:0:
182,192,29500,1,0,0:0:0:0:
329,192,29500,1,0,0:0:0:0:
109,192,30045,1,0,0:0:0:0:
402,192,30045,1,0,0:0:0:0:
329,0,30318,128,0,30591:0:0:0:0:
182,192,30591,1,0,0:0:0:0:
256,192,30591,1,0,0:0:0:0:
109,192,31000,1,0,0:0:0:0:
182,192,31000,1,0,0:0:0:0:
109,192,31273,1,0,0:0:0:0:
182,192,31273,1,0,0:0:0:0:
36,192,31682,1,0,0:0:0:0:
329,192,31682,1,0,0:0:0:0:
182,192,32227,1,0,0:0:0:0:
256,192,32227,1,0,0:0:0:0:
182,192,32773,1,0,0:0:0:0:
256,192,32773,1,0,0:0:0:0:
36,192,33045,1,0,0:0:0:0:
256,192,33318,1,0,0:0:0:0:
329,192,33318,1,0,0:0:0:0:
36,192,33591,1,0,0:0:0:0:
182,192,33864,1,0,0:0:0:0:
256,192,33864,1,0,0:0:0:0:
402,192,34136,1,0,0:0:0:0:
182,192,34409,1,0,0:0:0:0:
256,192,34409,1,0,0:0:0:0:
109,192,34954,1,4,0:0:0:0:
256,192,34954,1,4,0:0:0:0:
329,192,35364,1,0,0:0:0:0:
182,192,35364,1,0,0:0:0:0:
182,192,35636,1,0,0:0:0:0:
329,192,35636,1,0,0:0:0:0:
182,192,36045,1,0,0:0:0:0:
329,192,36045,1,0,0:0:0:0:
402,192,36318,1,2,0:2:0:0:
182,192,36591,1,4,0:0:0:0:
329,192,36591,1,4,0:0:0:0:
109,192,37136,1,0,0:0:0:0:
402,192,37136,1,0,0:0:0:0:
256,192,37409,1,0,0:0:0:0:
109,192,37682,1,8,0:0:0:0:
402,192,37682,1,8,0:0:0:0:
182,192,37954,1,8,0:0:0:0:
36,192,38227,1,0,0:0:0:0:
329,192,38227,1,0,0:0:0:0:
402,192,38500,1,0,0:0:0:0:
182,192,38773,1,0,0:0:0:0:
256,192,38773,1,0,0:0:0:0:
182,192,39318,1,4,2:0:0:0:
256,192,39318,1,4,2:0:0:0:
182,192,39727,1,0,0:0:0:0:
329,192,39727,1,0,0:0:0:0:
182,192,40000,1,0,0:0:0:0:
329,192,40000,1,0,0:0:0:0:
182,192,40409,1,0,0:0:0:0:
402,192,40409,1,0,0:0:0:0:
475,192,40682,1,2,2:0:0:0:
109,192,40954,1,4,0:0:0:0:
329,192,40954,1,4,0:0:0:0:
182,192,41500,1,4,2:0:0:0:
329,192,41500,1,4,2:0:0:0:
256,192,41773,1,2,0:3:0:0:
109,192,42045,1,8,0:0:0:0:
182,192,42045,1,8,0:0:0:0:
182,192,42318,1,0,0:0:0:0:
36,192,42591,1,4,2:0:0:0:
329,192,42591,1,4,2:0:0:0:
329,192,43136,1,8,2:0:0:0:
182,0,43682,128,4,44773:2:0:0:0:
329,0,43682,128,4,44773:2:0:0:0:
36,192,44773,1,0,0:0:0:0:
109,192,44773,1,0,0:0:0:0:
329,192,45045,1,8,0:3:0:0:
256,192,45318,1,4,0:0:0:0:
329,192,45318,1,4,0:0:0:0:
109,192,45864,1,0,0:0:0:0:
256,192,45864,1,0,0:0:0:0:
182,192,46136,1,0,0:0:0:0:
182,192,46409,1,4,0:0:0:0:
329,192,46409,1,4,0:0:0:0:
182,192,46954,1,0,0:0:0:0:
256,192,46954,1,0,0:0:0:0:
182,192,47227,1,0,0:0:0:0:
182,192,47500,1,4,0:0:0:0:
329,192,47500,1,4,0:0:0:0:
109,192,48045,1,0,0:0:0:0:
182,192,48045,1,0,0:0:0:0:
329,192,48318,1,2,0:2:0:0:
36,192,48591,1,4,0:0:0:0:
402,192,48591,1,4,0:0:0:0:
329,192,48864,1,8,0:0:0:0:
109,192,49136,1,0,0:0:0:0:
256,0,49136,128,0,49682:0:0:0:0:
109,192,49682,1,4,0:0:0:0:
402,192,49682,1,4,0:0:0:0:
109,192,50227,1,0,0:0:0:0:
402,192,50227,1,0,0:0:0:0:
256,192,50500,1,0,0:0:0:0:
36,192,50773,1,4,0:0:0:0:
109,192,50773,1,4,0:0:0:0:
109,192,51318,1,0,0:0:0:0:
329,192,51318,1,0,0:0:0:0:
256,192,51591,1,0,0:0:0:0:
182,192,51864,1,4,0:0:0:0:
402,192,51864,1,4,0:0:0:0:
182,192,52136,1,0,0:0:0:0:
402,0,52136,128,0,52409:0:0:0:0:
109,192,52409,1,0,0:0:0:0:
256,192,52682,1,0,0:0:0:0:
402,192,52954,1,2,0:0:0:0:
109,0,52954,128,0,53500:0:0:0:0:
182,192,53500,1,0,0:0:0:0:
329,192,53500,1,0,0:0:0:0:
182,192,54045,1,8,0:0:0:0:
402,192,54045,1,8,0:0:0:0:
256,192,54591,1,0,0:0:0:0:
329,192,54591,1,0,0:0:0:0:
182,192,55136,1,8,0:0:0:0:
256,192,55136,1,8,0:0:0:0:
109,192,55682,1,0,0:0:0:0:
182,192,55682,1,0,0:0:0:0:
109,192,56227,1,8,0:0:0:0:
256,192,56227,1,8,0:0:0:0:
109,192,56773,1,2,2:0:0:0:
182,192,56773,1,2,2:0:0:0:
329,192,57045,1,0,0:0:0:0:
402,192,57318,1,4,0:0:0:0:
475,192,57318,1,4,0:0:0:0:
329,192,57591,1,0,0:0:0:0:
109,192,57864,1,0,0:0:0:0:
182,192,57864,1,0,0:0:0:0:
329,192,58136,1,0,0:0:0:0:
109,192,58409,1,8,0:0:0:0:
182,192,58409,1,8,0:0:0:0:
256,192,58682,1,0,0:0:0:0:
109,192,58954,1,0,0:0:0:0:
329,192,58954,1,0,0:0:0:0:
329,192,59227,1,0,0:0:0:0:
109,192,59500,1,8,0:0:0:0:
402,192,59500,1,8,0:0:0:0:
256,192,59773,1,0,0:0:0:0:
36,192,60045,1,0,0:0:0:0:
109,192,60045,1,0,0:0:0:0:
329,0,60318,128,0,60591:0:0:0:0:
182,192,60591,1,8,0:0:0:0:
402,192,60591,1,0,0:0:0:0:
182,192,61136,1,0,0:0:0:0:
329,192,61409,1,0,0:0:0:0:
109,192,61682,1,0,0:0:0:0:
329,192,61682,1,0,0:0:0:0:
329,192,61954,1,0,0:0:0:0:
182,192,62227,1,4,2:0:0:0:
329,192,62227,1,4,2:0:0:0:
329,192,62773,1,4,0:0:0:0:
182,192,62773,1,4,0:0:0:0:
182,192,63318,1,0,0:0:0:0:
329,192,63318,1,0,0:0:0:0:
182,192,63864,1,8,0:0:0:0:
329,192,63864,1,8,0:0:0:0:
256,192,64136,1,2,2:0:0:0:
329,192,64409,1,0,0:0:0:0:
182,0,64409,128,0,64954:0:0:0:0:
36,192,64954,1,4,0:0:0:0:
109,192,64954,1,4,0:0:0:0:
109,192,65500,1,0,0:0:0:0:
182,192,65500,1,0,0:0:0:0:
329,0,65773,128,0,66318:0:0:0:0:
256,192,66318,1,0,0:0:0:0:
36,192,66591,1,0,0:0:0:0:
109,0,66591,128,0,66864:0:0:0:0:
256,192,66864,1,0,0:0:0:0:
109,192,67136,1,8,0:0:0:0:
402,192,67136,1,8,0:0:0:0:
329,192,67409,1,0,0:0:0:0:
402,192,67682,1,0,0:0:0:0:
256,192,67954,1,2,0:2:0:0:
109,192,68227,1,8,0:0:0:0:
329,192,68227,1,8,0:0:0:0:
109,192,68773,1,0,0:0:0:0:
329,192,68773,1,0,0:0:0:0:
256,192,69045,1,0,0:0:0:0:
109,192,69318,1,8,0:0:0:0:
329,192,69318,1,8,0:0:0:0:
182,0,69591,128,2,69864:2:0:0:0:
36,192,69864,1,0,0:0:0:0:
182,192,70136,1,0,0:0:0:0:
329,192,70409,1,4,0:0:0:0:
402,192,70409,1,4,0:0:0:0:
329,192,70682,1,4,0:0:0:0:
402,192,70682,1,4,0:0:0:0:
109,192,70954,1,0,0:0:0:0:
329,192,70954,1,0,0:0:0:0:
109,192,71500,1,4,0:0:0:0:
329,192,71500,1,4,0:0:0:0:
109,192,72045,1,0,0:0:0:0:
182,192,72045,1,0,0:0:0:0:
182,192,72591,1,4,0:0:0:0:
256,192,72591,1,4,0:0:0:0:
109,192,73136,1,0,0:0:0:0:
256,192,73136,1,0,0:0:0:0:
402,192,73409,1,0,0:0:0:0:
109,192,73545,1,8,0:0:0:0:
182,192,73682,1,8,0:0:0:0:
109,192,74227,1,0,0:0:0:0:
182,192,74227,1,0,0:0:0:0:
109,192,74636,1,0,0:0:0:0:
182,192,74636,1,0,0:0:0:0:
109,192,74909,1,0,0:0:0:0:
182,192,74909,1,0,0:0:0:0:
109,192,75318,1,0,0:0:0:0:
402,192,75318,1,0,0:0:0:0:
329,192,75864,1,8,0:0:0:0:
182,192,75864,1,8,0:0:0:0:
402,192,76136,1,0,0:0:0:0:
182,192,76409,1,0,0:0:0:0:
329,192,76409,1,0,0:0:0:0:
109,192,76954,1,4,0:0:0:0:
402,192,76954,1,4,0:0:0:0:
182,192,77364,1,0,0:0:0:0:
109,192,77500,1,0,0:0:0:0:
402,192,77500,1,0,0:0:0:0:
109,192,77909,1,0,0:0:0:0:
329,192,77909,1,0,0:0:0:0:
182,192,78182,1,0,0:0:0:0:
256,192,78182,1,0,0:0:0:0:
109,192,78591,1,0,0:0:0:0:
182,192,78591,1,0,0:0:0:0:
109,192,78864,1,0,0:0:0:0:
182,192,78864,1,0,0:0:0:0:
182,192,79273,1,8,0:0:0:0:
109,192,79409,1,8,0:0:0:0:
329,192,79682,1,2,0:2:0:0:
402,192,79682,1,2,0:2:0:0:
475,192,79954,1,8,0:0:0:0:
402,192,80227,1,8,0:1:0:0:
475,192,80364,1,8,0:0:0:0:
182,192,80636,1,0,0:0:0:0:
182,192,80909,1,0,0:0:0:0:
329,192,81182,1,8,0:0:0:0:
329,192,81454,1,8,0:1:0:0:
402,192,81591,1,8,0:0:0:0:
329,192,81727,1,4,0:2:0:0:
182,192,81864,1,0,0:0:0:0:
402,192,82136,1,8,0:0:0:0:
329,192,82409,1,8,0:1:0:0:
402,192,82545,1,8,0:0:0:0:
402,192,82818,1,8,0:0:0:0:
109,192,83091,1,8,0:1:0:0:
329,192,83364,1,8,0:0:0:0:
182,192,83636,1,0,0:0:0:0:
329,192,83909,1,8,0:0:0:0:
182,192,84045,1,4,0:2:0:0:
402,192,84318,1,0,0:0:0:0:
182,192,84454,1,4,0:2:0:0:
329,192,84591,1,0,0:0:0:0:
402,192,84727,1,0,0:0:0:0:
182,192,85000,1,0,0:0:0:0:
182,192,85273,1,0,0:0:0:0:
329,192,85545,1,8,0:1:0:0:
329,192,85818,1,8,0:1:0:0:
402,192,85954,1,8,0:0:0:0:
329,192,86091,1,8,0:1:0:0:
109,192,86227,1,4,0:0:0:0:
182,192,86227,1,4,0:0:0:0:
329,192,86500,1,0,0:0:0:0:
256,192,86773,1,8,0:1:0:0:
329,192,86909,1,8,0:0:0:0:
329,192,87182,1,8,0:0:0:0:
329,192,87454,1,8,0:0:0:0:
182,192,87727,1,8,0:1:0:0:
182,192,88000,1,2,0:1:0:0:
329,192,88136,1,8,0:0:0:0:
402,192,88273,1,2,0:0:0:0:
329,192,88409,1,0,0:0:0:0:
329,192,88682,1,0,0:0:0:0:
329,192,88954,1,0,0:0:0:0:
329,192,89227,1,0,0:0:0:0:
109,192,89500,1,4,0:2:0:0:
329,192,89500,1,4,0:2:0:0:
109,192,89773,1,0,0:0:0:0:
109,192,90045,1,0,0:0:0:0:
109,192,90318,1,0,0:0:0:0:
109,192,90591,1,4,0:2:0:0:
329,192,90591,1,4,0:2:0:0:
329,192,90864,1,0,0:0:0:0:
329,192,91136,1,0,0:0:0:0:
329,192,91409,1,0,0:0:0:0:
182,192,91682,1,4,0:2:0:0:
329,192,91682,1,4,0:2:0:0:
182,192,91954,1,0,0:0:0:0:
182,192,92227,1,0,0:0:0:0:
182,192,92500,1,0,0:0:0:0:
182,192,92773,1,4,0:2:0:0:
329,192,92773,1,4,0:2:0:0:
329,192,93045,1,0,0:0:0:0:
182,192,93318,1,4,0:2:0:0:
329,192,93318,1,4,0:2:0:0:
182,192,93591,1,0,0:0:0:0:
182,192,93864,1,4,0:2:0:0:
329,192,93864,1,4,0:2:0:0:
329,192,94136,1,0,0:0:0:0:
182,192,94409,1,4,0:2:0:0:
329,192,94409,1,4,0:2:0:0:
182,192,94682,1,0,0:0:0:0:
182,192,94954,1,4,0:2:0:0:
329,192,94954,1,4,0:2:0:0:
182,192,95227,1,4,0:2:0:0:
329,192,95227,1,4,0:2:0:0:
182,192,95500,1,4,0:2:0:0:
329,192,95500,1,4,0:2:0:0:
182,192,95773,1,4,0:2:0:0:
329,192,95773,1,4,0:2:0:0:
182,192,96045,1,0,0:0:0:0:
329,192,96182,1,0,0:0:0:0:
182,192,96318,1,0,0:0:0:0:
109,192,96591,1,0,0:0:0:0:
402,192,96591,1,0,0:0:0:0:
256,192,96864,1,2,0:0:0:0:
36,192,97136,1,0,0:0:0:0:
109,192,97136,1,0,0:0:0:0:
475,192,97409,1,0,0:0:0:0:
36,192,97682,1,0,0:0:0:0:
256,192,97682,1,0,0:0:0:0:
329,192,97954,1,0,0:0:0:0:
475,192,97954,1,0,0:0:0:0:
36,192,98227,1,0,0:0:0:0:
256,192,98227,1,0,0:0:0:0:
182,192,98500,1,0,0:0:0:0:
329,192,98500,1,0,0:0:0:0:
109,192,98773,1,0,0:0:0:0:
402,192,98773,1,0,0:0:0:0:
256,192,99045,1,0,0:0:0:0:
329,192,99045,1,0,0:0:0:0:
182,192,99318,1,0,0:0:0:0:
329,192,99318,1,0,0:0:0:0:
256,192,99591,1,0,0:0:0:0:
402,192,99591,1,0,0:0:0:0:
109,192,99864,1,0,0:0:0:0:
329,192,99864,1,0,0:0:0:0:
182,192,100136,1,0,0:0:0:0:
402,192,100136,1,0,0:0:0:0:
182,192,100409,1,0,0:0:0:0:
256,192,100409,1,0,0:0:0:0:
256,192,100682,1,0,0:0:0:0:
329,192,100682,1,0,0:0:0:0:
329,192,100954,1,0,0:0:0:0:
402,192,100954,1,0,0:0:0:0:
402,192,101227,1,0,0:0:0:0:
475,192,101227,1,0,0:0:0:0:
182,192,101500,1,0,0:0:0:0:
256,192,101500,1,0,0:0:0:0:
36,192,101773,1,0,0:0:0:0:
329,192,101773,1,0,0:0:0:0:
109,192,102045,1,0,0:0:0:0:
256,192,102045,1,0,0:0:0:0:
182,192,102318,1,0,0:0:0:0:
329,192,102318,1,0,0:0:0:0:
182,192,102591,1,0,0:0:0:0:
329,192,102591,1,0,0:0:0:0:
182,192,102864,1,0,0:0:0:0:
402,192,102864,1,0,0:0:0:0:
182,192,103136,1,0,0:0:0:0:
329,192,103136,1,0,0:0:0:0:
182,192,103409,1,0,0:0:0:0:
256,192,103409,1,0,0:0:0:0:
182,192,103682,1,0,0:0:0:0:
329,192,103682,1,0,0:0:0:0:
256,192,103954,1,0,0:0:0:0:
402,192,103954,1,0,0:0:0:0:
36,192,104227,1,0,0:0:0:0:
329,192,104227,1,0,0:0:0:0:
109,192,104500,1,0,0:0:0:0:
402,192,104500,1,0,0:0:0:0:
256,192,104773,1,0,0:0:0:0:
329,192,104773,1,0,0:0:0:0:
329,192,105182,1,0,0:0:0:0:
475,192,105182,1,0,0:0:0:0:
329,192,105454,1,0,0:0:0:0:
475,192,105454,1,0,0:0:0:0:
36,192,105864,1,4,0:2:0:0:
329,192,105864,1,4,0:2:0:0:
402,192,105864,1,4,0:2:0:0:
182,192,106136,1,0,0:0:0:0:
402,192,106136,1,0,0:0:0:0:
109,192,106409,1,0,0:0:0:0:
256,192,106409,1,0,0:0:0:0:
182,192,106682,1,0,0:0:0:0:
329,192,106682,1,0,0:0:0:0:
256,192,106954,1,0,0:0:0:0:
402,192,106954,1,0,0:0:0:0:
329,192,107227,1,0,0:0:0:0:
475,192,107227,1,0,0:0:0:0:
109,192,107500,1,0,0:0:0:0:
256,192,107500,1,0,0:0:0:0:
256,192,107773,1,0,0:0:0:0:
329,192,107773,1,0,0:0:0:0:
329,192,108045,1,0,0:0:0:0:
402,192,108045,1,0,0:0:0:0:
109,192,108318,1,0,0:0:0:0:
475,192,108318,1,0,0:0:0:0:
182,192,108591,1,0,0:0:0:0:
475,192,108591,1,0,0:0:0:0:
256,192,108864,1,0,0:0:0:0:
402,192,108864,1,0,0:0:0:0:
329,192,109136,1,0,0:0:0:0:
402,192,109136,1,0,0:0:0:0:
36,0,109136,128,0,110227:0:0:0:0:
182,192,110227,1,0,0:0:0:0:
256,192,110227,1,0,0:0:0:0:
256,192,110500,1,0,0:0:0:0:
402,192,110500,1,0,0:0:0:0:
109,192,110773,1,0,0:0:0:0:
256,192,110773,1,0,0:0:0:0:
182,192,111045,1,0,0:0:0:0:
402,192,111045,1,0,0:0:0:0:
256,192,111318,1,0,0:0:0:0:
402,192,111318,1,0,0:0:0:0:
329,192,111591,1,0,0:0:0:0:
402,192,111591,1,0,0:0:0:0:
182,192,111864,1,0,0:0:0:0:
329,192,111864,1,0,0:0:0:0:
36,192,112136,1,0,0:0:0:0:
329,192,112136,1,0,0:0:0:0:
256,192,112409,1,0,0:0:0:0:
475,192,112409,1,0,0:0:0:0:
109,192,112682,1,0,0:0:0:0:
329,192,112682,1,0,0:0:0:0:
256,192,112954,1,0,0:0:0:0:
475,192,112954,1,0,0:0:0:0:
256,192,113227,1,0,0:0:0:0:
329,192,113227,1,0,0:0:0:0:
109,192,113500,1,0,0:0:0:0:
329,192,113500,1,0,0:0:0:0:
109,192,113773,1,0,0:0:0:0:
182,192,113773,1,0,0:0:0:0:
109,192,114045,1,0,0:0:0:0:
402,192,114045,1,0,0:0:0:0:
402,192,114318,1,0,0:0:0:0:
256,0,114318,128,2,114591:0:0:0:0:
402,192,114591,1,0,0:0:0:0:
182,192,114864,1,0,0:0:0:0:
329,192,114864,1,0,0:0:0:0:
329,192,115136,1,0,0:0:0:0:
402,192,115136,1,0,0:0:0:0:
182,192,115409,1,0,0:0:0:0:
402,192,115409,1,0,0:0:0:0:
109,192,115682,1,0,0:0:0:0:
329,192,115682,1,0,0:0:0:0:
109,192,115954,1,0,0:0:0:0:
182,192,115954,1,0,0:0:0:0:
256,192,116227,1,0,0:0:0:0:
475,192,116227,1,0,0:0:0:0:
182,192,116500,1,0,0:0:0:0:
329,192,116500,1,0,0:0:0:0:
109,192,116773,1,0,0:0:0:0:
256,192,116773,1,0,0:0:0:0:
36,192,117045,1,0,0:0:0:0:
475,192,117045,1,0,0:0:0:0:
36,192,117318,1,0,0:0:0:0:
402,192,117318,1,0,0:0:0:0:
109,192,117591,1,0,0:0:0:0:
329,192,117591,1,0,0:0:0:0:
36,192,117864,1,0,0:0:0:0:
475,192,117864,1,0,0:0:0:0:
329,192,118136,1,0,0:0:0:0:
475,192,118409,1,0,0:0:0:0:
475,192,118682,1,0,0:0:0:0:
256,192,118954,1,0,0:0:0:0:
402,192,118954,1,0,0:0:0:0:
182,192,119227,1,0,0:0:0:0:
256,192,119227,1,0,0:0:0:0:
329,192,119500,1,0,0:0:0:0:
402,192,119500,1,0,0:0:0:0:
109,192,119773,1,0,0:0:0:0:
402,192,119773,1,0,0:0:0:0:
109,192,120045,1,0,0:0:0:0:
329,192,120045,1,0,0:0:0:0:
182,192,120318,1,0,0:0:0:0:
256,192,120318,1,0,0:0:0:0:
182,192,120591,1,0,0:0:0:0:
402,192,120591,1,0,0:0:0:0:
402,192,120864,1,0,0:0:0:0:
475,192,120864,1,0,0:0:0:0:
182,192,121136,1,0,0:0:0:0:
256,192,121136,1,0,0:0:0:0:
329,192,121409,1,0,0:0:0:0:
402,192,121409,1,0,0:0:0:0:
109,192,121682,1,0,0:0:0:0:
256,192,121682,1,0,0:0:0:0:
182,192,121954,1,0,0:0:0:0:
329,192,121954,1,0,0:0:0:0:
36,192,122227,1,4,0:2:0:0:
402,192,122227,1,4,0:2:0:0:
475,192,122227,1,4,0:2:0:0:
109,192,122500,1,0,0:0:0:0:
182,192,122500,1,0,0:0:0:0:
329,192,122500,1,0,0:0:0:0:
402,192,122500,1,0,0:0:0:0:
329,192,122773,1,0,0:0:0:0:
402,192,122773,1,0,0:0:0:0:
109,192,123045,1,0,0:0:0:0:
256,192,123045,1,0,0:0:0:0:
329,192,123318,1,4,2:0:0:0:
402,192,123318,1,4,2:0:0:0:
182,192,123318,1,4,2:0:0:0:
182,192,123591,1,0,0:0:0:0:
402,192,123591,1,0,0:0:0:0:
109,192,123864,1,0,0:0:0:0:
256,192,123864,1,0,0:0:0:0:
182,192,124136,1,0,0:0:0:0:
329,192,124136,1,0,0:0:0:0:
256,192,124409,1,0,0:0:0:0:
402,192,124409,1,0,0:0:0:0:
329,192,124682,1,0,0:0:0:0:
475,192,124682,1,0,0:0:0:0:
109,192,124954,1,0,0:0:0:0:
256,192,124954,1,0,0:0:0:0:
256,192,125227,1,0,0:0:0:0:
329,192,125227,1,0,0:0:0:0:
329,192,125500,1,0,0:0:0:0:
402,192,125500,1,0,0:0:0:0:
109,192,125773,1,0,0:0:0:0:
475,192,125773,1,0,0:0:0:0:
182,192,126045,1,0,0:0:0:0:
475,192,126045,1,0,0:0:0:0:
256,192,126318,1,0,0:0:0:0:
402,192,126318,1,0,0:0:0:0:
182,192,126591,1,0,0:0:0:0:
329,192,126591,1,0,0:0:0:0:
109,192,126864,1,0,0:0:0:0:
402,192,126864,1,0,0:0:0:0:
36,192,127136,1,0,0:0:0:0:
475,192,127136,1,0,0:0:0:0:
36,192,127409,1,0,0:0:0:0:
402,192,127409,1,0,0:0:0:0:
109,192,127682,1,0,0:0:0:0:
256,192,127682,1,0,0:0:0:0:
256,192,127954,1,0,0:0:0:0:
402,192,127954,1,0,0:0:0:0:
109,192,128227,1,0,0:0:0:0:
256,192,128227,1,0,0:0:0:0:
182,192,128500,1,0,0:0:0:0:
402,192,128500,1,0,0:0:0:0:
256,192,128773,1,0,0:0:0:0:
402,192,128773,1,0,0:0:0:0:
329,192,129045,1,0,0:0:0:0:
402,192,129045,1,0,0:0:0:0:
182,192,129318,1,0,0:0:0:0:
329,192,129318,1,0,0:0:0:0:
36,192,129591,1,0,0:0:0:0:
329,192,129591,1,0,0:0:0:0:
36,0,129864,128,0,130954:0:0:0:0:
475,0,129864,128,0,130954:0:0:0:0:
109,192,130954,1,4,0:0:0:0:
329,0,130954,128,0,131227:0:0:0:0:
109,192,131227,1,0,0:0:0:0:
329,0,131500,128,0,131773:0:0:0:0:
109,192,131773,1,0,0:0:0:0:
109,192,132045,1,0,0:0:0:0:
182,192,132318,1,0,0:0:0:0:
109,192,132591,1,4,0:0:0:0:
182,192,132864,1,0,0:0:0:0:
402,192,133136,1,0,0:0:0:0:
109,192,133409,1,0,0:0:0:0:
182,192,133682,1,4,0:0:0:0:
329,192,133682,1,4,0:0:0:0:
329,192,133954,1,0,0:0:0:0:
109,192,134227,1,0,0:0:0:0:
182,192,134500,1,0,0:0:0:0:
182,192,134773,1,4,0:0:0:0:
402,192,134773,1,4,0:0:0:0:
109,192,135045,1,0,0:0:0:0:
182,192,135318,1,0,0:0:0:0:
182,192,135591,1,0,0:0:0:0:
402,192,135864,1,4,0:0:0:0:
109,192,136409,1,0,0:0:0:0:
109,192,136682,1,0,0:0:0:0:
182,192,136954,1,4,0:0:0:0:
402,192,136954,1,4,0:0:0:0:
182,192,137227,1,0,0:0:0:0:
109,192,137500,1,0,0:0:0:0:
182,192,137773,1,0,0:0:0:0:
182,192,138045,1,4,0:0:0:0:
402,192,138045,1,4,0:0:0:0:
182,192,138318,1,0,0:0:0:0:
329,192,138591,1,0,0:0:0:0:
182,192,138864,1,0,0:0:0:0:
36,192,139136,1,4,0:0:0:0:
109,192,139136,1,4,0:0:0:0:
329,192,139409,1,0,0:0:0:0:
182,192,139682,1,0,0:0:0:0:
402,192,139954,1,0,0:0:0:0:
109,0,140227,128,0,140773:0:0:0:0:
329,192,140773,1,0,0:0:0:0:
109,192,141045,1,0,0:0:0:0:
402,192,141318,1,4,0:0:0:0:
329,192,141318,1,4,0:0:0:0:
182,192,141591,1,0,0:0:0:0:
36,192,141864,1,0,0:0:0:0:
182,192,142136,1,0,0:0:0:0:
182,192,142409,1,4,0:0:0:0:
402,192,142409,1,4,0:0:0:0:
182,192,142682,1,0,0:0:0:0:
36,192,142954,1,0,0:0:0:0:
182,192,143227,1,0,0:0:0:0:
109,192,143500,1,4,0:0:0:0:
402,192,143500,1,4,0:0:0:0:
256,192,143773,1,0,0:0:0:0:
182,192,144045,1,0,0:0:0:0:
182,192,144318,1,0,0:0:0:0:
182,0,144591,128,0,145136:0:0:0:0:
329,192,145136,1,0,0:0:0:0:
109,192,145409,1,0,0:0:0:0:
256,192,145682,1,4,0:0:0:0:
329,192,145682,1,4,0:0:0:0:
182,192,145954,1,0,0:0:0:0:
182,192,146227,1,0,0:0:0:0:
329,192,146500,1,0,0:0:0:0:
109,192,146773,1,4,0:0:0:0:
329,192,146773,1,4,0:0:0:0:
329,192,147045,1,0,0:0:0:0:
182,192,147318,1,0,0:0:0:0:
182,192,147591,1,0,0:0:0:0:
109,192,147864,1,4,0:0:0:0:
329,192,147864,1,4,0:0:0:0:
182,192,148136,1,0,0:0:0:0:
182,192,148409,1,0,0:0:0:0:
475,192,148682,1,0,0:0:0:0:
109,192,148954,1,0,0:0:0:0:
109,192,149227,1,0,0:0:0:0:
182,0,149500,128,0,150045:0:0:0:0:
475,192,150045,1,4,0:0:0:0:
182,192,150318,1,0,0:0:0:0:
36,192,150591,1,0,0:0:0:0:
182,192,150591,1,0,0:0:0:0:
329,192,150864,1,0,0:0:0:0:
36,192,151136,1,8,0:0:0:0:
182,192,151136,1,8,0:0:0:0:
329,192,151409,1,0,0:0:0:0:
182,192,151682,1,0,0:0:0:0:
109,192,151954,1,0,0:0:0:0:
256,192,152227,1,4,0:0:0:0:
329,192,152227,1,4,0:0:0:0:
109,192,152500,1,0,0:0:0:0:
182,192,152773,1,0,0:0:0:0:
182,192,153045,1,0,0:0:0:0:
182,192,153318,1,8,0:0:0:0:
475,192,153318,1,8,0:0:0:0:
182,192,153591,1,0,0:0:0:0:
329,192,153864,1,0,0:0:0:0:
109,192,154136,1,0,0:0:0:0:
182,192,154409,1,4,0:0:0:0:
329,192,154409,1,4,0:0:0:0:
109,192,154682,1,0,0:0:0:0:
182,192,154954,1,0,0:0:0:0:
182,192,155227,1,0,0:0:0:0:
109,192,155500,1,4,0:0:0:0:
182,192,155500,1,4,0:0:0:0:
329,192,155773,1,0,0:0:0:0:
329,192,156045,1,0,0:0:0:0:
109,192,156318,1,0,0:0:0:0:
36,192,156591,1,4,0:0:0:0:
402,192,156591,1,4,0:0:0:0:
109,192,156864,1,0,0:0:0:0:
182,192,157136,1,0,0:0:0:0:
329,192,157409,1,0,0:0:0:0:
182,0,157682,128,0,158227:0:0:0:0:
329,192,158227,1,0,0:0:0:0:
109,192,158500,1,0,0:0:0:0:
182,192,158773,1,4,0:0:0:0:
329,192,158773,1,4,0:0:0:0:
182,192,159045,1,0,0:0:0:0:
36,192,159318,1,0,0:0:0:0:
182,192,159318,1,0,0:0:0:0:
109,192,159591,1,0,0:0:0:0:
36,192,159864,1,4,0:0:0:0:
402,192,159864,1,4,0:0:0:0:
109,192,160136,1,0,0:0:0:0:
329,192,160409,1,0,0:0:0:0:
402,192,160409,1,0,0:0:0:0:
182,192,160682,1,0,0:0:0:0:
36,192,160954,1,4,0:0:0:0:
109,192,160954,1,4,0:0:0:0:
182,192,161227,1,0,0:0:0:0:
182,192,161500,1,0,0:0:0:0:
329,192,161500,1,0,0:0:0:0:
182,192,161773,1,0,0:0:0:0:
182,0,162045,128,0,162591:0:0:0:0:
256,192,162591,1,0,0:0:0:0:
329,192,162591,1,0,0:0:0:0:
109,192,162864,1,0,0:0:0:0:
182,192,163136,1,0,0:0:0:0:
329,192,163136,1,0,0:0:0:0:
36,192,163409,1,0,0:0:0:0:
36,192,163682,1,0,0:0:0:0:
329,192,163682,1,0,0:0:0:0:
402,192,163954,1,0,0:0:0:0:
182,192,164227,1,0,0:0:0:0:
256,192,164227,1,0,0:0:0:0:
109,192,164500,1,0,0:0:0:0:
182,192,164773,1,0,0:0:0:0:
109,192,165045,1,0,0:0:0:0:
182,192,165318,1,0,0:0:0:0:
402,192,165591,1,0,0:0:0:0:
182,192,165864,1,0,0:0:0:0:
182,0,166545,128,2,166954:0:0:0:0:
36,192,166954,1,4,0:0:0:0:
329,192,167364,1,4,0:0:0:0:
109,192,167636,1,0,0:0:0:0:
182,192,168045,1,8,0:0:0:0:
402,192,168182,1,8,0:0:0:0:
475,192,168318,1,0,0:0:0:0:
402,192,168591,1,0,0:0:0:0:
182,192,168727,1,8,0:0:0:0:
182,192,169136,1,4,0:0:0:0:
475,192,169409,1,0,0:0:0:0:
182,192,169545,1,4,0:0:0:0:
329,192,169682,1,0,0:0:0:0:
182,192,170227,1,0,0:0:0:0:
402,192,170500,1,0,0:0:0:0:
109,192,170773,1,0,0:0:0:0:
329,192,170909,1,4,0:0:0:0:
36,192,171318,1,4,0:0:0:0:
109,192,171591,1,0,0:0:0:0:
475,192,171727,1,4,0:0:0:0:
329,192,171864,1,0,0:0:0:0:
182,192,172409,1,0,0:0:0:0:
329,192,172818,1,0,0:0:0:0:
109,192,172954,1,0,0:0:0:0:
329,192,173091,1,8,0:0:0:0:
182,192,173500,1,4,0:0:0:0:
402,192,173500,1,4,0:0:0:0:
36,192,173773,1,0,0:0:0:0:
329,192,173909,1,4,0:0:0:0:
36,192,174045,1,0,0:0:0:0:
109,192,174318,1,0,0:0:0:0:
182,192,174454,1,0,0:0:0:0:
475,192,174591,1,0,0:0:0:0:
402,192,174864,1,0,0:0:0:0:
475,192,175000,1,0,0:0:0:0:
256,192,175273,1,2,0:0:0:0:
329,192,175682,1,4,0:0:0:0:
182,192,175954,1,0,0:0:0:0:
329,192,176091,1,4,0:0:0:0:
182,192,176227,1,0,0:0:0:0:
109,192,176500,1,0,0:0:0:0:
182,192,176773,1,4,0:0:0:0:
329,192,177045,1,0,0:0:0:0:
256,192,177182,1,4,0:0:0:0:
182,192,177318,1,0,0:0:0:0:
475,192,177591,1,0,0:0:0:0:
109,192,177864,1,4,0:2:0:0:
182,192,178136,1,0,0:0:0:0:
329,192,178273,1,4,0:0:0:0:
109,192,178409,1,0,0:0:0:0:
182,192,178682,1,0,0:0:0:0:
182,192,178954,1,4,0:0:0:0:
329,192,179091,1,0,0:0:0:0:
475,192,179227,1,0,0:0:0:0:
109,192,179364,1,4,0:0:0:0:
402,192,179636,1,4,0:0:0:0:
182,192,179773,1,0,0:0:0:0:
182,192,180045,1,0,0:0:0:0:
109,0,180318,128,8,180591:0:0:0:0:
182,0,180864,128,4,181136:0:0:0:0:
36,0,181409,128,4,181682:2:0:0:0:
109,192,181954,1,2,0:0:0:0:
402,192,182227,1,0,0:0:0:0:
36,192,182500,1,0,0:0:0:0:
402,192,182773,1,0,0:0:0:0:
329,192,183045,1,0,0:0:0:0:
36,192,183318,1,0,0:0:0:0:
402,192,183591,1,0,0:0:0:0:
329,192,183864,1,0,0:0:0:0:
329,0,184136,128,2,184409:0:0:0:0:
109,192,184409,1,0,0:0:0:0:
256,192,184409,1,0,0:0:0:0:
36,192,184682,1,0,0:0:0:0:
402,192,184682,1,0,0:0:0:0:
182,192,184954,1,0,0:0:0:0:
329,192,184954,1,0,0:0:0:0:
109,192,185227,1,0,0:0:0:0:
402,192,185227,1,0,0:0:0:0:
36,192,185500,1,0,0:0:0:0:
256,192,185500,1,0,0:0:0:0:
329,192,185773,1,0,0:0:0:0:
475,192,185773,1,0,0:0:0:0:
109,192,186045,1,0,0:0:0:0:
256,192,186045,1,0,0:0:0:0:
109,192,186318,1,0,0:0:0:0:
402,192,186318,1,0,0:0:0:0:
182,192,186591,1,0,0:0:0:0:
329,192,186591,1,0,0:0:0:0:
36,192,186864,1,0,0:0:0:0:
256,192,186864,1,0,0:0:0:0:
182,192,187136,1,0,0:0:0:0:
329,192,187136,1,0,0:0:0:0:
109,192,187409,1,0,0:0:0:0:
256,192,187409,1,0,0:0:0:0:
36,192,187682,1,0,0:0:0:0:
329,192,187682,1,0,0:0:0:0:
182,192,187954,1,0,0:0:0:0:
256,192,187954,1,0,0:0:0:0:
109,192,188227,1,0,0:0:0:0:
402,192,188227,1,0,0:0:0:0:
36,192,188500,1,0,0:0:0:0:
256,192,188500,1,0,0:0:0:0:
109,192,188773,1,0,0:0:0:0:
402,192,188773,1,0,0:0:0:0:
36,192,189045,1,0,0:0:0:0:
256,192,189045,1,0,0:0:0:0:
329,192,189318,1,0,0:0:0:0:
402,192,189318,1,0,0:0:0:0:
109,192,189591,1,0,0:0:0:0:
256,192,189591,1,0,0:0:0:0:
36,192,189864,1,0,0:0:0:0:
402,192,189864,1,0,0:0:0:0:
109,192,190136,1,0,0:0:0:0:
329,192,190136,1,0,0:0:0:0:
182,192,190409,1,0,0:0:0:0:
402,192,190409,1,0,0:0:0:0:
109,192,190682,1,0,0:0:0:0:
329,192,190682,1,0,0:0:0:0:
182,192,190954,1,0,0:0:0:0:
402,192,190954,1,0,0:0:0:0:
36,192,191227,1,0,0:0:0:0:
475,192,191227,1,0,0:0:0:0:
109,192,191500,1,0,0:0:0:0:
402,192,191500,1,0,0:0:0:0:
182,192,191773,1,0,0:0:0:0:
329,192,191773,1,0,0:0:0:0:
36,192,192045,1,0,0:0:0:0:
256,192,192045,1,0,0:0:0:0:
109,192,192318,1,0,0:0:0:0:
182,192,192318,1,0,0:0:0:0:
329,192,192591,1,0,0:0:0:0:
475,192,192591,1,0,0:0:0:0:
256,192,192864,1,0,0:0:0:0:
329,192,192864,1,0,0:0:0:0:
109,192,193136,1,0,0:0:0:0:
182,192,193136,1,0,0:0:0:0:
36,192,193409,1,0,0:0:0:0:
256,192,193409,1,0,0:0:0:0:
182,192,193682,1,0,0:0:0:0:
329,192,193682,1,0,0:0:0:0:
109,192,193954,1,0,0:0:0:0:
329,192,193954,1,0,0:0:0:0:
36,192,194227,1,0,0:0:0:0:
402,192,194227,1,0,0:0:0:0:
256,192,194500,1,0,0:0:0:0:
329,192,194500,1,0,0:0:0:0:
109,192,194773,1,0,0:0:0:0:
109,192,195045,1,0,0:0:0:0:
182,192,195318,1,0,0:0:0:0:
329,192,195318,1,0,0:0:0:0:
36,192,195591,1,0,0:0:0:0:
256,192,195591,1,0,0:0:0:0:
329,192,195864,1,0,0:0:0:0:
402,192,195864,1,0,0:0:0:0:
109,192,196136,1,0,0:0:0:0:
256,192,196136,1,0,0:0:0:0:
36,192,196409,1,0,0:0:0:0:
402,192,196409,1,0,0:0:0:0:
182,192,196682,1,0,0:0:0:0:
182,192,196954,1,0,0:0:0:0:
36,192,197227,1,0,0:0:0:0:
402,192,197227,1,0,0:0:0:0:
109,192,197500,1,0,0:0:0:0:
256,192,197500,1,0,0:0:0:0:
36,192,197773,1,0,0:0:0:0:
182,192,197773,1,0,0:0:0:0:
329,192,198045,1,0,0:0:0:0:
402,192,198045,1,0,0:0:0:0:
109,192,198318,1,0,0:0:0:0:
256,192,198318,1,0,0:0:0:0:
36,192,198591,1,0,0:0:0:0:
402,192,198591,1,0,0:0:0:0:
109,192,198864,1,0,0:0:0:0:
256,192,198864,1,0,0:0:0:0:
182,192,199136,1,0,0:0:0:0:
402,192,199136,1,0,0:0:0:0:
109,192,199409,1,0,0:0:0:0:
329,192,199409,1,0,0:0:0:0:
182,192,199682,1,0,0:0:0:0:
475,192,199682,1,0,0:0:0:0:
36,192,199954,1,0,0:0:0:0:
256,192,199954,1,0,0:0:0:0:
109,192,200227,1,0,0:0:0:0:
402,192,200227,1,0,0:0:0:0:
182,192,200500,1,0,0:0:0:0:
475,192,200500,1,0,0:0:0:0:
36,192,200773,1,0,0:0:0:0:
256,192,200773,1,0,0:0:0:0:
109,192,201045,1,0,0:0:0:0:
256,192,201318,1,0,0:0:0:0:
109,192,201591,1,0,0:0:0:0:
182,192,201864,1,0,0:0:0:0:
256,192,201864,1,0,0:0:0:0:
36,192,202136,1,0,0:0:0:0:
329,192,202136,1,0,0:0:0:0:
182,192,202409,1,0,0:0:0:0:
256,0,202409,128,0,202682:0:0:0:0:
109,192,202682,1,0,0:0:0:0:
36,192,202954,1,0,0:0:0:0:
402,192,202954,1,0,0:0:0:0:
182,192,203227,1,0,0:0:0:0:
329,0,203227,128,0,203500:0:0:0:0:
109,192,203500,1,0,0:0:0:0:
182,192,203500,1,0,0:0:0:0:
109,192,203773,1,0,0:0:0:0:
182,192,204045,1,0,0:0:0:0:
402,192,204045,1,0,0:0:0:0:
36,192,204318,1,0,0:0:0:0:
475,192,204318,1,0,0:0:0:0:
182,192,204591,1,0,0:0:0:0:
329,0,204591,128,0,204864:0:0:0:0:
109,192,204864,1,0,0:0:0:0:
36,192,205136,1,0,0:0:0:0:
182,192,205273,1,8,0:0:0:0:
475,192,205409,1,8,0:0:0:0:
256,192,205545,1,0,0:0:0:0:
256,192,205818,1,0,0:0:0:0:
36,192,205954,1,0,0:0:0:0:
109,192,206227,1,0,0:0:0:0:
329,192,206227,1,0,0:0:0:0:
36,192,206500,1,0,0:0:0:0:
256,192,206500,1,0,0:0:0:0:
402,192,206773,1,0,0:0:0:0:
475,192,206773,1,0,0:0:0:0:
109,192,207045,1,0,0:0:0:0:
256,192,207045,1,0,0:0:0:0:
36,192,207318,1,0,0:0:0:0:
402,192,207318,1,0,0:0:0:0:
109,192,207591,1,0,0:0:0:0:
329,192,207591,1,0,0:0:0:0:
182,192,207864,1,0,0:0:0:0:
475,192,207864,1,0,0:0:0:0:
109,192,208136,1,0,0:0:0:0:
402,192,208136,1,0,0:0:0:0:
182,192,208409,1,0,0:0:0:0:
329,192,208409,1,0,0:0:0:0:
36,192,208682,1,0,0:0:0:0:
475,192,208682,1,0,0:0:0:0:
109,192,208954,1,0,0:0:0:0:
402,192,208954,1,0,0:0:0:0:
182,192,209227,1,0,0:0:0:0:
329,192,209227,1,0,0:0:0:0:
36,192,209500,1,0,0:0:0:0:
402,192,209636,1,0,0:0:0:0:
109,192,209773,1,0,0:0:0:0:
329,192,210045,1,0,0:0:0:0:
329,192,210318,1,2,0:0:0:0:
109,192,210591,1,4,0:2:0:0:
256,192,210591,1,4,0:2:0:0:
36,192,210864,1,0,0:0:0:0:
329,192,210864,1,0,0:0:0:0:
182,192,211136,1,0,0:0:0:0:
329,192,211136,1,0,0:0:0:0:
109,192,211409,1,0,0:0:0:0:
329,192,211409,1,0,0:0:0:0:
36,192,211682,1,0,0:0:0:0:
402,192,211682,1,0,0:0:0:0:
256,192,211954,1,0,0:0:0:0:
329,192,211954,1,0,0:0:0:0:
109,192,212227,1,0,0:0:0:0:
402,192,212227,1,0,0:0:0:0:
109,192,212500,1,0,0:0:0:0:
329,192,212500,1,0,0:0:0:0:
182,192,212773,1,0,0:0:0:0:
256,192,212773,1,0,0:0:0:0:
36,192,213045,1,0,0:0:0:0:
329,192,213045,1,0,0:0:0:0:
182,192,213318,1,0,0:0:0:0:
329,192,213318,1,0,0:0:0:0:
109,192,213591,1,0,0:0:0:0:
402,192,213591,1,0,0:0:0:0:
36,192,213864,1,0,0:0:0:0:
256,192,213864,1,0,0:0:0:0:
475,192,214136,1,8,0:0:0:0:
109,192,214409,1,8,0:0:0:0:
36,192,214682,1,0,0:0:0:0:
402,192,214682,1,0,0:0:0:0:
36,192,214954,1,0,0:0:0:0:
329,192,214954,1,0,0:0:0:0:
109,192,215227,1,0,0:0:0:0:
182,192,215227,1,0,0:0:0:0:
36,192,215500,1,0,0:0:0:0:
402,192,215500,1,0,0:0:0:0:
36,192,215773,1,0,0:0:0:0:
329,192,215773,1,0,0:0:0:0:
109,192,216045,1,0,0:0:0:0:
256,192,216045,1,0,0:0:0:0:
36,192,216318,1,0,0:0:0:0:
402,192,216318,1,0,0:0:0:0:
36,192,216591,1,0,0:0:0:0:
256,192,216591,1,0,0:0:0:0:
182,192,216864,1,0,0:0:0:0:
329,192,216864,1,0,0:0:0:0:
36,192,217136,1,0,0:0:0:0:
475,192,217136,1,0,0:0:0:0:
109,192,217409,1,0,0:0:0:0:
256,192,217409,1,0,0:0:0:0:
36,192,217682,1,0,0:0:0:0:
475,192,217682,1,0,0:0:0:0:
36,192,217954,1,0,0:0:0:0:
329,192,217954,1,0,0:0:0:0:
109,192,218227,1,0,0:0:0:0:
402,0,218227,128,0,219318:0:0:0:0:
36,192,218500,1,0,0:0:0:0:
36,192,218773,1,0,0:0:0:0:
182,192,219045,1,0,0:0:0:0:
109,192,219318,1,0,0:0:0:0:
256,192,219318,1,0,0:0:0:0:
36,192,219591,1,0,0:0:0:0:
182,192,219591,1,0,0:0:0:0:
329,192,219864,1,0,0:0:0:0:
402,192,219864,1,0,0:0:0:0:
109,192,220136,1,0,0:0:0:0:
182,192,220136,1,0,0:0:0:0:
36,192,220409,1,0,0:0:0:0:
402,192,220409,1,0,0:0:0:0:
256,192,220682,1,0,0:0:0:0:
329,192,220682,1,0,0:0:0:0:
109,192,220954,1,0,0:0:0:0:
402,192,220954,1,0,0:0:0:0:
109,192,221227,1,0,0:0:0:0:
256,192,221227,1,0,0:0:0:0:
182,192,221500,1,4,2:0:0:0:
329,192,221500,1,4,2:0:0:0:
109,192,221909,1,0,0:0:0:0:
402,192,221909,1,0,0:0:0:0:
109,192,222318,1,0,0:0:0:0:
36,192,222591,1,0,0:0:0:0:
329,192,222864,1,0,0:0:0:0:
109,192,223136,1,0,0:0:0:0:
36,192,223409,1,0,0:0:0:0:
109,192,223682,1,4,0:2:0:0:
329,192,223682,1,4,0:2:0:0:
36,192,223954,1,0,0:0:0:0:
182,192,223954,1,0,0:0:0:0:
329,192,224227,1,0,0:0:0:0:
402,192,224227,1,0,0:0:0:0:
109,192,224500,1,0,0:0:0:0:
256,192,224500,1,0,0:0:0:0:
36,192,224773,1,0,0:0:0:0:
402,192,224773,1,0,0:0:0:0:
109,192,225045,1,0,0:0:0:0:
256,192,225045,1,0,0:0:0:0:
182,192,225318,1,0,0:0:0:0:
475,192,225318,1,0,0:0:0:0:
109,192,225591,1,0,0:0:0:0:
329,192,225591,1,0,0:0:0:0:
182,192,225864,1,4,2:0:0:0:
329,192,225864,1,0,0:0:0:0:
402,192,226273,1,0,0:0:0:0:
109,192,226273,1,0,0:0:0:0:
182,192,226682,1,0,0:0:0:0:
36,192,226954,1,0,0:0:0:0:
109,192,227227,1,0,0:0:0:0:
329,192,227500,1,0,0:0:0:0:
182,192,227773,1,0,0:0:0:0:
109,192,228045,1,0,0:0:0:0:
402,192,228045,1,0,0:0:0:0:
182,192,228318,1,0,0:0:0:0:
329,192,228318,1,0,0:0:0:0:
109,192,228591,1,0,0:0:0:0:
402,192,228591,1,0,0:0:0:0:
182,192,228864,1,0,0:0:0:0:
329,192,228864,1,0,0:0:0:0:
109,192,229136,1,0,0:0:0:0:
182,192,229136,1,0,0:0:0:0:
329,192,229409,1,0,0:0:0:0:
402,192,229409,1,0,0:0:0:0:
109,192,229682,1,0,0:0:0:0:
182,192,229682,1,0,0:0:0:0:
36,192,229954,1,0,0:0:0:0:
402,192,230227,1,4,2:0:0:0:
109,192,230227,1,4,2:0:0:0:
182,192,230636,1,4,2:0:0:0:
329,192,230636,1,4,2:0:0:0:
329,192,231045,1,0,0:0:0:0:
329,192,231318,1,0,0:0:0:0:
109,192,231591,1,0,0:0:0:0:
109,192,231864,1,0,0:0:0:0:
402,0,232136,128,0,232409:0:0:0:0:
329,192,232409,1,0,0:0:0:0:
182,192,232682,1,0,0:0:0:0:
329,192,232954,1,0,0:0:0:0:
36,192,233227,1,0,0:0:0:0:
109,192,233500,1,0,0:0:0:0:
256,192,233500,1,0,0:0:0:0:
182,192,233773,1,0,0:0:0:0:
329,192,233773,1,0,0:0:0:0:
109,192,234045,1,0,0:0:0:0:
256,192,234045,1,0,0:0:0:0:
36,192,234318,1,0,0:0:0:0:
329,192,234318,1,0,0:0:0:0:
256,192,234591,1,4,2:0:0:0:
402,192,234591,1,4,2:0:0:0:
182,192,234864,1,0,0:0:0:0:
256,192,234864,1,0,0:0:0:0:
109,192,235136,1,0,0:0:0:0:
329,192,235136,1,0,0:0:0:0:
109,192,235409,1,0,0:0:0:0:
182,192,235409,1,0,0:0:0:0:
182,192,235682,1,0,0:0:0:0:
256,192,235682,1,0,0:0:0:0:
36,192,235954,1,0,0:0:0:0:
329,192,235954,1,0,0:0:0:0:
475,192,236227,1,0,0:0:0:0:
329,0,236500,128,0,236773:0:0:0:0:
256,192,236773,1,0,0:0:0:0:
36,192,237045,1,0,0:0:0:0:
402,192,237318,1,0,0:0:0:0:
329,192,237591,1,0,0:0:0:0:
36,192,237864,1,0,0:0:0:0:
402,192,238136,1,0,0:0:0:0:
329,192,238409,1,0,0:0:0:0:
109,0,238545,128,2,238954:0:0:0:0:
402,192,238954,1,4,2:0:0:0:
402,192,239364,1,4,2:0:0:0:
