osu file format v12

[General]
AudioFilename: retrospective kyoto.mp3
AudioLeadIn: 0
PreviewTime: -1
Countdown: 0
SampleSet: Normal
StackLeniency: 0.7
Mode: 1
LetterboxInBreaks: 0

[Editor]
Bookmarks: 40553,65168,89783,126706,151322
DistanceSpacing: 0.8
BeatDivisor: 4
GridSize: 32

[Metadata]
Title:Retrospective Kyoto
TitleUnicode:Retrospective Kyoto
Artist:C-CLAYS
ArtistUnicode:C-CLAYS
Creator:Mithost
Version:Muzukashii
Source:Touhou
Tags:
BeatmapID:269583
BeatmapSetID:101824

[Difficulty]
HPDrainRate:5
CircleSize:5
OverallDifficulty:5
ApproachRate:5
SliderMultiplier:2
SliderTickRate:1

[Events]
//Background and Video events
0,0,"kyotobg.jpg",0,0
//Break Periods
//Storyboard Layer 0 (Background)
//Storyboard Layer 1 (Fail)
//Storyboard Layer 2 (Pass)
//Storyboard Layer 3 (Foreground)
//Storyboard Sound Samples
//Background Colour Transformations
3,100,255,0,0

[TimingPoints]
553,512.820512820513,3,1,0,100,1,0
554,-133.333333333333,3,1,0,100,0,0
39911,-133.333333333333,3,1,0,50,0,0
40040,-125,3,1,0,60,0,0
40168,-117.647058823529,3,1,0,65,0,0
40296,-111.111111111111,3,1,0,70,0,0
40424,-105.263157894737,3,1,0,80,0,0
40553,-100,3,1,0,100,0,1
65168,-100,3,1,0,100,0,0
89783,-111.111111111111,3,1,0,100,0,0
126450,-107.52688172043,3,1,0,100,0,0
126578,-104.166666666667,3,1,0,100,0,0
126706,-100,3,1,0,100,0,1
151322,-111.111111111111,3,1,0,100,0,0

[Colours]
Combo1 : 255,255,255
Combo2 : 0,0,0

[HitObjects]
224,160,553,1,12,0:0:0:0:
288,160,1322,1,8,0:0:0:0:
224,160,2091,1,12,0:0:0:0:
288,160,2860,1,8,0:0:0:0:
256,224,3629,1,4,0:0:0:0:
256,224,4399,1,0,0:0:0:0:
256,224,5168,1,0,0:0:0:0:
256,224,5937,1,0,0:0:0:0:
224,160,6706,1,12,0:0:0:0:
288,160,7476,1,8,0:0:0:0:
224,160,8245,1,12,0:0:0:0:
288,160,9014,1,8,0:0:0:0:
256,224,9783,1,4,0:0:0:0:
256,224,10553,1,0,0:0:0:0:
256,224,11322,1,0,0:0:0:0:
256,224,12091,1,0,0:0:0:0:
224,160,12860,1,12,0:0:0:0:
288,160,13629,1,8,0:0:0:0:
256,192,13886,1,0,0:0:0:0:
256,192,14142,1,0,0:0:0:0:
288,160,14399,1,12,0:0:0:0:
288,160,15168,1,8,0:0:0:0:
256,192,15424,1,0,0:0:0:0:
256,192,15681,1,0,0:0:0:0:
256,192,15937,1,4,0:0:0:0:
256,224,16706,1,0,0:0:0:0:
256,224,16963,1,0,0:0:0:0:
256,224,17219,1,0,0:0:0:0:
256,224,17476,1,0,0:0:0:0:
256,224,18245,1,0,0:0:0:0:
256,224,18501,1,0,0:0:0:0:
256,224,18758,1,0,0:0:0:0:
288,160,19014,1,12,0:0:0:0:
288,160,19783,1,8,0:0:0:0:
256,192,20040,1,0,0:0:0:0:
256,192,20296,1,0,0:0:0:0:
288,160,20553,1,12,0:0:0:0:
288,160,21322,1,8,0:0:0:0:
256,192,21578,1,0,0:0:0:0:
256,192,21835,1,0,0:0:0:0:
256,192,22091,1,4,0:0:0:0:
256,224,22860,1,0,0:0:0:0:
256,224,23117,1,0,0:0:0:0:
256,224,23373,1,0,0:0:0:0:
256,224,23629,1,0,0:0:0:0:
256,224,24399,1,0,0:0:0:0:
256,224,24655,1,0,0:0:0:0:
256,224,24911,1,0,0:0:0:0:
224,160,25168,1,12,0:0:0:0:
288,160,25937,1,8,0:0:0:0:
256,192,26194,1,0,0:0:0:0:
256,192,26450,1,0,0:0:0:0:
224,160,26706,1,12,0:0:0:0:
288,160,27476,1,8,0:0:0:0:
256,192,27732,1,0,0:0:0:0:
256,192,27988,1,0,0:0:0:0:
256,224,28245,1,4,0:0:0:0:
256,224,29014,1,0,0:0:0:0:
256,224,29270,1,0,0:0:0:0:
256,224,29527,1,0,0:0:0:0:
256,224,29783,1,4,0:0:0:0:
256,224,30553,1,0,0:0:0:0:
256,224,30809,1,0,0:0:0:0:
256,224,31065,1,0,0:0:0:0:
224,160,31322,1,12,0:0:0:0:
288,160,32091,1,8,0:0:0:0:
256,192,32347,1,0,0:0:0:0:
256,192,32604,1,0,0:0:0:0:
224,160,32860,1,12,0:0:0:0:
288,160,33629,1,8,0:0:0:0:
256,192,33886,1,0,0:0:0:0:
256,192,34142,1,0,0:0:0:0:
256,224,34399,1,4,0:0:0:0:
256,192,35809,1,0,0:0:0:0:
288,160,35937,1,8,0:0:0:0:
256,192,39783,5,0,0:0:0:0:
256,192,40040,1,0,0:0:0:0:
256,192,40296,1,0,0:0:0:0:
224,160,40553,1,12,0:0:0:0:
256,192,40681,1,0,0:0:0:0:
288,160,41065,1,8,0:0:0:0:
256,192,41322,1,0,0:0:0:0:
288,160,41578,1,8,0:0:0:0:
256,192,41835,1,0,0:0:0:0:
256,192,42091,1,0,0:0:0:0:
288,160,42219,1,8,0:0:0:0:
288,160,42604,1,8,0:0:0:0:
256,192,42860,1,0,0:0:0:0:
288,160,43117,1,8,0:0:0:0:
256,192,43373,1,0,0:0:0:0:
288,160,43629,1,8,0:0:0:0:
256,192,43758,1,0,0:0:0:0:
288,160,44142,1,8,0:0:0:0:
256,192,44399,1,0,0:0:0:0:
288,160,44655,1,8,0:0:0:0:
288,160,44911,1,8,0:0:0:0:
256,192,45168,1,0,0:0:0:0:
288,160,45296,1,8,0:0:0:0:
224,160,45681,1,12,0:0:0:0:
256,192,45937,1,0,0:0:0:0:
288,160,46194,1,8,0:0:0:0:
288,160,46450,1,8,0:0:0:0:
288,160,46706,1,8,0:0:0:0:
256,192,46835,1,0,0:0:0:0:
288,160,47219,1,8,0:0:0:0:
256,192,47476,1,0,0:0:0:0:
288,160,47732,1,8,0:0:0:0:
256,192,47988,1,0,0:0:0:0:
256,192,48245,1,0,0:0:0:0:
288,160,48373,1,8,0:0:0:0:
288,160,48758,1,8,0:0:0:0:
256,192,49014,1,0,0:0:0:0:
288,160,49270,1,8,0:0:0:0:
256,192,49527,1,0,0:0:0:0:
288,160,49783,1,8,0:0:0:0:
288,160,49911,1,8,0:0:0:0:
288,160,50296,1,8,0:0:0:0:
256,192,50553,1,0,0:0:0:0:
288,160,50809,1,8,0:0:0:0:
256,192,51065,1,0,0:0:0:0:
288,160,51322,1,8,0:0:0:0:
288,160,51450,1,8,0:0:0:0:
288,160,51835,1,8,0:0:0:0:
256,192,52091,1,0,0:0:0:0:
288,160,52347,1,8,0:0:0:0:
288,160,52476,1,8,0:0:0:0:
288,160,52604,1,8,0:0:0:0:
288,160,52860,1,8,0:0:0:0:
256,192,52988,1,0,0:0:0:0:
288,160,53373,1,8,0:0:0:0:
256,192,53629,1,0,0:0:0:0:
288,160,53886,1,8,0:0:0:0:
256,192,54142,1,0,0:0:0:0:
256,192,54399,1,0,0:0:0:0:
288,160,54527,1,8,0:0:0:0:
288,160,54911,1,8,0:0:0:0:
256,192,55168,1,0,0:0:0:0:
288,160,55424,1,8,0:0:0:0:
256,192,55681,1,0,0:0:0:0:
288,160,55937,1,8,0:0:0:0:
256,192,56065,1,0,0:0:0:0:
288,160,56450,1,8,0:0:0:0:
256,192,56706,1,0,0:0:0:0:
288,160,56963,1,8,0:0:0:0:
288,160,57219,1,8,0:0:0:0:
256,192,57476,1,0,0:0:0:0:
288,160,57604,1,8,0:0:0:0:
224,160,57988,1,12,0:0:0:0:
256,192,58245,1,0,0:0:0:0:
288,160,58501,1,8,0:0:0:0:
288,160,58758,1,8,0:0:0:0:
288,160,59014,1,8,0:0:0:0:
256,192,59142,1,0,0:0:0:0:
288,160,59527,1,8,0:0:0:0:
256,192,59783,1,0,0:0:0:0:
288,160,60040,1,8,0:0:0:0:
256,192,60296,1,0,0:0:0:0:
256,192,60553,1,0,0:0:0:0:
288,160,60681,1,8,0:0:0:0:
288,160,61065,1,8,0:0:0:0:
256,192,61322,1,0,0:0:0:0:
288,160,61578,1,8,0:0:0:0:
256,192,61835,1,0,0:0:0:0:
288,160,62091,1,8,0:0:0:0:
256,192,62219,1,0,0:0:0:0:
288,160,62604,1,8,0:0:0:0:
256,192,62860,1,0,0:0:0:0:
288,160,63117,1,8,0:0:0:0:
256,192,63373,1,0,0:0:0:0:
288,160,63629,1,8,0:0:0:0:
288,160,63758,1,8,0:0:0:0:
288,160,64142,1,8,0:0:0:0:
256,192,64399,1,0,0:0:0:0:
288,160,64655,1,8,0:0:0:0:
256,192,64911,1,0,0:0:0:0:
288,160,65168,1,8,0:0:0:0:
256,192,65553,1,0,0:0:0:0:
288,160,65681,1,8,0:0:0:0:
256,192,65937,1,0,0:0:0:0:
288,160,66194,1,8,0:0:0:0:
256,192,66450,1,0,0:0:0:0:
256,192,66578,1,0,0:0:0:0:
288,160,66706,1,8,0:0:0:0:
256,192,66963,1,0,0:0:0:0:
256,192,67091,1,0,0:0:0:0:
256,192,67219,1,0,0:0:0:0:
288,160,67476,1,8,0:0:0:0:
256,192,67732,1,0,0:0:0:0:
256,192,67860,1,0,0:0:0:0:
288,160,67988,1,8,0:0:0:0:
224,160,68245,1,12,0:0:0:0:
256,192,68629,1,0,0:0:0:0:
288,160,68758,1,8,0:0:0:0:
288,160,69014,1,8,0:0:0:0:
256,192,69142,1,0,0:0:0:0:
288,160,69270,1,8,0:0:0:0:
256,192,69527,1,0,0:0:0:0:
288,160,69783,1,8,0:0:0:0:
256,192,70168,1,0,0:0:0:0:
288,160,70296,1,8,0:0:0:0:
256,192,70553,1,0,0:0:0:0:
256,192,70681,1,0,0:0:0:0:
288,160,70809,1,8,0:0:0:0:
224,160,71065,1,12,0:0:0:0:
256,224,71322,1,4,0:0:0:0:
256,192,71706,1,0,0:0:0:0:
288,160,71835,1,8,0:0:0:0:
256,192,72091,1,0,0:0:0:0:
288,160,72347,1,8,0:0:0:0:
288,160,72604,1,8,0:0:0:0:
256,192,72732,1,0,0:0:0:0:
288,160,72860,1,8,0:0:0:0:
256,192,73117,1,0,0:0:0:0:
256,192,73245,1,0,0:0:0:0:
256,192,73373,1,0,0:0:0:0:
288,160,73629,1,8,0:0:0:0:
256,192,73886,1,0,0:0:0:0:
256,192,74014,1,0,0:0:0:0:
256,192,74142,1,0,0:0:0:0:
224,160,74399,1,12,0:0:0:0:
256,192,74783,1,0,0:0:0:0:
288,160,74911,1,8,0:0:0:0:
256,192,75168,1,0,0:0:0:0:
256,192,75296,1,0,0:0:0:0:
288,160,75424,1,8,0:0:0:0:
256,192,75681,1,0,0:0:0:0:
288,160,75937,1,8,0:0:0:0:
256,192,76322,1,0,0:0:0:0:
288,160,76450,1,8,0:0:0:0:
256,192,76706,1,0,0:0:0:0:
256,192,76835,1,0,0:0:0:0:
288,160,76963,1,8,0:0:0:0:
288,160,77219,1,8,0:0:0:0:
288,160,77476,1,8,0:0:0:0:
256,192,77860,1,0,0:0:0:0:
288,160,77988,1,8,0:0:0:0:
288,160,78245,1,8,0:0:0:0:
256,192,78501,1,0,0:0:0:0:
288,160,78758,1,8,0:0:0:0:
256,192,78886,1,0,0:0:0:0:
288,160,79014,1,8,0:0:0:0:
256,192,79270,1,0,0:0:0:0:
256,192,79399,1,0,0:0:0:0:
256,192,79527,1,0,0:0:0:0:
288,160,79783,1,8,0:0:0:0:
256,192,80040,1,0,0:0:0:0:
256,192,80168,1,0,0:0:0:0:
288,160,80296,1,8,0:0:0:0:
224,160,80553,1,12,0:0:0:0:
256,192,80937,1,0,0:0:0:0:
288,160,81065,1,8,0:0:0:0:
288,160,81322,1,8,0:0:0:0:
256,192,81450,1,0,0:0:0:0:
288,160,81578,1,8,0:0:0:0:
288,160,81835,1,8,0:0:0:0:
288,160,81963,1,8,0:0:0:0:
256,192,82091,1,0,0:0:0:0:
256,192,82476,1,0,0:0:0:0:
288,160,82604,1,8,0:0:0:0:
256,192,82860,1,0,0:0:0:0:
256,192,82988,1,0,0:0:0:0:
288,160,83117,1,8,0:0:0:0:
288,160,83373,1,8,0:0:0:0:
224,160,83629,1,12,0:0:0:0:
256,192,84014,1,0,0:0:0:0:
288,160,84142,1,8,0:0:0:0:
256,192,84399,1,0,0:0:0:0:
256,192,84527,1,0,0:0:0:0:
288,160,84655,1,8,0:0:0:0:
256,192,84911,1,0,0:0:0:0:
288,160,85040,1,8,0:0:0:0:
288,160,85168,1,8,0:0:0:0:
256,192,85424,1,0,0:0:0:0:
256,192,85553,1,0,0:0:0:0:
256,192,85681,1,0,0:0:0:0:
288,160,85937,1,8,0:0:0:0:
256,192,86194,1,0,0:0:0:0:
256,192,86322,1,0,0:0:0:0:
256,192,86450,1,0,0:0:0:0:
224,160,86706,1,12,0:0:0:0:
256,192,87091,1,0,0:0:0:0:
288,160,87219,1,8,0:0:0:0:
256,192,87476,1,0,0:0:0:0:
256,192,87604,1,0,0:0:0:0:
288,160,87732,1,8,0:0:0:0:
256,192,87988,1,0,0:0:0:0:
288,160,88245,1,8,0:0:0:0:
256,192,88758,1,0,0:0:0:0:
256,192,89014,1,0,0:0:0:0:
256,192,89142,1,0,0:0:0:0:
288,160,89270,5,8,0:0:0:0:
256,192,89399,1,0,0:0:0:0:
288,160,89527,1,8,0:0:0:0:
224,160,89783,1,4,0:0:0:0:
256,192,90168,1,0,0:0:0:0:
288,160,90296,1,8,0:0:0:0:
256,192,90553,1,0,0:0:0:0:
256,192,90809,1,0,0:0:0:0:
288,160,91065,1,8,0:0:0:0:
256,192,91322,1,0,0:0:0:0:
256,192,91706,1,0,0:0:0:0:
288,160,91835,1,8,0:0:0:0:
256,192,92091,1,0,0:0:0:0:
288,160,92347,1,8,0:0:0:0:
256,192,92604,1,0,0:0:0:0:
224,160,92860,1,12,0:0:0:0:
256,192,93245,1,0,0:0:0:0:
288,160,93373,1,8,0:0:0:0:
256,192,93629,1,0,0:0:0:0:
256,192,93886,1,0,0:0:0:0:
288,160,94142,1,8,0:0:0:0:
256,192,94399,1,0,0:0:0:0:
256,192,94783,1,0,0:0:0:0:
288,160,94911,1,8,0:0:0:0:
256,192,95168,1,0,0:0:0:0:
288,160,95424,1,8,0:0:0:0:
256,192,95553,1,0,0:0:0:0:
256,192,95681,1,0,0:0:0:0:
224,160,95937,1,12,0:0:0:0:
256,192,96322,1,0,0:0:0:0:
288,160,96450,1,8,0:0:0:0:
256,192,96706,1,0,0:0:0:0:
256,192,96963,1,0,0:0:0:0:
288,160,97219,1,8,0:0:0:0:
256,192,97476,1,0,0:0:0:0:
256,192,97860,1,0,0:0:0:0:
288,160,97988,1,8,0:0:0:0:
256,192,98245,1,0,0:0:0:0:
288,160,98501,1,8,0:0:0:0:
256,192,98629,1,0,0:0:0:0:
256,192,98758,1,0,0:0:0:0:
224,160,99014,1,12,0:0:0:0:
256,192,99399,1,0,0:0:0:0:
288,160,99527,1,8,0:0:0:0:
256,192,99783,1,0,0:0:0:0:
256,192,100040,1,0,0:0:0:0:
288,160,100296,1,8,0:0:0:0:
256,192,100553,1,0,0:0:0:0:
256,192,100937,1,0,0:0:0:0:
288,160,101065,1,8,0:0:0:0:
256,192,101322,1,0,0:0:0:0:
288,160,101578,1,8,0:0:0:0:
256,192,101706,1,0,0:0:0:0:
256,192,101835,1,0,0:0:0:0:
224,160,102091,1,12,0:0:0:0:
256,192,102476,1,0,0:0:0:0:
288,160,102604,1,8,0:0:0:0:
256,192,102860,1,0,0:0:0:0:
256,192,103117,1,0,0:0:0:0:
288,160,103373,1,8,0:0:0:0:
256,192,103629,1,0,0:0:0:0:
256,192,104014,1,0,0:0:0:0:
288,160,104142,1,8,0:0:0:0:
256,192,104399,1,0,0:0:0:0:
288,160,104655,1,8,0:0:0:0:
256,192,104783,1,0,0:0:0:0:
256,192,104911,1,0,0:0:0:0:
224,160,105168,1,12,0:0:0:0:
256,192,105553,1,0,0:0:0:0:
288,160,105681,1,8,0:0:0:0:
256,192,105937,1,0,0:0:0:0:
256,192,106194,1,0,0:0:0:0:
288,160,106450,1,8,0:0:0:0:
256,192,106706,1,0,0:0:0:0:
256,192,107091,1,0,0:0:0:0:
288,160,107219,1,8,0:0:0:0:
256,192,107476,1,0,0:0:0:0:
288,160,107732,1,8,0:0:0:0:
256,192,107860,1,0,0:0:0:0:
256,192,107988,1,0,0:0:0:0:
224,160,108245,1,12,0:0:0:0:
256,192,108629,1,0,0:0:0:0:
288,160,108758,1,8,0:0:0:0:
256,192,109014,1,0,0:0:0:0:
256,192,109270,1,0,0:0:0:0:
288,160,109527,1,8,0:0:0:0:
256,192,109783,1,0,0:0:0:0:
256,192,110168,1,0,0:0:0:0:
288,160,110296,1,8,0:0:0:0:
256,192,110553,1,0,0:0:0:0:
288,160,110809,1,8,0:0:0:0:
288,160,111065,1,8,0:0:0:0:
224,160,111322,1,12,0:0:0:0:
256,192,111706,1,0,0:0:0:0:
288,160,111835,1,8,0:0:0:0:
256,192,112091,1,0,0:0:0:0:
256,192,112347,1,0,0:0:0:0:
288,160,112604,1,8,0:0:0:0:
256,192,112860,1,0,0:0:0:0:
256,192,113245,1,0,0:0:0:0:
288,160,113373,1,8,0:0:0:0:
256,192,113629,1,0,0:0:0:0:
288,160,113886,1,8,0:0:0:0:
288,160,114142,1,8,0:0:0:0:
288,160,114270,1,8,0:0:0:0:
256,192,114399,1,0,0:0:0:0:
256,192,114655,1,0,0:0:0:0:
288,160,114911,1,8,0:0:0:0:
256,192,115168,1,0,0:0:0:0:
256,224,115937,1,4,0:0:0:0:
256,192,116194,1,0,0:0:0:0:
288,160,116450,1,8,0:0:0:0:
256,192,116706,1,0,0:0:0:0:
288,160,117219,1,8,0:0:0:0:
224,160,117476,1,12,0:0:0:0:
256,192,117860,1,0,0:0:0:0:
288,160,117988,1,8,0:0:0:0:
288,160,118245,1,8,0:0:0:0:
256,192,118501,1,0,0:0:0:0:
256,192,118629,1,0,0:0:0:0:
256,192,118758,1,0,0:0:0:0:
224,160,119014,1,12,0:0:0:0:
256,192,119399,1,0,0:0:0:0:
288,160,119527,1,8,0:0:0:0:
288,160,119783,1,8,0:0:0:0:
256,192,120040,1,0,0:0:0:0:
256,192,120168,1,0,0:0:0:0:
256,192,120296,1,0,0:0:0:0:
224,160,120553,1,12,0:0:0:0:
256,192,120937,1,0,0:0:0:0:
288,160,121065,1,8,0:0:0:0:
288,160,121322,1,8,0:0:0:0:
288,160,121578,1,8,0:0:0:0:
288,160,121835,1,8,0:0:0:0:
256,192,122091,1,0,0:0:0:0:
256,192,122476,1,0,0:0:0:0:
288,160,122604,1,8,0:0:0:0:
288,160,122860,1,8,0:0:0:0:
256,224,123117,1,0,0:0:0:0:
288,160,123373,1,8,0:0:0:0:
256,224,123629,1,4,0:0:0:0:
256,192,123886,1,0,0:0:0:0:
256,192,124014,1,0,0:0:0:0:
288,160,124142,1,8,0:0:0:0:
256,192,124399,1,0,0:0:0:0:
288,160,124655,1,8,0:0:0:0:
288,160,124911,1,8,0:0:0:0:
224,160,125168,1,12,0:0:0:0:
256,192,125424,1,0,0:0:0:0:
256,192,125553,1,0,0:0:0:0:
288,160,125681,1,8,0:0:0:0:
256,192,125937,1,0,0:0:0:0:
256,192,126065,1,0,0:0:0:0:
288,160,126194,1,8,0:0:0:0:
256,192,126450,1,0,0:0:0:0:
256,192,126578,1,0,0:0:0:0:
288,160,126706,1,8,0:0:0:0:
256,192,126835,1,0,0:0:0:0:
288,160,127219,1,8,0:0:0:0:
256,192,127476,1,0,0:0:0:0:
288,160,127732,1,8,0:0:0:0:
256,192,127988,1,0,0:0:0:0:
256,192,128245,1,0,0:0:0:0:
288,160,128373,1,8,0:0:0:0:
288,160,128758,1,8,0:0:0:0:
256,192,129014,1,0,0:0:0:0:
288,160,129270,1,8,0:0:0:0:
256,192,129527,1,0,0:0:0:0:
288,160,129783,1,8,0:0:0:0:
256,192,129911,1,0,0:0:0:0:
288,160,130296,1,8,0:0:0:0:
256,192,130553,1,0,0:0:0:0:
288,160,130809,1,8,0:0:0:0:
288,160,131065,1,8,0:0:0:0:
256,192,131322,1,0,0:0:0:0:
288,160,131450,1,8,0:0:0:0:
224,160,131835,1,12,0:0:0:0:
256,192,132091,1,0,0:0:0:0:
288,160,132347,1,8,0:0:0:0:
288,160,132604,1,8,0:0:0:0:
288,160,132860,1,8,0:0:0:0:
256,192,132988,1,0,0:0:0:0:
288,160,133373,1,8,0:0:0:0:
256,192,133629,1,0,0:0:0:0:
288,160,133886,1,8,0:0:0:0:
256,192,134142,1,0,0:0:0:0:
256,192,134399,1,0,0:0:0:0:
288,160,134527,1,8,0:0:0:0:
288,160,134911,1,8,0:0:0:0:
256,192,135168,1,0,0:0:0:0:
288,160,135424,1,8,0:0:0:0:
256,192,135681,1,0,0:0:0:0:
288,160,135937,1,8,0:0:0:0:
288,160,136065,1,8,0:0:0:0:
288,160,136450,1,8,0:0:0:0:
256,192,136706,1,0,0:0:0:0:
288,160,136963,1,8,0:0:0:0:
256,192,137219,1,0,0:0:0:0:
288,160,137476,1,8,0:0:0:0:
288,160,137604,1,8,0:0:0:0:
288,160,137988,1,8,0:0:0:0:
256,192,138245,1,0,0:0:0:0:
288,160,138501,1,8,0:0:0:0:
288,160,138629,1,8,0:0:0:0:
288,160,138758,1,8,0:0:0:0:
288,160,139014,1,8,0:0:0:0:
256,192,139142,1,0,0:0:0:0:
288,160,139527,1,8,0:0:0:0:
256,192,139783,1,0,0:0:0:0:
288,160,140040,1,8,0:0:0:0:
256,192,140296,1,0,0:0:0:0:
256,192,140553,1,0,0:0:0:0:
288,160,140681,1,8,0:0:0:0:
256,192,140937,1,0,0:0:0:0:
288,160,141065,1,8,0:0:0:0:
256,192,141322,1,0,0:0:0:0:
288,160,141578,1,8,0:0:0:0:
256,192,141835,1,0,0:0:0:0:
256,192,142091,1,0,0:0:0:0:
288,160,142219,1,8,0:0:0:0:
256,192,142476,1,0,0:0:0:0:
288,160,142604,1,8,0:0:0:0:
256,192,142860,1,0,0:0:0:0:
288,160,143117,1,8,0:0:0:0:
288,160,143373,1,8,0:0:0:0:
256,192,143629,1,0,0:0:0:0:
288,160,143758,1,8,0:0:0:0:
256,192,144014,1,0,0:0:0:0:
224,160,144142,1,8,0:0:0:0:
256,192,144399,1,0,0:0:0:0:
288,160,144655,1,8,0:0:0:0:
288,160,144911,1,8,0:0:0:0:
288,160,145168,1,8,0:0:0:0:
256,192,145296,1,0,0:0:0:0:
256,192,145553,1,0,0:0:0:0:
288,160,145681,1,8,0:0:0:0:
256,192,145937,1,0,0:0:0:0:
288,160,146194,1,8,0:0:0:0:
256,192,146450,1,0,0:0:0:0:
256,192,146706,1,0,0:0:0:0:
288,160,146835,1,8,0:0:0:0:
256,192,147091,1,0,0:0:0:0:
288,160,147219,1,8,0:0:0:0:
256,192,147476,1,0,0:0:0:0:
288,160,147732,1,8,0:0:0:0:
256,192,147988,1,0,0:0:0:0:
288,160,148245,1,8,0:0:0:0:
256,192,148373,1,0,0:0:0:0:
256,192,148629,1,0,0:0:0:0:
288,160,148758,1,8,0:0:0:0:
256,192,149014,1,0,0:0:0:0:
288,160,149270,1,8,0:0:0:0:
256,192,149527,1,0,0:0:0:0:
288,160,149783,1,8,0:0:0:0:
288,160,149911,1,8,0:0:0:0:
256,192,150168,1,0,0:0:0:0:
288,160,150296,1,8,0:0:0:0:
288,160,150553,1,8,0:0:0:0:
288,160,150681,1,8,0:0:0:0:
288,160,150809,1,8,0:0:0:0:
256,192,151065,1,0,0:0:0:0:
256,192,151194,5,0,0:0:0:0:
288,160,151322,1,8,0:0:0:0:
288,160,152091,1,8,0:0:0:0:
288,160,152219,1,8,0:0:0:0:
256,192,152347,1,0,0:0:0:0:
256,192,152604,1,0,0:0:0:0:
256,192,152732,1,0,0:0:0:0:
224,160,152860,1,12,0:0:0:0:
