osu file format v12

[General]
AudioFilename: retrospective kyoto.mp3
AudioLeadIn: 0
PreviewTime: -1
Countdown: 0
SampleSet: Normal
StackLeniency: 0.7
Mode: 1
LetterboxInBreaks: 0
WidescreenStoryboard: 0

[Editor]
Bookmarks: 40553,65168,89783,126706,151322
DistanceSpacing: 0.8
BeatDivisor: 4
GridSize: 32

[Metadata]
Title:Retrospective Kyoto
TitleUnicode:Retrospective Kyoto
Artist:C-CLAYS
ArtistUnicode:C-CLAYS
Creator:Mithost
Version:Kantan
Source:Touhou
Tags:
BeatmapID:269677
BeatmapSetID:101824

[Difficulty]
HPDrainRate:4
CircleSize:5
OverallDifficulty:4
ApproachRate:5
SliderMultiplier:1.2
SliderTickRate:1

[Events]
//Background and Video events
0,0,"kyotobg.jpg",0,0
//Break Periods
//Storyboard Layer 0 (Background)
//Storyboard Layer 1 (Fail)
//Storyboard Layer 2 (Pass)
//Storyboard Layer 3 (Foreground)
//Storyboard Sound Samples
//Background Colour Transformations
3,100,255,0,0

[TimingPoints]
553,512.820512820513,3,1,0,100,1,0
554,-133.333333333333,3,1,0,100,0,0
40553,-100,3,1,0,100,0,1
65168,-100,3,1,0,100,0,0
89783,-111.111111111111,3,1,0,100,0,0
126706,-100,3,1,0,100,0,1
151322,-111.111111111111,3,1,0,100,0,0

[Colours]
Combo1 : 255,255,255
Combo2 : 0,0,0

[HitObjects]
288,160,553,1,8,0:0:0:0:
288,160,2091,1,8,0:0:0:0:
256,192,3629,1,0,0:0:0:0:
288,160,6706,1,8,0:0:0:0:
288,160,8245,1,8,0:0:0:0:
256,192,9783,1,0,0:0:0:0:
288,160,12860,1,8,0:0:0:0:
288,160,14399,1,8,0:0:0:0:
256,192,15937,1,0,0:0:0:0:
288,160,19014,1,8,0:0:0:0:
288,160,20553,1,8,0:0:0:0:
256,192,22091,1,0,0:0:0:0:
256,192,25168,1,0,0:0:0:0:
288,160,26706,1,8,0:0:0:0:
288,160,28245,1,8,0:0:0:0:
288,160,31322,1,8,0:0:0:0:
224,160,34399,1,12,0:0:0:0:
288,160,35937,1,8,0:0:0:0:
288,160,40553,5,12,0:0:0:0:
288,160,41065,1,8,0:0:0:0:
256,192,42091,1,0,0:0:0:0:
288,160,42604,1,8,0:0:0:0:
256,192,43629,1,8,0:0:0:0:
288,160,44142,1,0,0:0:0:0:
288,160,45168,1,8,0:0:0:0:
288,160,45681,1,8,0:0:0:0:
256,192,46706,1,0,0:0:0:0:
288,160,47219,1,8,0:0:0:0:
288,160,48245,1,8,0:0:0:0:
288,160,48758,1,8,0:0:0:0:
256,192,49783,1,8,0:0:0:0:
288,160,50296,1,0,0:0:0:0:
288,160,51322,1,8,0:0:0:0:
224,160,51835,1,12,0:0:0:0:
224,160,52860,1,12,0:0:0:0:
288,160,53373,1,8,0:0:0:0:
288,160,54399,1,8,0:0:0:0:
288,160,54911,1,8,0:0:0:0:
256,192,55937,1,0,0:0:0:0:
288,160,56450,1,8,0:0:0:0:
288,160,57476,1,8,0:0:0:0:
224,160,57988,1,12,0:0:0:0:
256,192,59014,1,0,0:0:0:0:
288,160,59527,1,8,0:0:0:0:
288,160,60553,1,8,0:0:0:0:
288,160,61065,1,8,0:0:0:0:
256,192,62091,1,0,0:0:0:0:
288,160,62604,1,8,0:0:0:0:
288,160,63629,1,8,0:0:0:0:
224,160,64142,1,12,0:0:0:0:
288,160,64655,1,8,0:0:0:0:
256,224,65168,1,4,0:0:0:0:
256,192,66706,1,0,0:0:0:0:
288,160,68245,1,12,0:0:0:0:
256,192,69783,1,0,0:0:0:0:
224,160,71322,1,12,0:0:0:0:
256,192,72860,1,0,0:0:0:0:
288,160,73629,1,8,0:0:0:0:
288,160,74399,1,8,0:0:0:0:
224,160,75937,1,12,0:0:0:0:
288,160,77476,1,0,0:0:0:0:
288,160,79014,1,8,0:0:0:0:
288,160,79783,1,8,0:0:0:0:
288,160,80553,1,8,0:0:0:0:
224,160,82091,1,12,0:0:0:0:
288,160,83629,1,0,0:0:0:0:
288,160,85168,1,0,0:0:0:0:
288,160,85937,1,8,0:0:0:0:
288,160,86706,1,8,0:0:0:0:
288,160,88245,1,8,0:0:0:0:
256,192,89783,1,4,0:0:0:0:
256,192,90809,1,8,0:0:0:0:
256,192,91322,1,0,0:0:0:0:
256,192,92347,1,0,0:0:0:0:
224,160,92860,1,12,0:0:0:0:
256,192,93886,1,0,0:0:0:0:
256,192,94399,1,0,0:0:0:0:
256,192,95424,1,0,0:0:0:0:
288,160,95937,1,12,0:0:0:0:
256,192,96963,1,0,0:0:0:0:
256,192,97476,1,0,0:0:0:0:
256,192,98501,1,0,0:0:0:0:
224,160,99014,1,12,0:0:0:0:
256,192,100040,1,0,0:0:0:0:
256,192,100553,1,0,0:0:0:0:
256,192,101578,1,0,0:0:0:0:
224,160,102091,1,12,0:0:0:0:
256,192,103117,1,0,0:0:0:0:
256,192,103629,1,0,0:0:0:0:
256,192,104655,1,0,0:0:0:0:
224,160,105168,1,12,0:0:0:0:
256,192,106194,1,0,0:0:0:0:
256,192,106706,1,0,0:0:0:0:
256,192,107732,1,0,0:0:0:0:
224,160,108245,1,12,0:0:0:0:
256,192,109270,1,0,0:0:0:0:
256,192,109783,1,0,0:0:0:0:
256,192,110809,1,0,0:0:0:0:
224,160,111322,1,12,0:0:0:0:
256,192,112347,1,0,0:0:0:0:
256,192,112860,1,0,0:0:0:0:
256,192,113886,1,0,0:0:0:0:
224,160,114399,1,12,0:0:0:0:
288,160,115937,1,8,0:0:0:0:
256,192,117476,2,0,B|416:192|416:32|224:32,1,323.999990112305
256,192,120553,1,0,0:0:0:0:
288,160,121065,1,8,0:0:0:0:
288,160,121578,1,8,0:0:0:0:
256,192,122091,1,0,0:0:0:0:
288,160,122604,1,8,0:0:0:0:
288,160,123117,1,8,0:0:0:0:
256,192,123629,12,0,125168,0:0:0:0:
288,160,126706,5,12,0:0:0:0:
288,160,127218,1,8,0:0:0:0:
256,192,128244,1,0,0:0:0:0:
288,160,128757,1,8,0:0:0:0:
256,192,129782,1,8,0:0:0:0:
288,160,130295,1,0,0:0:0:0:
288,160,131321,1,8,0:0:0:0:
288,160,131834,1,8,0:0:0:0:
256,192,132859,1,0,0:0:0:0:
288,160,133372,1,8,0:0:0:0:
288,160,134398,1,8,0:0:0:0:
288,160,134911,1,8,0:0:0:0:
256,192,135936,1,8,0:0:0:0:
288,160,136449,1,0,0:0:0:0:
288,160,137475,1,8,0:0:0:0:
224,160,137988,1,12,0:0:0:0:
224,160,139013,1,12,0:0:0:0:
288,160,139526,1,8,0:0:0:0:
288,160,140552,1,8,0:0:0:0:
288,160,141064,1,8,0:0:0:0:
256,192,142090,1,0,0:0:0:0:
288,160,142603,1,8,0:0:0:0:
288,160,143629,1,8,0:0:0:0:
224,160,144141,1,12,0:0:0:0:
256,192,145167,1,0,0:0:0:0:
288,160,145680,1,8,0:0:0:0:
288,160,146706,1,8,0:0:0:0:
288,160,147218,1,8,0:0:0:0:
256,192,148244,1,0,0:0:0:0:
288,160,148757,1,8,0:0:0:0:
288,160,149782,1,8,0:0:0:0:
224,160,150295,1,12,0:0:0:0:
288,160,150808,1,8,0:0:0:0:
256,224,151321,1,4,0:0:0:0:
288,160,152347,1,8,0:0:0:0:
224,160,152860,1,12,0:0:0:0:
