osu file format v12

[General]
AudioFilename: retrospective kyoto.mp3
AudioLeadIn: 0
PreviewTime: -1
Countdown: 0
SampleSet: Normal
StackLeniency: 0.7
Mode: 1
LetterboxInBreaks: 1

[Editor]
Bookmarks: 40553,65168,89783,114399,126706,151322
DistanceSpacing: 0.8
BeatDivisor: 2
GridSize: 32

[Metadata]
Title:Retrospective Kyoto
TitleUnicode:Retrospective Kyoto
Artist:C-CLAYS
ArtistUnicode:C-CLAYS
Creator:Mithost
Version:Futsuu
Source:Touhou
Tags:
BeatmapID:269654
BeatmapSetID:101824

[Difficulty]
HPDrainRate:5
CircleSize:5
OverallDifficulty:4
ApproachRate:5
SliderMultiplier:1.5
SliderTickRate:1

[Events]
//Background and Video events
0,0,"kyotobg.jpg",0,0
//Break Periods
//Storyboard Layer 0 (Background)
//Storyboard Layer 1 (Fail)
//Storyboard Layer 2 (Pass)
//Storyboard Layer 3 (Foreground)
//Storyboard Sound Samples
//Background Colour Transformations
3,100,255,0,0

[TimingPoints]
553,512.820512820513,3,1,0,100,1,0
554,-133.333333333333,3,1,0,100,0,0
40553,-100,3,1,0,100,0,1
65168,-100,3,1,0,100,0,0
89783,-111.111111111111,3,1,0,100,0,0
126706,-100,3,1,0,100,0,1
151322,-111.111111111111,3,1,0,100,0,0

[Colours]
Combo1 : 255,255,255
Combo2 : 0,0,0

[HitObjects]
256,192,553,1,0,0:0:0:0:
288,160,2091,1,8,0:0:0:0:
256,192,3629,1,0,0:0:0:0:
256,192,6706,1,0,0:0:0:0:
288,160,8245,1,8,0:0:0:0:
256,224,9783,1,4,0:0:0:0:
256,192,12860,1,0,0:0:0:0:
288,160,14399,1,8,0:0:0:0:
256,192,15937,1,0,0:0:0:0:
256,192,19014,1,0,0:0:0:0:
224,160,20553,1,12,0:0:0:0:
256,224,22091,1,4,0:0:0:0:
256,224,25168,1,4,0:0:0:0:
288,160,26706,1,8,0:0:0:0:
224,160,28245,1,12,0:0:0:0:
288,160,29783,1,8,0:0:0:0:
256,192,30553,1,0,0:0:0:0:
256,224,31322,1,4,0:0:0:0:
224,160,34399,1,12,0:0:0:0:
288,160,35937,1,8,0:0:0:0:
256,224,40553,1,4,0:0:0:0:
288,160,41065,1,8,0:0:0:0:
288,160,41578,1,8,0:0:0:0:
256,224,42091,1,0,0:0:0:0:
288,160,42604,1,8,0:0:0:0:
288,160,43117,1,8,0:0:0:0:
256,224,43629,1,4,0:0:0:0:
288,160,44142,1,8,0:0:0:0:
256,192,44399,1,0,0:0:0:0:
288,160,44655,1,8,0:0:0:0:
256,192,45168,1,0,0:0:0:0:
288,160,45681,1,8,0:0:0:0:
256,192,45937,1,0,0:0:0:0:
288,160,46194,1,8,0:0:0:0:
256,224,46706,1,4,0:0:0:0:
288,160,47219,1,8,0:0:0:0:
288,160,47732,1,8,0:0:0:0:
256,192,48245,1,0,0:0:0:0:
288,160,48758,1,8,0:0:0:0:
256,192,49014,1,0,0:0:0:0:
288,160,49270,1,8,0:0:0:0:
256,192,49783,1,0,0:0:0:0:
288,160,50296,1,8,0:0:0:0:
288,160,50809,1,8,0:0:0:0:
256,192,51322,1,0,0:0:0:0:
288,160,51835,1,8,0:0:0:0:
256,192,52091,1,0,0:0:0:0:
288,160,52347,1,8,0:0:0:0:
256,224,52860,1,4,0:0:0:0:
288,160,53373,1,8,0:0:0:0:
288,160,53886,1,8,0:0:0:0:
288,160,54399,1,0,0:0:0:0:
288,160,54911,1,8,0:0:0:0:
288,160,55424,1,8,0:0:0:0:
256,224,55937,1,4,0:0:0:0:
288,160,56450,1,8,0:0:0:0:
256,192,56706,1,0,0:0:0:0:
288,160,56963,1,8,0:0:0:0:
256,192,57476,1,0,0:0:0:0:
224,160,57988,1,12,0:0:0:0:
288,160,58501,1,8,0:0:0:0:
256,224,59014,1,4,0:0:0:0:
288,160,59527,1,8,0:0:0:0:
256,192,59783,1,0,0:0:0:0:
288,160,60040,1,8,0:0:0:0:
256,192,60553,1,0,0:0:0:0:
288,160,61065,1,8,0:0:0:0:
288,160,61578,1,8,0:0:0:0:
256,224,62091,1,4,0:0:0:0:
288,160,62604,1,8,0:0:0:0:
256,192,62860,1,0,0:0:0:0:
288,160,63117,1,8,0:0:0:0:
288,160,63629,1,8,0:0:0:0:
288,160,64142,1,8,0:0:0:0:
256,192,64399,1,0,0:0:0:0:
288,160,64655,1,8,0:0:0:0:
256,224,65168,1,4,0:0:0:0:
288,160,65681,1,8,0:0:0:0:
256,192,65937,1,0,0:0:0:0:
256,192,66450,1,0,0:0:0:0:
288,160,66706,1,8,0:0:0:0:
256,192,67219,1,0,0:0:0:0:
288,160,67476,1,8,0:0:0:0:
256,192,67988,1,0,0:0:0:0:
288,160,68245,1,8,0:0:0:0:
256,192,68758,1,0,0:0:0:0:
288,160,69014,1,8,0:0:0:0:
288,160,69527,1,8,0:0:0:0:
256,192,69783,1,0,0:0:0:0:
288,160,70296,1,8,0:0:0:0:
288,160,70553,1,8,0:0:0:0:
288,160,71065,1,8,0:0:0:0:
256,192,71322,1,0,0:0:0:0:
288,160,71835,1,8,0:0:0:0:
256,192,72091,1,0,0:0:0:0:
256,192,72604,1,0,0:0:0:0:
288,160,72860,1,8,0:0:0:0:
256,192,73373,1,0,0:0:0:0:
288,160,73629,1,8,0:0:0:0:
256,192,74142,1,0,0:0:0:0:
288,160,74399,1,8,0:0:0:0:
256,192,74911,1,0,0:0:0:0:
288,160,75168,1,8,0:0:0:0:
288,160,75681,1,8,0:0:0:0:
256,192,75937,1,0,0:0:0:0:
288,160,76450,1,8,0:0:0:0:
288,160,76706,1,8,0:0:0:0:
288,160,77219,1,8,0:0:0:0:
256,192,77476,1,0,0:0:0:0:
288,160,77988,1,8,0:0:0:0:
256,192,78245,1,0,0:0:0:0:
256,192,78758,1,0,0:0:0:0:
288,160,79014,1,8,0:0:0:0:
256,192,79527,1,0,0:0:0:0:
288,160,79783,1,8,0:0:0:0:
256,192,80296,1,0,0:0:0:0:
288,160,80553,1,8,0:0:0:0:
256,192,81065,1,0,0:0:0:0:
288,160,81322,1,8,0:0:0:0:
288,160,81835,1,8,0:0:0:0:
256,192,82091,1,0,0:0:0:0:
288,160,82604,1,8,0:0:0:0:
288,160,82860,1,8,0:0:0:0:
288,160,83373,1,8,0:0:0:0:
256,192,83629,1,0,0:0:0:0:
288,160,84142,1,8,0:0:0:0:
256,192,84399,1,0,0:0:0:0:
256,192,84911,1,0,0:0:0:0:
288,160,85168,1,8,0:0:0:0:
256,192,85681,1,0,0:0:0:0:
288,160,85937,1,8,0:0:0:0:
256,192,86450,1,0,0:0:0:0:
288,160,86706,1,8,0:0:0:0:
256,192,87219,1,0,0:0:0:0:
288,160,87476,1,8,0:0:0:0:
288,160,87988,1,8,0:0:0:0:
256,192,88245,1,0,0:0:0:0:
288,160,88758,1,8,0:0:0:0:
288,160,89014,1,8,0:0:0:0:
288,160,89527,5,8,0:0:0:0:
256,192,89783,1,0,0:0:0:0:
288,160,90296,5,8,0:0:0:0:
256,192,90809,1,0,0:0:0:0:
288,160,91065,1,8,0:0:0:0:
256,192,91322,1,0,0:0:0:0:
288,160,91835,1,8,0:0:0:0:
256,192,92347,1,0,0:0:0:0:
288,160,92604,1,8,0:0:0:0:
288,160,92860,1,8,0:0:0:0:
288,160,93373,1,8,0:0:0:0:
256,192,93886,1,0,0:0:0:0:
288,160,94142,1,8,0:0:0:0:
256,192,94399,1,0,0:0:0:0:
288,160,94911,1,8,0:0:0:0:
288,160,95424,1,0,0:0:0:0:
288,160,95681,1,8,0:0:0:0:
256,224,95937,1,4,0:0:0:0:
288,160,96450,1,8,0:0:0:0:
256,192,96963,1,0,0:0:0:0:
256,192,97219,1,0,0:0:0:0:
256,192,97476,1,0,0:0:0:0:
288,160,97988,1,8,0:0:0:0:
256,192,98501,1,0,0:0:0:0:
288,160,98758,1,8,0:0:0:0:
288,160,99014,1,8,0:0:0:0:
288,160,99527,1,8,0:0:0:0:
256,192,100040,1,0,0:0:0:0:
288,160,100296,1,8,0:0:0:0:
256,192,100553,1,0,0:0:0:0:
288,160,101065,1,8,0:0:0:0:
256,192,101322,1,0,0:0:0:0:
288,160,101578,1,8,0:0:0:0:
256,192,102091,1,0,0:0:0:0:
288,160,102604,1,8,0:0:0:0:
256,192,103117,1,0,0:0:0:0:
288,160,103373,1,8,0:0:0:0:
256,192,103629,1,0,0:0:0:0:
288,160,104142,1,8,0:0:0:0:
256,192,104655,1,0,0:0:0:0:
288,160,104911,1,8,0:0:0:0:
288,160,105168,1,8,0:0:0:0:
288,160,105681,1,8,0:0:0:0:
256,192,106194,1,0,0:0:0:0:
288,160,106450,1,8,0:0:0:0:
256,192,106706,1,0,0:0:0:0:
288,160,107219,1,8,0:0:0:0:
288,160,107732,1,0,0:0:0:0:
288,160,107988,1,8,0:0:0:0:
256,224,108245,1,4,0:0:0:0:
288,160,108758,1,8,0:0:0:0:
256,192,109270,1,0,0:0:0:0:
256,192,109527,1,0,0:0:0:0:
256,192,109783,1,0,0:0:0:0:
288,160,110296,1,8,0:0:0:0:
256,192,110809,1,0,0:0:0:0:
288,160,111065,1,8,0:0:0:0:
288,160,111322,1,8,0:0:0:0:
288,160,111835,1,8,0:0:0:0:
256,192,112347,1,0,0:0:0:0:
288,160,112604,1,8,0:0:0:0:
256,192,112860,1,0,0:0:0:0:
288,160,113373,1,8,0:0:0:0:
256,192,113629,1,0,0:0:0:0:
288,160,113886,1,8,0:0:0:0:
256,224,114399,1,4,0:0:0:0:
288,160,114911,1,8,0:0:0:0:
256,192,115937,1,0,0:0:0:0:
288,160,116450,1,8,0:0:0:0:
256,192,117476,1,0,0:0:0:0:
288,160,117988,1,8,0:0:0:0:
256,192,118501,1,0,0:0:0:0:
256,192,119014,1,0,0:0:0:0:
288,160,119527,1,8,0:0:0:0:
256,192,119783,1,0,0:0:0:0:
288,160,120040,1,8,0:0:0:0:
256,224,120553,1,4,0:0:0:0:
288,160,121065,1,8,0:0:0:0:
288,160,121322,1,8,0:0:0:0:
256,192,121578,1,0,0:0:0:0:
256,224,122091,1,4,0:0:0:0:
288,160,122604,1,8,0:0:0:0:
288,160,122860,1,8,0:0:0:0:
256,192,123117,1,0,0:0:0:0:
32,320,123629,2,0,L|320:320,1,269.999991760254
256,192,125168,12,0,126194,0:0:0:0:
256,224,126706,5,4,0:0:0:0:
288,160,127219,1,8,0:0:0:0:
288,160,127732,1,8,0:0:0:0:
256,224,128245,1,0,0:0:0:0:
288,160,128758,1,8,0:0:0:0:
288,160,129270,1,8,0:0:0:0:
256,224,129783,1,4,0:0:0:0:
288,160,130296,1,8,0:0:0:0:
256,192,130553,1,0,0:0:0:0:
288,160,130809,1,8,0:0:0:0:
256,192,131322,1,0,0:0:0:0:
288,160,131835,1,8,0:0:0:0:
256,192,132091,1,0,0:0:0:0:
288,160,132347,1,8,0:0:0:0:
256,224,132860,1,4,0:0:0:0:
288,160,133373,1,8,0:0:0:0:
288,160,133886,1,8,0:0:0:0:
256,192,134399,1,0,0:0:0:0:
288,160,134911,1,8,0:0:0:0:
256,192,135168,1,0,0:0:0:0:
288,160,135424,1,8,0:0:0:0:
256,192,135937,1,0,0:0:0:0:
288,160,136450,1,8,0:0:0:0:
288,160,136963,1,8,0:0:0:0:
256,192,137476,1,0,0:0:0:0:
288,160,137988,1,8,0:0:0:0:
256,192,138245,1,0,0:0:0:0:
288,160,138501,1,8,0:0:0:0:
256,224,139014,1,4,0:0:0:0:
288,160,139527,1,8,0:0:0:0:
288,160,140040,1,8,0:0:0:0:
288,160,140553,1,0,0:0:0:0:
288,160,141065,1,8,0:0:0:0:
288,160,141578,1,8,0:0:0:0:
256,224,142091,1,4,0:0:0:0:
288,160,142604,1,8,0:0:0:0:
256,192,142860,1,0,0:0:0:0:
288,160,143117,1,8,0:0:0:0:
256,192,143629,1,0,0:0:0:0:
224,160,144142,1,12,0:0:0:0:
288,160,144655,1,8,0:0:0:0:
256,224,145168,1,4,0:0:0:0:
288,160,145681,1,8,0:0:0:0:
256,192,145937,1,0,0:0:0:0:
288,160,146194,1,8,0:0:0:0:
256,192,146706,1,0,0:0:0:0:
288,160,147219,1,8,0:0:0:0:
288,160,147732,1,8,0:0:0:0:
256,224,148245,1,4,0:0:0:0:
288,160,148758,1,8,0:0:0:0:
256,192,149014,1,0,0:0:0:0:
288,160,149270,1,8,0:0:0:0:
288,160,149783,1,8,0:0:0:0:
288,160,150296,1,8,0:0:0:0:
256,192,150553,1,0,0:0:0:0:
288,160,150809,1,8,0:0:0:0:
256,224,151322,1,4,0:0:0:0:
256,192,152347,5,0,0:0:0:0:
224,160,152860,1,12,0:0:0:0:
