osu file format v6

[General]
AudioFilename: C-Bool - House Baby (Mr Bronkz Remix).mp3
AudioLeadIn: 0
PreviewTime: -1
Countdown: 1
SampleSet: None
StackLeniency: 0.7
Mode: 0
LetterboxInBreaks: 1

[Editor]
Bookmarks: 56003,65299,110404,137658
DistanceSpacing: 0.800000011920929
BeatDivisor: 6
GridSize: 8

[Metadata]
Title:House Baby (Mr Bronkz Remix)
Artist:C-Bool
Creator:Nightfall91
Version:Hard
Source:
Tags:

[Difficulty]
HPDrainRate:5
CircleSize:5
OverallDifficulty:5
SliderMultiplier:1.4
SliderTickRate:1

[Events]
//Background and Video events
0,0,"Light.jpg"
//Break Periods
2,124864,137408
//Storyboard Layer 0 (Background)
//Storyboard Layer 1 (Fail)
//Storyboard Layer 2 (Pass)
//Storyboard Layer 3 (Foreground)
//Storyboard Sound Samples
//Background Colour Transformations
3,100,163,162,255

[TimingPoints]
55792,422.535211267606,4,0,0,100,1,0

[HitObjects]
96,144,57482,5,2
304,56,58327,1,2
312,136,58644,1,2
288,216,58961,1,2
248,255,59172,1,4
384,168,60862,5,2
160,184,61707,1,2
160,268,62024,1,2
219,208,62341,1,2
258,248,62552,1,4
256,56,64242,5,2
47,137,65087,1,2
78,215,65404,1,2
137,155,65721,1,2
177,195,65932,1,4
424,104,67622,5,2
93,167,68890,2,4,B|141:151,1,35,2|4
180,173,69207,2,4,B|212:157,1,35
290,78,69735,1,2
251,118,69946,1,4
360,176,70369,5,2
252,206,70792,1,2
306,221,71003,1,4
278,270,71214,1,2
334,270,71425,1,4
373,230,71637,1,4
384,80,71848,5,2
289,20,72270,1,4
326,126,72693,1,2
232,65,73115,1,4
152,72,73327,6,4,B|224:136,1,70,0|4
243,158,73749,2,4,B|179:238,1,70,0|4
120,291,74383,1,2
41,212,74806,1,4
153,212,75228,1,2
74,133,75651,1,4
328,232,76073,6,4,B|240:184|232:104,1,140,0|4
333,73,76918,1,4
441,102,77341,2,4,B|433:190|353:246,1,140,0|4
322,320,78186,2,0,B|279:279,1,35,0|2
238,237,78608,2,4,B|166:245|70:213,3,140,0|4|0|4
104,128,80087,6,4,B|160:88|264:72,1,140,0|4
288,66,80721,1,2
342,80,80932,1,4
303,119,81144,1,2
406,162,81566,1,4
296,184,81989,1,2
400,226,82411,1,4
312,312,82834,6,4,B|184:208,1,140
265,130,83679,1,4
172,193,84101,1,4
112,99,84524,5,4
172,193,84946,1,2
196,142,85158,1,2
117,221,85580,1,4
167,121,86003,1,4
248,128,86214,5,4
229,180,86425,1,4
278,153,86637,1,4
266,208,86848,1,4
319,191,87059,2,4,B|364:145|439:71,1,140,0|4
497,171,87904,6,4,B|361:235,1,140,0|4
387,284,88538,1,2
275,284,88961,2,4,B|211:220,1,70,0|4
163,141,89594,1,4
243,62,90017,1,4
140,108,90439,1,4
253,108,90862,1,4
296,128,91284,6,4,B|464:80,1,140,0|4
413,143,91918,1,2
334,222,92341,1,2
228,186,92763,2,4,B|188:178|156:138,1,70,4|4
156,97,93186,1,2
210,84,93397,2,4,B|242:92|274:124,1,70,4|4
320,96,93820,1,2
294,205,94242,1,4
392,151,94665,1,2
355,95,95087,1,4
288,56,95299,6,4,B|256:120|168:160,1,140
187,94,95932,1,4
296,122,96355,1,2
241,220,96777,1,4
162,140,97200,2,4,B|114:276,1,140,0|4
223,305,98045,2,4,B|271:169,1,140,0|4
252,227,98679,2,4,B|100:171,1,140,0|4
288,128,99524,5,4
327,88,99735,1,4
327,144,99946,1,4
367,104,100158,1,4
367,160,100369,1,4
423,160,100580,1,4
485,67,101003,1,4
448,172,101425,1,4
398,273,101848,1,4
344,176,102059,6,4,B|184:144,1,140,0|4
227,96,102693,1,4
332,57,103115,2,4,B|212:185,1,140,0|4
349,159,103961,2,4,B|213:223|213:223|189:223,1,140,0|4
104,312,104806,5,2
126,202,105228,2,4,B|198:258,1,70,0|4
181,357,105862,2,4,B|317:285,1,140,0|4
328,232,106496,1,6
288,192,106707,1,6
328,231,106918,1,6
288,192,107130,1,4
337,166,107341,2,4,B|193:166,1,140,0|4
85,166,108186,6,4,B|229:166,1,140,0|4
265,127,108820,1,4
359,65,109242,1,2
398,105,109453,1,4
420,215,109876,1,2
322,269,110299,1,4
221,316,110721,2,4,B|253:204|317:268|349:284,1,140,0|4
392,344,111566,5,4
287,302,111989,1,2
327,263,112200,1,2
225,217,112622,1,4
325,166,113045,1,4
285,126,113256,1,4
325,87,113468,1,4
285,47,113679,1,4
325,8,113890,1,4
240,40,114101,5,2
160,119,114524,1,4
268,147,114946,2,4,B|140:235|140:235|140:227,1,140,0|4
193,266,115580,1,4
305,266,116003,1,2
265,306,116214,1,4
168,336,116637,5,2
247,256,117059,1,4
139,224,117482,2,4,B|235:328,1,140,0|4
234,215,118327,2,4,B|114:343,1,140,0|4
193,330,118961,1,4
289,273,119383,1,2
391,320,119806,1,4
480,256,120017,6,4,B|432:200,1,70,0|4
473,163,120439,2,4,B|409:219,1,70,0|4
368,189,120862,1,4
340,297,121284,1,2
320,186,121707,1,4
224,240,122130,5,4
170,224,122341,2,4,B|282:128,1,140,0|4
236,93,122975,2,4,B|124:197,1,140,0|4
91,85,123820,1,2
135,189,124242,2,4,B|255:77,1,140
176,208,138608,6,4,B|240:160,1,70,2|4
311,245,139242,2,0,B|247:293|247:293,2,70,4|0|4
328,144,140299,5,2
446,262,140932,2,4,B|366:294,2,70
402,100,141989,1,2
353,127,142200,1,4
176,168,142622,5,2
215,128,142834,1,2
255,167,143045,1,4
136,286,143679,2,4,B|272:278|352:222,1,210
376,192,144524,1,2
376,136,144735,1,4
216,128,145369,5,4
295,48,145792,1,4
295,132,146108,1,2
351,132,146320,1,2
391,172,146531,1,2
351,211,146742,2,4,B|311:235,1,35
184,128,147270,6,4,B|264:112,1,70
304,91,147693,1,2
358,79,147904,1,2
375,132,148115,2,4,B|295:188,2,70
423,103,148749,1,2
456,224,149172,5,2
417,298,149489,2,4,B|345:226,1,70
328,209,149911,1,2
288,169,150122,2,4,B|232:185,1,35
160,240,150651,2,4,B|112:168,1,70
121,126,151073,1,2
176,114,151284,2,4,B|232:98,1,35
368,112,151707,5,2
317,135,151918,1,2
269,164,152130,1,2
190,243,152552,1,2
249,303,152869,2,4,B|313:247,1,70
384,176,153292,6,4,B|328:224,1,70
303,221,153608,1,4
368,115,154031,2,4,B|304:171,2,70
408,76,154665,1,4
352,76,154876,1,2
313,115,155087,1,2
273,155,155299,1,4
312,208,155510,5,4
417,169,155932,2,0,B|385:241,1,70,0|4
309,313,156566,1,2
208,264,156989,2,0,B|144:200,1,70,0|4
143,161,157411,1,2
143,105,157622,2,4,B|183:41,1,70
320,48,158045,5,4
259,142,158468,1,4
367,115,158890,1,2
313,214,159313,1,4
248,256,159524,6,4,B|184:224,3,70
106,145,160580,1,2
208,99,161003,1,4
317,74,161425,1,2
208,100,161848,1,4
360,208,162482,5,2
469,230,162904,1,2
455,284,163115,2,0,B|303:244,1,140,0|4
355,142,163961,1,2
257,196,164383,1,2
276,143,164594,2,0,B|124:159,1,140,0|4
154,104,165228,1,4
248,56,165651,5,2
357,78,166073,2,0,B|269:110,1,70,0|4
281,157,166496,2,0,B|417:109,1,140,0|4
455,215,167341,2,4,B|375:247,2,70
455,327,168186,1,2
401,315,168397,1,4
448,168,169031,6,4,B|288:112,1,140,0|4
301,67,169665,1,2
222,146,170087,1,2
323,196,170510,1,4
362,157,170721,1,4
362,212,170932,1,4
402,173,171144,1,4
402,229,171355,1,4
464,328,171566,6,4,B|304:296,1,140,0|4
217,326,172411,2,4,B|249:182,1,140,0|4
208,149,173045,1,2
152,52,173468,2,4,B|96:116,1,70,0|4
288,48,174101,5,2
208,127,174524,1,2
320,127,174946,2,4,B|208:215,1,140,0|4
372,167,176003,1,2
310,260,176425,1,2
257,242,176637,2,4,B|121:290,1,140,0|4
72,176,177482,5,2
72,64,177904,1,2
119,93,178115,2,4,B|207:205,1,140,0|4
262,203,178749,1,4
376,224,179172,5,2
339,329,179594,2,4,B|267:345,1,70,0|4
231,305,180017,1,2
152,226,180439,1,2
216,70,181073,2,4,B|264:150,1,70,4|4
348,72,181707,2,4,B|292:160,1,70,4|4
136,80,182552,5,2
359,80,183397,1,2
257,278,184242,1,4
111,194,184876,1,4
169,98,185299,2,4,B|257:74,1,70,0|4
376,80,185932,5,2
351,189,186355,1,2
233,70,186989,1,2
193,110,187200,1,2
153,149,187411,1,2
204,174,187622,2,4,B|262:115,1,70,0|4
292,84,188045,1,4
352,216,188468,6,4,B|424:72,1,140,0|4
302,90,189313,1,2
192,112,189735,1,2
244,85,189946,1,2
284,124,190158,2,4,B|348:164,1,70,0|4
72,184,190792,5,2
134,91,191214,1,2
414,91,192270,2,4,B|374:155,1,70,0|4
337,111,192693,1,2
308,158,192904,1,2
331,268,193327,1,2
277,283,193538,2,4,B|237:203|197:163,1,140,0|4
352,104,194383,5,2
242,80,194806,1,2
189,98,195017,1,2
110,177,195439,2,4,B|78:201|70:249,1,70,0|4
185,235,196073,2,4,B|217:179|297:147,1,140,0|4
345,130,196707,1,2
357,185,196918,2,4,B|277:225|245:297,1,140,0|4
88,280,197763,5,2
77,224,197975,2,4,B|61:184|101:144|101:144,1,70,0|4
135,56,198608,2,4,B|167:32|215:56,1,70,0|4
362,97,199453,2,4,B|258:121|250:201,1,140,0|4
241,232,200087,1,2
344,276,200510,2,4,B|368:196|456:172,1,140
488,96,201144,5,2
440,66,201355,1,2
488,96,201566,1,2
448,135,201777,1,2
392,135,201989,2,4,B|384:79|280:111|360:167|400:135,1,140
508,138,202834,2,4,B|516:82|620:114|540:170|500:138,1,140,4|4
455,168,203468,2,4,B|495:232,1,70
452,267,203890,2,4,B|412:331,1,70
328,272,204524,6,4,B|312:208|232:192|216:232,1,140
120,172,205369,2,4,B|136:108|216:92|232:132,1,140
333,85,206214,2,0,B|373:101|413:77,1,70,0|4
305,142,206848,1,2
335,190,207059,2,4,B|199:254,1,140,0|4
96,168,207904,5,4
196,118,208327,1,2
224,166,208538,2,4,B|304:110,3,70
378,69,209594,1,2
418,173,210017,2,4,B|322:205,1,70,0|4
320,241,210439,1,2
228,177,210862,1,4
384,128,211284,6,4,B|280:144,2,70
493,102,212130,1,2
453,62,212341,1,4
272,40,212975,5,2
165,74,213397,1,2
196,121,213608,1,2
305,146,214031,1,2
398,84,214453,1,2
429,130,214665,2,4,B|381:186,3,70
296,216,215510,5,2
200,274,215932,1,2
94,309,216355,2,4,B|38:245|70:157,1,140,0|4
103,138,216989,1,2
196,77,217411,2,4,B|244:109|284:61,1,70,0|4
372,59,218045,2,4,B|380:139|276:187,1,140,0|4
192,172,218890,2,4,B|184:268|280:284,1,140
392,98,219735,5,2
283,68,220158,2,4,B|245:82|217:138,1,70,0|4
337,150,220792,2,4,B|321:218|197:228,1,140,0|4
189,185,221425,2,4,B|158:160|99:209,3,70
