osu file format v5

[General]
AudioFilename: 66-byz - hey daer (flip side).mp3
AudioLeadIn: 0
PreviewTime: -1
Countdown: 3
SampleSet: Normal
StackLeniency: 0.7
Mode: 0
LetterboxInBreaks: 1

[Metadata]
Title:Hey There (Flip Side)
Artist:Byz
Creator:Shinyoka
Version:Crazy!
Source:
Tags:

[Difficulty]
HPDrainRate:6
CircleSize:6
OverallDifficulty:6
SliderMultiplier:1.4
SliderTickRate:2

[Events]
//Background and Video events
//Break Periods
2,20890,29334
2,45593,51848
2,90777,97267
2,126503,134712
2,181068,195374
//Storyboard Layer 0 (Background)
//Storyboard Layer 1 (Failing)
//Storyboard Layer 2 (Passing)
//Storyboard Layer 3 (Foreground)
//Storyboard Sound Samples
//Background Colour Transformations
3,100,0,0,0

[TimingPoints]
15298,469.040944881891,4,1,0,100,1

[HitObjects]
0,32,15297,2,8,B|160:32,1,140
192,32,16156,6,4,B|276:32|232:122|192:160,1,163.333333333333
160,224,16938,6,0,B|199:275|271:251|384:288,1,233.333333333333
448,288,18111,6,0,B|480:224|451:179|384:192,1,140
352,192,18814,6,0,B|320:160|356:124,1,70
416,128,19362,6,8,B|480:128|465:64|299:74,1,186.666666666667
256,64,20221,6,8,B|177:62,2,70
32,192,30384,5,2
128,192,30775,2,2,B|160:160|197:129|262:202,1,140
352,192,31478,5,0
416,192,31713,2,0,B|424:241,1,46.6666666666667
448,288,32104,6,0,B|368:303|323:265,1,116.666666666667
288,256,32729,6,0,B|241:216,2,46.6666666666667
256,288,33355,6,0,B|174:302,2,70
224,224,34136,1,8
160,288,34527,2,8,B|16:288|60:218|156:153,1,233.333333333333
96,128,35543,6,0,B|57:83,2,46.6666666666667
160,128,36169,1,0
224,128,36403,2,0,B|224:64|301:50,1,116.666666666667
384,64,37185,2,0,B|442:81|411:129,2,70
352,96,37889,6,0,B|288:142|208:132,1,140
256,64,38827,6,0,B|192:110|192:96,3,70
224,160,39765,1,0
288,160,39999,2,8,B|448:160,1,140
416,224,40703,1,0
352,224,40937,2,8,B|194:224,1,140
192,256,41641,5,0
96,224,42110,2,8,B|160:128|260:123|320:256,1,280
352,320,43283,1,0
256,192,43517,12,0,45393
32,32,52898,5,8
96,32,53367,1,4
160,32,53836,1,8
224,32,54305,1,4
288,32,54774,1,8
352,32,55243,1,4
416,32,55712,1,8
480,32,56181,1,4
480,96,56650,5,4
416,96,57119,1,8
352,96,57588,1,4
288,96,58057,1,8
224,96,58526,1,4
160,96,58995,1,8
96,96,59464,1,4
32,96,59933,1,8
32,160,60481,6,0,B|32:320,1,140
96,288,61184,2,0,B|160:352|326:301,1,233.333333333333
352,224,62357,6,0,B|352:143,1,70
352,96,62748,6,0,B|352:32|180:42|102:126,1,280
160,192,64468,6,0,B|320:192|320:64,4,210
96,224,67516,1,0
160,288,67751,1,0
224,288,67985,6,0,B|288:320|274:203|245:181,1,140
256,128,68689,6,0,B|170:128,1,70
110,128,69158,1,0
32,128,69393,2,0,B|32:209,1,70
32,288,69862,1,0
96,288,70096,2,0,B|172:288,1,70
224,288,70565,1,0
224,224,70800,2,0,B|223:146,1,70
224,96,71269,1,0
256,192,72441,12,0,75412
224,128,75959,6,0,B|256:96|293:65|358:138,1,140
352,192,76662,5,0
416,192,76897,2,0,B|424:241,1,46.6666666666667
448,288,77288,6,0,B|368:303|323:265,1,116.666666666667
288,256,77913,6,0,B|241:216,2,46.6666666666667
256,288,78539,6,0,B|174:302,2,70
224,224,79320,1,0
160,288,79711,2,0,B|16:288|60:218|156:153,1,233.333333333333
96,128,80727,6,0,B|57:83,2,46.6666666666667
160,128,81353,1,0
224,128,81587,2,0,B|224:64|301:50,1,116.666666666667
384,64,82369,2,0,B|442:81|411:129,2,70
352,96,83073,6,0,B|288:142|208:132,1,140
256,64,84011,6,0,B|192:110|192:96,3,70
224,160,84949,1,0
288,160,85183,2,0,B|448:160,1,140
416,224,85887,1,0
352,224,86121,2,0,B|194:224,1,140
192,256,86825,5,0
96,224,87294,2,0,B|160:128|260:123|320:256,1,280
352,320,88467,1,0
256,192,88701,12,0,90577
256,192,98317,12,0,100037
256,192,100115,12,0,101835
256,192,102069,12,0,103711
256,192,103867,12,0,105587
256,192,105821,12,0,107463
256,192,107698,12,0,109418
256,192,109652,12,0,111294
256,192,111450,12,0,113170
256,192,113404,12,0,115046
256,192,115202,12,0,116922
256,192,117157,12,0,118799
256,192,118955,12,0,120675
256,192,120909,12,0,122551
256,192,122707,12,0,124427
256,192,124661,12,0,126303
160,32,135762,6,0,B|247:33,1,70
320,32,136231,2,0,B|310:95|273:89,1,70
224,96,136700,1,0
160,96,136934,6,0,B|128:160|160:160,1,70
224,192,137403,1,0
320,192,137638,1,0
384,192,137873,6,0,B|384:275,1,70
384,320,138342,1,0
320,320,138576,6,0,B|237:320,1,70
192,320,139045,6,0,B|128:320,1,46.6666666666667
64,288,139749,6,0,B|132:241,1,70
177,248,140218,1,0
256,256,140452,2,0,B|341:255,1,70
384,256,140921,1,0
480,256,141156,2,0,B|482:177,1,70
480,128,141625,1,0
480,32,141859,2,0,B|398:30,1,70
352,32,142328,1,0
288,32,142563,1,0
224,32,142719,1,0
160,32,142954,1,0
224,96,143501,6,0,B|288:160|259:228,1,140
192,224,144205,2,0,B|192:288|288:320,1,140
384,320,144908,2,0,B|480:224|418:197,1,140
384,192,145612,2,0,B|306:219|234:181,1,140
224,128,146315,1,0
256,64,146550,1,0
352,64,146784,1,0
384,128,147019,1,0
384,192,147253,6,0,B|324:249|238:235|-32:160|243:81|356:64|278:369|256:352,1,490
192,352,149130,6,0,B|112:315|423:229,1,280
480,192,150302,1,0
480,128,150537,1,0
416,96,150771,1,0
352,64,151084,6,0,B|289:28|130:46|88:79,1,256.666666666667
96,128,152178,1,0
96,192,152413,2,0,B|159:228|318:210|384:160,1,280
448,128,153585,1,0
448,224,153820,1,0
416,288,154054,2,0,B|286:306|167:260,1,233.333333333333
128,256,155071,5,0
160,192,155305,1,0
224,192,155462,1,0
288,192,155696,6,0,B|288:43,1,140
352,64,156400,1,0
416,64,156634,2,0,B|448:128|404:215,1,140
384,256,157416,1,0
320,288,157650,1,0
256,288,157885,2,0,B|224:224|308:179|307:101,1,186.666666666667
320,64,158823,5,0
256,64,159058,1,0
224,128,159214,1,0
224,192,159527,1,0
160,224,159761,5,0
96,224,159917,1,0
32,224,160230,1,0
32,288,160465,1,0
96,320,160699,5,0
160,320,160934,1,0
224,320,161168,1,0
256,256,161403,5,0
288,192,161637,1,0
320,128,161872,1,0
256,192,162810,12,0,165859
224,128,166250,6,0,B|256:96|293:65|358:138,1,140
352,192,166953,5,0
416,192,167188,2,0,B|424:241,1,46.6666666666667
448,288,167579,6,0,B|368:303|323:265,1,116.666666666667
288,256,168204,6,0,B|241:216,2,46.6666666666667
256,288,168830,6,0,B|174:302,2,70
224,224,169611,1,0
160,288,170002,2,0,B|16:288|60:218|156:153,1,233.333333333333
96,128,171018,6,0,B|57:83,2,46.6666666666667
160,128,171644,1,0
224,128,171878,2,0,B|224:64|301:50,1,116.666666666667
384,64,172660,2,0,B|442:81|411:129,2,70
352,96,173364,6,0,B|288:142|208:132,1,140
256,64,174302,6,0,B|192:110|192:96,3,70
224,160,175240,1,0
288,160,175474,2,0,B|448:160,1,140
416,224,176178,1,0
352,224,176412,2,0,B|194:224,1,140
192,256,177116,5,0
96,224,177585,2,0,B|160:128|260:123|320:256,1,280
352,320,178758,1,0
256,192,178992,12,0,180868
224,128,196424,6,0,B|256:96|293:65|358:138,1,140
352,192,197127,5,0
416,192,197362,2,0,B|424:241,1,46.6666666666667
448,288,197753,6,0,B|368:303|323:265,1,116.666666666667
288,256,198378,6,0,B|241:216,2,46.6666666666667
256,288,199004,6,0,B|174:302,2,70
224,224,199785,1,0
160,288,200176,2,0,B|16:288|60:218|156:153,1,233.333333333333
96,128,201192,6,0,B|57:83,2,46.6666666666667
160,128,201818,1,0
224,128,202052,2,0,B|224:64|301:50,1,116.666666666667
384,64,202834,2,0,B|442:81|411:129,2,70
352,96,203538,6,0,B|288:142|208:132,1,140
256,64,204476,6,0,B|192:110|192:96,3,70
224,160,205414,1,0
288,160,205648,2,0,B|448:160,1,140
416,224,206352,1,0
352,224,206586,2,0,B|194:224,1,140
192,256,207290,5,0
96,224,207759,2,0,B|160:128|260:123|320:256,1,280
256,192,209166,12,0,211042
