osu file format v9

[General]
AudioFilename: Full House OST - 04.mp3
AudioLeadIn: 0
PreviewTime: 47034
Countdown: 0
SampleSet: Soft
StackLeniency: 0.7
Mode: 0
LetterboxInBreaks: 1

[Editor]
DistanceSpacing: 1.6
BeatDivisor: 6
GridSize: 8

[Metadata]
Title:I Think I
Artist:Byul
Creator:Lissette
Version:Walking
Source:Full House
Tags:k-pop korean drama

[Difficulty]
HPDrainRate:5
CircleSize:3
OverallDifficulty:5
ApproachRate:5
SliderMultiplier:1.6
SliderTickRate:1

[Events]
//Background and Video events
0,0,"0012.jpg"
//Break Periods
2,80572,87172
//Storyboard Layer 0 (Background)
//Storyboard Layer 1 (Fail)
//Storyboard Layer 2 (Pass)
//Storyboard Layer 3 (Foreground)
//Storyboard Sound Samples
//Background Colour Transformations
3,100,163,162,255

[TimingPoints]
372,1000,4,2,1,20,1,0
21195,-100,4,2,1,0,0,0
21868,-200,4,2,1,20,0,0
23195,-200,4,2,1,0,0,0
23868,-100,4,2,1,20,0,0
29195,-100,4,2,1,0,0,0
29868,-200,4,2,1,20,0,0
31195,-200,4,2,1,0,0,0
31867,-100,4,2,1,20,0,0
36862,-100,4,2,1,0,0,0
37201,-100,4,2,1,20,0,0
37862,-100,4,2,1,0,0,0
38201,-100,4,2,1,20,0,0
38862,-100,4,2,1,0,0,0
39201,-100,4,2,1,30,0,0
40201,-100,4,2,1,20,0,0
45195,-100,4,2,1,10,0,0
45528,-100,4,2,1,20,0,0
47195,-200,4,2,1,30,0,1
48034,-100,4,2,1,0,0,1
48201,-100,4,2,1,30,0,1
55201,-100,4,2,0,40,0,1
55534,-100,4,2,1,30,0,1
63201,-200,4,2,1,30,0,0
63362,-200,4,2,1,30,0,1
64201,-100,4,2,1,30,0,1
71201,-100,4,2,0,40,0,1
71534,-100,4,2,1,30,0,1
79195,-200,4,2,0,40,0,1
79528,-200,4,2,1,30,0,1
87368,-100,4,2,1,20,0,0
95362,-100,4,2,0,35,0,0
95534,-100,4,2,1,20,0,0
103201,-100,4,2,0,35,0,0
103534,-100,4,2,1,20,0,0
111201,-100,4,2,0,35,0,0
111534,-100,4,2,1,20,0,0
116868,-100,4,2,1,23,0,0
117868,-100,4,2,1,27,0,0
119195,-200,4,2,1,30,0,0
119362,-200,4,2,1,30,0,1
120034,-100,4,2,1,30,0,1
127201,-100,4,2,0,40,0,1
127534,-100,4,2,1,30,0,1
135201,-200,4,2,1,30,0,0
135362,-200,4,2,1,30,0,1
136195,-100,4,2,1,30,0,1
143201,-100,4,2,0,30,0,1
143534,-100,4,2,1,30,0,1
151195,-200,4,2,1,30,0,1
151872,-200,4,2,1,30,0,0
153872,-100,4,2,1,30,0,0
159205,-100,4,2,0,35,0,0
159538,-100,4,2,1,30,0,0
167205,-100,4,2,0,35,0,0
167538,-100,4,2,1,30,0,0
175205,-100,4,2,0,35,0,0
175538,-100,4,2,1,30,0,0
176205,-100,4,2,0,45,0,0
176538,-100,4,2,1,30,0,0
178205,-100,4,2,0,45,0,0
178538,-100,4,2,1,30,0,0
183205,-100,4,2,0,45,0,0
183538,-100,4,2,1,30,0,0
185205,-200,4,2,1,30,0,0
185372,-200,4,2,1,30,0,1
186205,-100,4,2,1,30,0,1
193205,-100,4,2,0,40,0,1
193538,-100,4,2,1,30,0,1
199205,-100,4,2,0,40,0,1
199538,-100,4,2,1,30,0,1
201205,-200,4,2,1,30,0,0
201372,-200,4,2,1,30,0,1
202205,-100,4,2,1,30,0,1
207205,-100,4,2,0,40,0,1
207538,-100,4,2,1,30,0,1
215205,-100,4,2,0,40,0,1
215538,-100,4,2,1,30,0,1
218372,-100,4,2,1,0,0,0

[Colours]
Combo1 : 121,188,255
Combo2 : 255,255,174

[HitObjects]
296,112,16371,6,0,B|384:80|472:120,1,160,2|0
288,304,18371,2,0,B|200:336|120:304,1,160,2|0
48,304,19705,1,0
32,216,20038,1,0
88,152,20372,2,0,B|88:48|200:48,1,160,2|0
184,48,22372,6,0,B|287:47,1,80,2|0
464,208,24372,5,2
440,288,24705,2,0,B|392:328,1,53.3333333333333
312,328,25372,1,0
56,296,26372,6,0,B|24:176,1,106.666666666667,2|0
112,176,27372,2,0,B|168:80,1,106.666666666667,2|0
248,104,28372,2,0,B|408:48,1,160,2|0
399,51,30372,6,0,B|399:151,1,80,2|0
264,344,32372,6,0,B|328:344,2,53.3333333333333,2|0|0
248,256,33372,2,0,B|176:256,2,53.3333333333333,2|0|0
272,176,34372,2,0,B|272:64|160:64,1,160,2|0
40,216,36372,6,0,B|40:344,1,106.666666666667,2|0
120,352,37372,2,0,B|120:240,1,106.666666666667,2|0
200,208,38372,2,0,B|200:328,1,106.666666666667,2|0
288,312,39372,5,2
376,320,39705,1,0
440,264,40038,1,0
456,176,40371,6,0,B|384:120|288:152,1,160,4|2
80,272,42371,2,0,B|152:328|248:296,1,160,4|2
352,72,44371,6,0,B|256:72|232:160,2,160,4|4|4
360,80,46705,1,4
360,80,47038,1,4
360,80,47371,6,0,C|376:80|384:104|400:104,1,53.3333333333333,4|0
440,168,48371,6,0,B|440:240,1,53.3333333333333,4|0
416,256,48871,2,0,B|440:280,2,26.6666666666667
376,280,49371,2,0,B|304:304,2,53.3333333333333,8|2|0
360,192,50371,6,0,B|328:128,1,53.3333333333333,4|0
296,128,50871,2,0,B|280:88,3,26.6666666666667,4|0|4|8
216,56,51705,5,4
216,56,52038,1,0
152,112,52371,6,0,B|96:160,1,53.3333333333333,4|0
104,192,52871,2,0,B|56:200,2,26.6666666666667
120,232,53371,2,0,B|144:296,2,53.3333333333333,8|2|0
208,240,54371,6,0,B|280:272|376:232,1,160,4|4
363,236,55705,1,4
363,236,56038,1,4
408,160,56371,6,4,B|232:160,1,160,4|8
168,200,57705,1,4
88,160,58038,1,4
72,72,58371,6,0,B|256:72,1,160,4|8
320,72,59705,1,4
384,128,60038,1,4
384,216,60371,6,0,B|320:288|224:240,2,160,4|8|4
384,216,62705,1,0
384,216,63038,1,0
384,136,63371,6,0,C|416:136,2,26.6666666666667,4|4|4
336,64,64371,6,0,C|264:56,1,53.3333333333333,4|0
248,80,64871,2,0,C|240:128,2,26.6666666666667,0|0|4
208,56,65371,2,0,C|144:64,2,53.3333333333333,8|2|0
192,144,66371,6,0,C|176:200,1,53.3333333333333,4|0
208,224,66871,2,0,C|224:272,3,26.6666666666667,4|0|4|0
160,312,67705,5,4
160,312,68038,1,4
80,280,68371,6,0,C|56:224,1,53.3333333333333,4|0
48,192,68871,2,0,C|8:168,2,26.6666666666667
72,152,69371,2,0,C|96:88,2,53.3333333333333,8|2|0
152,176,70371,6,0,B|216:152|248:192|320:168,1,160,4|4
310,170,71705,1,4
310,170,72038,1,4
384,128,72371,6,0,B|368:32|256:40,1,160,4|8
184,24,73705,1,0
104,48,74038,1,4
56,120,74371,6,0,B|56:288,1,160,4|8
128,328,75705,1,4
200,288,76038,1,4
200,200,76371,6,0,B|200:80,1,106.666666666667,4|0
280,56,77371,2,0,B|280:176,1,106.666666666667,8|4
360,200,78372,2,0,B|360:136,3,53.3333333333333,4|4|4|4
408,80,79705,5,0
480,128,80038,1,0
488,216,80372,1,4
264,80,88372,6,0,B|312:56|368:80,1,106.666666666667,4|0
416,152,89372,2,0,B|368:192|296:144,1,106.666666666667,8|0
248,112,90372,2,0,B|192:80|144:112,1,106.666666666667,4|0
80,168,91372,5,8
48,248,91705,1,2
88,328,92038,1,0
176,320,92372,6,0,B|240:320,2,53.3333333333333,4|2|0
224,248,93372,2,0,B|277:248,2,53.3333333333333,8|2|0
272,176,94372,2,0,B|344:128|440:184,1,160,4|4
423,175,95705,1,4
423,175,96038,1,4
416,88,96372,6,0,B|304:48,1,106.666666666667,4|0
256,120,97372,2,0,B|144:88,1,106.666666666667,8|0
88,144,98372,6,0,B|88:264,1,106.666666666667,4|0
168,288,99372,2,0,B|168:168,1,106.666666666667,8|4
216,112,100372,6,0,B|288:48|360:120,1,160,4|8
320,192,101705,1,2
272,264,102038,1,0
200,312,102372,6,0,B|128:376|56:304,1,160,4|4
58,306,103705,1,4
58,306,104038,1,4
48,224,104372,6,4,B|48:48,2,160,4|12|4
136,224,106705,1,2
136,224,107038,1,0
224,224,107372,2,0,B|296:224,2,53.3333333333333,8|2|0
224,136,108372,6,0,B|224:64,2,53.3333333333333,4|2|0
304,112,109372,2,0,B|304:48,2,53.3333333333333,8|0|0
384,88,110372,2,0,B|456:160|384:240,1,160,4|4
392,230,111705,1,4
392,230,112038,1,4
336,296,112372,5,4
256,328,112705,1,2
176,304,113038,1,0
96,328,113372,1,8
184,88,114372,5,4
264,56,114705,1,2
344,96,115038,1,0
424,56,115372,1,8
256,248,116372,6,0,B|144:248,1,106.666666666667,4|0
128,168,117372,2,0,B|248:168,1,106.666666666667,8|0
256,88,118372,2,4,B|184:88,2,53.3333333333333,4|4|4
344,88,119372,6,0,C|360:88|376:104|392:104,1,53.3333333333333,4|0
432,176,120372,6,0,C|448:248,1,53.3333333333333,4|0
432,272,120872,2,0,C|472:304,2,26.6666666666667
400,296,121372,2,0,C|336:328,2,53.3333333333333,8|2|0
344,232,122372,6,0,C|280:232,1,53.3333333333333,4|0
256,208,122872,2,0,C|208:208,3,26.6666666666667,4|0|4|8
144,208,123705,5,4
144,208,124038,1,0
80,152,124372,6,0,C|112:96,1,53.3333333333333,4|0
112,64,124872,2,0,C|80:32,2,26.6666666666667
152,48,125372,2,0,C|216:16,2,53.3333333333333,8|2|0
192,128,126372,6,0,C|352:128,1,160,4|4
352,128,127705,1,4
352,128,128038,1,4
424,176,128372,6,0,B|432:288|336:288,1,160,4|8
256,288,129705,1,0
256,288,130038,1,4
192,232,130372,6,0,B|24:232,1,160,4|8
56,152,131705,1,4
56,152,132038,1,4
120,96,132372,6,0,B|216:32,1,106.666666666667,4|0
240,112,133372,2,0,B|344:88,1,106.666666666667,8|0
368,168,134372,2,0,B|440:168,2,53.3333333333333,4|4|4
400,256,135372,6,0,B|400:288,2,26.6666666666667,4|4|4
320,272,136372,6,0,B|264:304,1,53.3333333333333,4|0
232,304,136872,2,0,B|232:352,2,26.6666666666667,0|0|4
192,296,137372,2,0,B|136:256,2,53.3333333333333,8|2|0
216,216,138372,6,0,B|216:144,1,53.3333333333333,4|0
176,144,138872,2,0,B|176:96,3,26.6666666666667,4|0|4|8
112,56,139705,5,4
112,56,140038,1,4
192,80,140372,6,0,B|240:48,1,53.3333333333333,4|0
280,40,140872,2,0,B|280:-7,2,26.6666666666667
320,56,141372,2,0,B|376:88,2,53.3333333333333,8|2|0
312,144,142372,6,0,B|312:312,1,160,4|4
312,304,143705,1,4
312,304,144038,1,4
224,304,144372,6,0,B|144:336|64:304,1,160,4|8
32,232,145705,1,0
80,160,146038,1,4
32,88,146372,6,0,B|112:56|200:88,1,160,4|8
256,136,147705,1,4
328,88,148038,1,4
400,136,148372,6,0,B|464:240,1,106.666666666667,4|0
368,240,149372,2,0,B|352:352,1,106.666666666667,8|4
280,304,150372,2,0,B|224:352,3,53.3333333333333,4|4|4|4
256,192,151872,8,8,153372
64,112,154372,6,0,B|144:64|232:120,1,160,4|8
448,224,156372,2,0,B|368:280|296:224,1,160,4|8
72,120,158372,6,0,B|72:280,1,160,4|4
152,256,159705,2,0,B|224:256,1,53.3333333333333,4|4
208,168,160372,2,0,B|184:64|304:48,1,160,4|8
440,200,162372,6,0,B|456:296|352:312,1,160,4|8
160,144,164372,2,0,B|64:152|72:272,1,160,4|8
224,312,166038,5,4
312,312,166372,2,0,B|408:312|432:216,1,160,4|4
432,136,167705,1,4
432,136,168038,1,4
384,64,168372,6,0,B|200:64,1,160,4|8
48,256,170372,2,0,B|208:256,1,160,4|8
296,256,171705,1,0
464,208,172372,6,0,B|464:336,1,106.666666666667,4|0
384,288,173372,2,0,B|384:176,1,106.666666666667,8|0
304,200,174372,2,0,B|304:320,1,106.666666666667,4|0
224,288,175372,2,0,B|224:224,2,53.3333333333333,4|4|4
136,280,176372,6,0,B|136:112,1,160,4|8
376,280,178372,6,0,B|376:112,1,160,4|8
128,192,180372,6,0,B|113:289|225:289,2,160,4|8|4
128,104,182705,1,4
216,104,183038,1,4
304,104,183372,1,4
336,184,183705,5,4
248,184,184038,1,4
160,184,184371,1,4
200,264,184705,5,4
288,264,185038,1,4
376,264,185372,2,0,B|408:264,2,26.6666666666667,4|4|4
408,184,186372,6,0,B|376:120,1,53.3333333333333,4|0
384,96,186872,2,0,B|400:64,2,26.6666666666667
344,96,187372,2,0,B|288:80,2,53.3333333333333,8|2|0
296,168,188372,6,0,B|280:240,1,53.3333333333333,4|0
240,232,188872,2,0,B|232:264,3,26.6666666666667,4|0|4|8
152,280,189705,2,0,B|80:280,1,53.3333333333333,4|0
88,192,190372,6,0,B|104:128,1,53.3333333333333,4|0
96,96,190872,2,0,B|64:80,2,26.6666666666667
136,88,191372,2,0,B|192:48,2,53.3333333333333,8|4|0
200,144,192372,6,0,B|256:144,2,53.3333333333333,4|0|0
176,224,193372,2,0,B|240:224,2,53.3333333333333,4|4|4
136,296,194372,6,0,B|216:336|304:288,1,160,4|8
376,296,195705,1,0
376,296,196038,1,4
448,248,196372,6,0,B|448:80,1,160,4|8
376,48,197705,1,4
376,48,198038,1,4
288,64,198372,6,0,B|232:32|176:72,1,106.666666666667
216,144,199372,2,0,B|152:152|144:216,1,106.666666666667,4|0
224,248,200372,2,0,B|192:304|240:352,1,106.666666666667,4|0
312,328,201372,6,0,B|344:328,2,26.6666666666667,4|4|4
328,248,202372,6,0,B|384:224,1,53.3333333333333,4|0
400,184,202872,2,0,B|440:192,2,26.6666666666667
408,144,203372,2,0,B|400:80,2,53.3333333333333,8|2|0
320,152,204372,6,0,B|256:128,1,53.3333333333333,4|0
240,160,204872,2,0,B|192:144,3,26.6666666666667,4|0|4|8
160,88,205705,2,0,B|96:88,1,53.3333333333333,4|4
72,168,206372,6,0,B|24:240|80:320,1,160,0|4
160,320,207705,1,0
160,320,208038,1,0
232,272,208372,6,0,B|352:272,1,106.666666666667,4|0
320,192,209372,2,0,B|384:192,2,53.3333333333333,8|4|4
248,240,210372,6,0,B|152:240|144:128,1,160,0|8
144,56,211705,1,0
144,56,212038,1,4
232,56,212372,6,0,B|400:56,1,160,4|8
448,120,213705,1,4
448,120,214038,1,4
376,168,214372,6,0,B|248:168,1,106.666666666667,0|0
232,248,215372,2,0,B|338:248,1,106.666666666667,4|4
368,328,216372,5,4
280,328,216705,1,4
192,328,217038,1,4
104,328,217372,1,4
256,192,218372,12,0,224372
