osu file format v9

[General]
AudioFilename: Full House OST - 04.mp3
AudioLeadIn: 0
PreviewTime: 47034
Countdown: 0
SampleSet: Soft
StackLeniency: 0.7
Mode: 0
LetterboxInBreaks: 1

[Editor]
DistanceSpacing: 1.4
BeatDivisor: 6
GridSize: 8

[Metadata]
Title:I Think I
Artist:Byul
Creator:Lissette
Version:Sleeping
Source:Full House
Tags:k-pop korean drama

[Difficulty]
HPDrainRate:2
CircleSize:3
OverallDifficulty:2
ApproachRate:2
SliderMultiplier:1
SliderTickRate:1

[Events]
//Background and Video events
0,0,"0012.jpg"
//Break Periods
2,82572,86812
//Storyboard Layer 0 (Background)
//Storyboard Layer 1 (Fail)
//Storyboard Layer 2 (Pass)
//Storyboard Layer 3 (Foreground)
//Storyboard Sound Samples
//Background Colour Transformations
3,100,163,162,255

[TimingPoints]
372,1000,4,2,1,20,1,0
21195,-100,4,2,1,0,0,0
21868,-100,4,2,1,20,0,0
29195,-100,4,2,1,0,0,0
29868,-100,4,2,1,20,0,0
45195,-100,4,2,1,10,0,0
45528,-100,4,2,1,20,0,0
47195,-100,4,2,1,30,0,0
47362,-100,4,2,1,30,0,1
55201,-100,4,2,0,40,0,1
55534,-100,4,2,1,30,0,1
63201,-100,4,2,1,30,0,0
63362,-100,4,2,1,30,0,1
71201,-100,4,2,0,40,0,1
71534,-100,4,2,1,30,0,1
79362,-100,4,2,1,30,0,0
87368,-100,4,2,1,20,0,0
95362,-100,4,2,0,35,0,0
95534,-100,4,2,1,20,0,0
103201,-100,4,2,0,35,0,0
103534,-100,4,2,1,20,0,0
111201,-100,4,2,0,35,0,0
111534,-100,4,2,1,20,0,0
116868,-100,4,2,1,23,0,0
117868,-100,4,2,1,27,0,0
119195,-100,4,2,1,30,0,0
119362,-100,4,2,1,30,0,1
127201,-100,4,2,0,40,0,1
127534,-100,4,2,1,30,0,1
135201,-100,4,2,1,30,0,0
135362,-100,4,2,1,30,0,1
143201,-100,4,2,0,30,0,1
143534,-100,4,2,1,30,0,1
151195,-100,4,2,0,40,0,1
151528,-100,4,2,1,30,0,0
153872,-100,4,2,1,30,0,0
159205,-100,4,2,0,35,0,0
159538,-100,4,2,1,30,0,0
167205,-100,4,2,0,35,0,0
167538,-100,4,2,1,30,0,0
175205,-100,4,2,0,35,0,0
175538,-100,4,2,1,30,0,0
176205,-100,4,2,0,45,0,0
176538,-100,4,2,1,30,0,0
178205,-100,4,2,0,45,0,0
178538,-100,4,2,1,30,0,0
183205,-100,4,2,0,45,0,0
183538,-100,4,2,1,30,0,0
185205,-200,4,2,1,30,0,0
185362,-100,4,2,1,30,0,1
193205,-100,4,2,0,40,0,1
193538,-100,4,2,1,30,0,1
199205,-100,4,2,0,40,0,1
199538,-100,4,2,1,30,0,1
201205,-100,4,2,1,30,0,0
201372,-100,4,2,1,30,0,1
207205,-100,4,2,0,40,0,1
207538,-100,4,2,1,30,0,1
215205,-100,4,2,0,40,0,1
215538,-100,4,2,1,30,0,1
218372,-100,4,2,1,0,0,0

[Colours]
Combo1 : 121,188,255
Combo2 : 255,255,174

[HitObjects]
40,88,16371,2,0,B|152:88,1,100,2|0
184,224,18371,2,0,B|288:224,1,100,2|0
360,336,20372,2,0,B|472:336,1,100,2|0
460,336,22372,5,2
464,48,24372,6,0,B|416:8|360:56,1,100,2|0
344,184,26372,2,0,B|288:224|248:176,1,100,2|0
184,64,28372,2,0,B|128:32|80:72,1,100,2|0
89,64,30372,5,2
64,296,32372,5,2
176,216,33372,1,0
288,304,34372,2,0,B|400:304,1,100,2|0
440,176,36372,5,2
368,56,37372,1,0
232,24,38372,2,0,B|120:24,1,100,2|0
208,144,40371,6,0,B|108:144,1,100,4|2
24,256,42371,2,0,B|124:256,1,100,4|2
216,360,44371,6,0,B|116:360,2,100,4|4|4
352,320,47371,6,0,B|408:328|448:288,2,100,4|4|8
368,184,50371,5,4
368,48,51371,1,8
248,128,52371,6,0,B|176:128|176:192,1,100,4|8
40,152,54371,5,4
120,32,55371,1,4
256,32,56371,6,0,B|320:24|360:64,1,100,4|8
440,160,58371,2,0,B|472:200|440:256,1,100,4|8
320,320,60371,6,0,B|216:320,2,100,4|8|4
272,192,63371,6,0,B|272:80,2,100,4|4|8
208,320,66371,5,4
72,320,67371,1,8
144,200,68371,6,0,B|144:96,1,100,4|8
280,64,70371,5,4
280,64,71371,1,4
408,128,72371,6,0,B|376:232,1,100,4|8
240,200,74371,2,0,B|208:304,1,100,4|8
80,248,76371,6,0,B|48:352,3,100,4|8|4|4
256,192,80372,12,0,82372
256,88,88372,6,0,B|360:88,2,100,4|8|4
256,88,91372,1,8
168,192,92372,6,0,B|64:192,3,100,4|8|4|4
104,328,96372,6,0,B|160:352|208:320,1,100,4|8
312,240,98372,2,0,B|368:216|416:248,1,100,4|8
432,104,100372,6,0,B|328:104,1,100,4|8
200,56,102372,2,0,B|88:56,1,100,4|4
80,192,104372,5,4
80,328,105372,1,8
200,256,106372,2,0,B|304:256,1,100,4|8
256,120,108372,5,4
360,24,109372,1,8
448,128,110372,2,0,B|448:240,1,100,4|4
312,264,112372,6,0,B|264:232|208:264,1,100,4|8
112,352,114372,2,0,B|56:376|8:344,1,100,4|8
72,224,116372,6,0,B|72:120,2,100,4|8|4
208,184,119372,6,0,B|320:184,2,100,4|4|8
256,48,122372,5,4
392,48,123372,1,8
448,176,124372,6,0,B|448:288,1,100,4|8
320,328,126372,5,4
184,328,127372,1,4
256,208,128372,6,0,B|272:152|248:112,1,100,4|8
120,56,130372,2,0,B|104:104|128:160,1,100,4|8
64,280,132372,5,4
184,208,133372,1,8
304,280,134372,1,4
416,200,135372,6,0,B|448:136|392:104,2,100,4|4|8
280,168,138372,5,4
144,168,139372,1,8
64,56,140372,6,0,B|168:56,1,100,4|8
304,40,142372,5,4
248,168,143372,1,4
312,296,144372,6,0,B|256:320|208:296,1,100,4|8
88,232,146372,2,0,B|48:184|80:128,1,100,4|8
168,40,148372,6,0,B|272:40,3,100,4|8|4|4
208,168,152372,6,0,B|160:144|112:168,1,100,4|8
168,296,154372,2,0,B|224:328|272:288,1,100,4|8
392,256,156372,6,0,B|392:144,3,100,4|8|4|4
256,152,160371,6,0,B|256:256,1,100,4|8
136,328,162371,1,4
16,256,163371,1,8
88,136,164371,6,0,B|136:104|192:144,1,100,4|8
320,176,166371,2,0,B|368:208|424:168,1,100,4|4
352,48,168371,6,0,B|248:48,1,100,4|8
264,184,170371,2,0,B|152:184,1,100,4|8
204,312,172371,6,0,B|104:312,3,100,4|8|4|4
112,176,176371,5,4
400,176,178371,5,4
160,320,180371,6,4,B|272:320,3,100,4|0|0|4
400,320,184371,1,4
344,192,185371,6,0,B|368:136|336:88,2,100,4|4|8
208,152,188371,5,4
72,152,189371,1,8
160,264,190371,6,0,B|216:296|256:256,1,100,4|8
256,120,192371,5,4
384,72,193371,1,4
448,200,194371,6,0,B|400:288,1,100,4|8
288,200,196371,2,0,B|240:288,1,100,4|8
128,200,198371,6,0,B|80:288,2,100,4|4|4
200,80,201371,6,0,B|312:80,2,100,4|4|8
112,192,204371,5,4
216,288,205371,1,8
352,240,206371,6,0,B|464:240,1,100,0|4
400,112,208371,5,4
264,112,209371,1,8
336,232,210371,6,0,B|368:288|336:336,1,100,4|8
224,248,212371,2,0,B|192:192|224:144,1,100,4|8
360,128,214372,6,0,B|472:128,3,100,4|4|4|4
256,192,218371,12,0,224371
