osu file format v9

[General]
AudioFilename: Full House OST - 04.mp3
AudioLeadIn: 0
PreviewTime: 47034
Countdown: 0
SampleSet: Soft
StackLeniency: 0.7
Mode: 0
LetterboxInBreaks: 1

[Editor]
Bookmarks: 178362
DistanceSpacing: 2
BeatDivisor: 6
GridSize: 8

[Metadata]
Title:I Think I
Artist:Byul
Creator:Lissette
Version:Dancing
Source:Full House
Tags:k-pop korean drama

[Difficulty]
HPDrainRate:7
CircleSize:4
OverallDifficulty:7
ApproachRate:6
SliderMultiplier:2
SliderTickRate:1

[Events]
//Background and Video events
0,0,"0012.jpg"
//Break Periods
2,82572,87322
//Storyboard Layer 0 (Background)
//Storyboard Layer 1 (Fail)
//Storyboard Layer 2 (Pass)
//Storyboard Layer 3 (Foreground)
//Storyboard Sound Samples
//Background Colour Transformations
3,100,163,162,255

[TimingPoints]
372,1000,4,2,1,20,1,0
21195,-100,4,2,1,0,0,0
21868,-200,4,2,1,20,0,0
23195,-200,4,2,1,0,0,0
23868,-100,4,2,1,20,0,0
29195,-100,4,2,1,0,0,0
29868,-200,4,2,1,20,0,0
31195,-200,4,2,1,0,0,0
31867,-100,4,2,1,20,0,0
36862,-100,4,2,1,0,0,0
37201,-100,4,2,1,20,0,0
37862,-100,4,2,1,0,0,0
38201,-100,4,2,1,20,0,0
38862,-100,4,2,1,0,0,0
39201,-100,4,2,1,30,0,0
40201,-100,4,2,1,20,0,0
45195,-100,4,2,1,10,0,0
45528,-100,4,2,1,20,0,0
47195,-200,4,2,1,30,0,1
48034,-100,4,2,1,0,0,1
48201,-100,4,2,1,30,0,1
55201,-100,4,2,0,40,0,1
55534,-100,4,2,1,30,0,1
63201,-200,4,2,1,30,0,0
63362,-200,4,2,1,30,0,1
64201,-100,4,2,1,30,0,1
71201,-100,4,2,0,40,0,1
71534,-100,4,2,1,30,0,1
79195,-200,4,2,1,30,0,1
87368,-100,4,2,1,20,0,0
95362,-100,4,2,0,35,0,0
95534,-100,4,2,1,20,0,0
103201,-100,4,2,0,35,0,0
103534,-100,4,2,1,20,0,0
111201,-100,4,2,0,35,0,0
111534,-100,4,2,1,20,0,0
116868,-100,4,2,1,23,0,0
117868,-100,4,2,1,27,0,0
119195,-200,4,2,1,30,0,0
119362,-200,4,2,1,30,0,1
120034,-100,4,2,1,30,0,1
127201,-100,4,2,0,40,0,1
127534,-100,4,2,1,30,0,1
135201,-200,4,2,1,30,0,0
135362,-200,4,2,1,30,0,1
136195,-100,4,2,1,30,0,1
143201,-100,4,2,0,40,0,1
143534,-100,4,2,1,30,0,1
151195,-200,4,2,1,30,0,1
152368,-100,4,2,1,30,0,1
152534,-100,4,2,1,30,0,0
159205,-100,4,2,0,35,0,0
159538,-100,4,2,1,30,0,0
167205,-100,4,2,0,35,0,0
167538,-100,4,2,1,30,0,0
175205,-100,4,2,0,35,0,0
175538,-100,4,2,1,30,0,0
176205,-100,4,2,0,45,0,0
176538,-100,4,2,1,30,0,0
178205,-100,4,2,0,45,0,0
178538,-100,4,2,1,30,0,0
183205,-100,4,2,0,45,0,0
183538,-100,4,2,1,30,0,0
185205,-200,4,2,1,30,0,0
185372,-200,4,2,1,30,0,1
186205,-100,4,2,1,30,0,1
193205,-100,4,2,0,40,0,1
193538,-100,4,2,1,30,0,1
199205,-100,4,2,0,40,0,1
199538,-100,4,2,1,30,0,1
201205,-200,4,2,1,30,0,0
201372,-200,4,2,1,30,0,1
202205,-100,4,2,1,30,0,1
207205,-100,4,2,0,40,0,1
207538,-100,4,2,1,30,0,1
215205,-100,4,2,0,40,0,1
215538,-100,4,2,1,30,0,1
218372,-100,4,2,1,0,0,0

[Colours]
Combo1 : 121,188,255
Combo2 : 255,255,174

[HitObjects]
152,128,16371,2,0,B|144:88|184:64,2,66.6666666666667,2|0|0
272,184,17371,2,0,B|280:224|240:248,2,66.6666666666667,2|0|0
344,72,18371,2,0,B|408:64|448:96|456:152,1,133.333333333333,2|0
480,192,19205,1,0
424,232,19371,5,2
336,304,19705,1,0
240,232,20038,1,0
144,312,20372,2,0,B|72:288|40:224|64:144,1,200,2|0
61,152,22372,6,0,B|168:152,1,100,2|0
336,64,24372,6,0,B|416:64,2,66.6666666666667,2|0|0
368,192,25372,2,0,B|304:232|232:184,1,133.333333333333,2|0
184,160,26205,1,0
128,120,26372,2,0,B|128:48,2,66.6666666666667,2|0|0
104,248,27372,2,0,B|136:320|232:304,1,133.333333333333,2|0
432,304,28372,2,0,B|376:216|248:232,1,200,2|0
257,230,30372,6,0,B|256:128,1,100,2|0
48,136,32372,5,2
48,136,32705,1,0
48,136,33038,1,0
168,80,33372,1,2
168,80,33705,1,0
168,80,34038,1,0
288,144,34372,2,0,B|352:192|352:272|272:336,1,200,2|2
160,320,35705,1,0
293,316,36038,1,0
424,280,36372,6,0,B|448:128,1,133.333333333333,2|0
336,224,37372,2,0,B|360:80,1,133.333333333333,2|0
248,160,38372,2,0,B|272:0,1,133.333333333333,2|0
136,56,39372,5,2
48,160,39705,1,0
88,288,40038,1,0
216,328,40371,5,4
216,328,41371,1,2
352,304,42371,5,4
352,304,43371,1,2
456,192,44371,5,4
56,192,45371,1,4
360,192,46371,5,4
152,192,46705,1,4
360,192,47038,1,4
152,192,47371,2,0,C|160:168|184:168|200:144,1,66.6666666666667,4|0
352,48,48371,6,0,B|440:72,1,66.6666666666667,4|0
448,120,48871,1,0
424,184,49038,1,0
456,240,49205,1,0
480,304,49371,2,0,B|384:304,2,66.6666666666667,8|2|0
184,304,50371,6,0,B|264:304,1,66.6666666666667,4|0
288,248,50871,1,4
248,192,51038,1,0
272,128,51205,2,0,B|240:96,1,33.3333333333333,4|8
344,48,51705,5,0
112,48,52038,1,0
112,48,52371,6,0,B|48:96,1,66.6666666666667,4|0
40,152,52871,1,0
64,216,53038,1,0
32,280,53205,1,0
80,328,53371,2,0,B|160:328,2,66.6666666666667,8|2|0
144,128,54371,6,0,B|216:160,1,66.6666666666666,4|0
264,128,54871,1,4
328,152,55038,1,0
392,128,55205,1,0
448,168,55371,2,0,B|392:232,2,66.6666666666667,12|4|4
256,304,56371,6,0,B|184:336|120:304,1,133.333333333333,4|0
126,307,57371,2,0,B|32:280|48:192,1,133.333333333333,8|4
272,72,58371,6,0,B|327:56|392:88,1,100,4|4
370,78,59038,1,0
472,168,59371,2,0,B|464:136|433:115,2,66.6666666666667,8|4|4
224,280,60371,6,0,B|152:304|80:280,1,133.333333333333,4|0
264,208,61371,2,0,B|335:231|394:211,1,133.333333333333,8|0
280,32,62371,5,4
456,32,62705,1,4
280,32,63038,1,4
456,32,63371,2,0,C|456:64,2,33.3333333333333,4|4|4
416,224,64371,6,0,B|448:264|408:304,1,66.6666666666667,4|0
368,328,64871,1,0
304,312,65038,1,0
240,336,65205,1,4
184,296,65371,2,0,B|112:296,2,66.6666666666667,8|2|0
272,96,66371,6,0,B|176:96,1,66.6666666666667,4|0
144,128,66871,1,4
120,192,67038,1,0
56,216,67205,2,0,B|32:256,1,33.3333333333333,4|8
136,336,67705,5,4
328,336,68038,1,4
448,200,68371,6,0,B|392:144,1,66.6666666666666,4|0
352,112,68871,1,0
288,128,69038,1,0
224,112,69205,1,0
160,128,69371,2,0,B|80:128,2,66.6666666666667,0|2|0
168,328,70371,6,0,B|248:328,1,66.6666666666667,4|0
288,288,70871,1,4
336,240,71038,2,0,B|402:240,1,66.6666666666667,0|12
416,104,71705,1,4
256,32,72038,1,4
96,104,72371,6,0,B|56:184|144:200|80:296,1,200,4|8
440,312,74038,5,4
344,216,74371,2,0,B|424:120,1,66.6666666666666,4|0
352,112,74871,1,4
320,56,75038,2,0,B|366:8,1,66.6666666666667,0|8
344,216,75705,1,4
320,56,76038,1,4
96,288,76371,6,0,B|40:240|56:152,1,133.333333333333,4|0
160,224,77371,2,0,B|136:152|168:96,1,133.333333333333,8|4
280,192,78372,5,4
320,32,78705,1,4
280,192,79038,1,4
320,32,79372,2,4,B|440:32,1,100,4|4
256,192,80705,8,0,82372
368,96,88372,6,0,B|456:96,2,66.6666666666667,4|2|0
280,200,89372,2,0,B|184:200,2,66.6666666666667,8|0|0
376,296,90372,2,0,B|464:296,2,66.6666666666667,4|2|0
312,320,91205,1,4
248,336,91372,2,0,B|184:360|88:328,1,133.333333333333,8|0
256,232,92372,5,4
344,200,92705,1,2
440,232,93038,1,0
256,128,93372,1,8
168,160,93705,1,0
72,128,94038,1,0
256,192,94372,8,4,95372
256,192,95705,5,4
256,192,96038,1,4
256,32,96372,6,0,B|328:8|408:64,1,133.333333333333,4|0
488,136,97372,2,0,B|512:216|464:272,1,133.333333333333,8|0
360,344,98372,2,4,B|296:384|224:344,1,133.333333333333,4|0
168,344,99205,1,4
136,288,99372,2,0,B|136:200,2,66.6666666666667,8|0|4
248,216,100372,6,0,B|400:216,1,133.333333333333,4|2
480,120,101372,2,0,B|328:120,1,133.333333333333,8|0
232,48,102372,2,0,B|304:48,2,66.6666666666667,4|0|0
64,80,103372,5,4
88,200,103705,1,4
112,312,104038,1,4
312,320,104372,6,0,B|392:304|408:208,1,133.333333333333,4|0
287,220,105372,2,0,B|352:171|325:78,1,133.333333333333,8|0
200,128,106372,2,0,B|104:128,2,66.6666666666667,4|2|0
256,88,107205,1,4
312,48,107372,5,8
392,136,107705,1,0
472,224,108038,1,0
256,312,108372,6,0,B|160:312,2,66.6666666666667,4|2|0
192,192,109372,2,0,B|58:192,1,133.333333333333,8|0
120,72,110372,2,0,B|24:72,2,66.6666666666667,4|2|0
248,112,111372,5,12
384,216,111705,1,4
248,112,112038,1,4
256,336,112372,6,0,B|344:336,2,66.6666666666667,4|2|0
488,240,113372,2,0,B|400:208|320:240,1,166.666666666667,8|0
256,232,114372,6,0,B|256:312,2,66.6666666666667,4|2|0
224,176,115205,1,0
168,144,115372,2,0,B|101:114|37:145,1,133.333333333333,8|4
256,88,116372,5,4
256,88,117372,1,8
256,88,118372,5,4
256,248,118705,2,0,B|256:304,2,33.3333333333333,4|0|4
256,88,119372,2,0,B|288:88|288:120|320:120,1,66.6666666666667,4|0
432,280,120372,6,0,B|360:320,1,66.6666666666667,4|0
312,280,120872,1,0
248,304,121038,1,0
184,280,121205,1,0
120,304,121372,2,0,B|40:304,2,66.6666666666667,8|2|0
112,168,122372,6,0,B|160:96,1,66.6666666666667,4|0
208,144,122872,2,0,B|256:80,1,66.6666666666667,4|0
312,104,123372,1,8
472,192,123705,5,4
400,320,124038,1,0
472,192,124372,6,0,B|416:144,1,66.6666666666667,4|0
368,192,124872,1,0
304,208,125038,1,0
248,248,125205,1,0
184,272,125372,2,0,B|104:272,2,66.6666666666667,8|2|0
112,136,126372,6,0,B|96:88|152:64,1,66.6666666666667,4|0
184,40,126872,1,4
240,72,127038,2,0,B|328:72,2,66.6666666666667,0|12|0
240,72,128038,1,4
232,320,128372,6,0,B|280:312|296:264,1,66.6666666666667,4|0
312,224,128872,1,0
312,160,129038,1,0
384,48,129372,2,0,B|424:72|424:128,1,66.6666666666667,8|0
440,168,129872,1,0
432,232,130038,1,4
272,328,130372,6,0,B|192:328,1,66.6666666666667,4|0
144,304,130872,1,4
80,328,131038,1,0
72,192,131372,2,0,B|160:192,2,66.6666666666667,8|4|4
192,40,132372,5,4
312,336,133372,1,8
192,40,134372,5,4
392,40,134705,1,4
192,40,135038,1,4
304,184,135372,6,0,C|272:184,2,33.3333333333333,4|4|4
120,352,136372,6,0,C|48:312,1,66.6666666666667,4|0
72,256,136872,1,0
48,192,137038,1,0
88,136,137205,1,4
128,80,137372,2,0,C|128:-8,2,66.6666666666667,8|2|0
328,56,138372,6,0,C|360:120,1,66.6666666666667,4|0
416,152,138872,1,4
392,216,139038,1,0
440,264,139205,2,0,C|392:304,1,33.3333333333333,4|8
256,336,139705,5,4
104,264,140038,1,4
80,112,140372,6,0,C|152:72,1,66.6666666666667,4|0
200,112,140872,1,0
264,88,141038,1,0
328,112,141205,1,0
392,136,141372,2,0,C|472:136,2,66.6666666666667,8|2|0
384,312,142372,6,0,B|360:272|304:288,1,66.6666666666667,4|0
264,304,142872,1,4
200,320,143038,2,0,B|128:320,1,66.6666666666667,0|12
48,216,143705,5,4
32,64,144038,1,4
200,72,144372,6,0,B|272:72,1,66.6666666666667,4|0
320,112,144872,1,0
376,144,145038,2,0,B|472:144,1,66.6666666666667,0|8
416,272,145705,5,2
416,272,146038,1,4
168,304,146372,6,0,B|120:232,1,66.6666666666667,4|0
168,192,146872,1,4
216,144,147038,2,0,B|160:64,1,66.6666666666667,0|8
48,48,147705,5,4
48,48,148038,1,4
64,224,148372,6,0,B|64:304|144:336,1,133.333333333333,4|0
184,208,149372,2,0,B|240:256|336:224,1,133.333333333333,8|4
264,104,150372,5,4
440,72,150705,1,4
264,104,151038,1,4
440,72,151372,2,0,B|480:104|448:136|480:160,2,100,0|4|8
208,280,154372,6,0,B|128:280,2,66.6666666666667,4|2|0
240,224,155205,1,4
216,160,155372,2,0,B|144:128|64:168,1,133.333333333333,8|0
160,272,156372,2,0,B|232:304|312:264,1,133.333333333333,4|0
352,160,157372,2,0,B|280:128|200:168,1,133.333333333333,8|4
288,272,158371,2,0,B|360:304|440:264,1,133.333333333333,4|0
417,273,159371,5,4
344,160,159705,1,4
264,56,160038,1,4
88,112,160371,6,0,B|-24:152|16:288,1,200,4|8
144,232,161705,1,2
144,232,162038,1,0
264,336,162371,6,0,B|416:336,1,133.333333333333,4|0
448,288,163205,1,4
488,232,163371,2,0,B|344:232,1,133.333333333333,0|4
432,128,164372,5,4
328,160,164705,1,2
224,136,165038,1,0
288,56,165372,1,0
184,24,165705,1,0
80,48,166038,1,4
48,178,166372,6,0,B|48:256,2,66.6666666666667,4|2|0
48,178,167372,5,4
184,248,167705,1,4
320,312,168038,1,4
472,184,168371,6,0,B|472:64|344:48,1,200,0|8
256,168,169705,1,2
256,168,170038,1,4
40,184,170371,6,0,B|24:80|144:48,1,166.666666666667,4|4
184,40,171372,1,8
256,168,171705,1,0
184,40,172038,1,0
160,288,172371,6,0,B|216:336|312:312,1,133.333333333333,4|0
408,272,173371,2,0,B|464:224|448:120,1,133.333333333333,8|0
376,40,174371,2,0,B|320:0|240:16,1,133.333333333333,4|0
248,14,175371,5,4
208,144,175705,1,4
160,272,176038,1,4
360,304,176371,5,4
360,304,177371,2,0,B|360:208,2,66.6666666666667,8|0|4
152,304,178371,5,4
152,304,179371,2,0,B|152:208,2,66.6666666666667,8|4|4
48,160,180371,6,0,B|48:32|192:40,2,200,0|4|4
112,272,182705,1,4
240,304,183038,1,4
368,272,183371,1,4
368,272,183705,5,4
424,152,184038,1,4
352,40,184371,2,0,B|264:40,2,66.6666666666667,4|4|4
192,120,185371,6,0,B|160:120,2,33.3333333333333,0|4|4
160,288,186372,6,0,B|88:304,1,66.6666666666667,4|0
40,264,186872,1,0
72,208,187039,1,0
56,144,187206,1,0
80,80,187372,2,0,B|8:56,2,66.6666666666667,8|2|0
296,32,188371,6,0,B|360:48,1,66.6666666666667,4|0
344,112,188871,1,4
400,144,189038,1,0
400,208,189205,2,0,B|440:232,1,33.3333333333333,4|8
312,336,189705,5,4
136,336,190038,1,0
224,208,190371,6,0,B|264:144,1,66.6666666666667,4|0
192,128,190871,1,0
128,104,191038,1,0
80,144,191205,1,0
16,160,191371,2,0,B|0:80,2,66.6666666666667,8|2|0
72,328,192371,6,0,B|160:328,1,66.6666666666667,4|0
192,296,192871,1,4
248,264,193038,2,0,B|328:264,2,66.6666666666667,0|12|4
248,264,194038,1,4
240,72,194371,6,0,B|320:72,1,66.6666666666667,4|0
360,112,194871,1,0
400,168,195038,2,0,B|472:168,1,66.6666666666667,0|8
400,328,195705,5,0
208,328,196038,1,4
264,168,196371,6,0,B|184:168,1,66.6666666666667,4|0
160,224,196871,1,4
112,272,197038,2,0,B|24:272,1,66.6666666666667,0|8
48,136,197705,5,4
192,16,198038,1,4
344,120,198371,6,0,B|488:120,1,133.333333333333,4|0
320,200,199372,2,0,B|184:200,1,133.333333333333,4|0
328,320,200371,5,4
504,320,200705,1,0
328,320,201038,1,0
160,256,201372,6,0,B|120:256,2,33.3333333333333,4|4|4
96,112,202372,6,0,B|160:72,1,66.6666666666667,4|0
208,112,202872,1,0
272,88,203038,1,0
328,120,203205,1,4
392,120,203372,2,0,B|464:72,2,66.6666666666667,8|2|0
480,256,204372,6,0,B|440:336,1,66.6666666666667,4|0
384,296,204872,2,0,B|344:376,1,66.6666666666667,4|4
288,336,205372,1,8
320,160,205705,5,4
200,32,206038,1,4
320,160,206372,6,4,B|264:208,1,66.6666666666667,4|0
208,176,206872,1,0
152,208,207038,1,0
88,208,207205,1,0
56,264,207372,2,0,B|56:360,2,66.6666666666667,12|2|0
288,320,208372,6,0,B|368:320,1,66.6666666666667,4|0
384,264,208872,1,4
424,208,209038,2,0,B|504:208,1,66.6666666666667,0|8
408,40,209705,5,4
424,208,210038,1,4
200,208,210372,6,0,B|128:208,2,66.6666666666667,4|2|0
176,56,211372,2,0,B|272:56|288:136,1,133.333333333333,8|4
456,224,212372,6,0,B|416:312,1,66.6666666666667,4|2
360,272,212872,2,0,B|320:360,1,66.6666666666667,4|0
264,320,213372,1,8
80,240,213705,5,4
80,240,214038,1,4
192,96,214372,6,0,B|264:48|344:112,1,133.333333333333,4|0
464,200,215372,2,0,B|392:152|312:216,1,133.333333333333,12|4
200,312,216372,5,4
320,312,216705,1,4
128,312,217038,1,4
392,312,217371,1,4
256,192,218371,8,0,224371
