osu file format v9

[General]
AudioFilename: BY2 - Da Mao Xian (Big Adventure).mp3
AudioLeadIn: 0
PreviewTime: 50625
Countdown: 0
SampleSet: Soft
StackLeniency: 0.4
Mode: 0
LetterboxInBreaks: 0

[Editor]
DistanceSpacing: 1
BeatDivisor: 4
GridSize: 4

[Metadata]
Title:Da Mao Xian (Big Adventure)
Artist:By2
Creator:popner
Version:Chick
Source:
Tags:Adult Ceremony Cheng Ren Li chickgod [CSGA]Ar3sgice

[Difficulty]
HPDrainRate:7
CircleSize:4
OverallDifficulty:7
ApproachRate:8
SliderMultiplier:1.8
SliderTickRate:1

[Events]
//Background and Video events
0,0,"BG.jpg"
//Break Periods
2,87575,91307
//Storyboard Layer 0 (Background)
//Storyboard Layer 1 (Fail)
//Storyboard Layer 2 (Pass)
//Storyboard Layer 3 (Foreground)
//Storyboard Sound Samples
//Background Colour Transformations
3,100,163,162,255

[TimingPoints]
370,375,4,1,1,60,1,0
12745,-100,4,1,1,50,0,0
36370,-100,4,1,1,55,0,0
39370,-100,4,1,1,50,0,0
42182,-100,4,1,1,55,0,0
45370,-100,4,1,1,60,0,0
47620,-100,4,1,1,50,0,0
49682,-100,4,1,1,60,0,0
92057,-100,4,1,1,50,0,0
99370,-100,4,1,1,55,0,0
102370,-100,4,1,1,50,0,0
105370,-100,4,1,1,55,0,0
108370,-100,4,1,1,60,0,0
110620,-100,4,1,1,50,0,0
112495,-100,4,1,1,60,0,0
140995,-100,4,2,0,40,0,0

[Colours]
Combo1 : 255,128,255
Combo2 : 128,255,255
Combo3 : 165,30,255
Combo4 : 255,255,128

[HitObjects]
256,192,5995,5,8
376,328,6370,5,4
408,248,6557,1,0
440,168,6745,1,8
368,112,6932,1,0
352,112,7026,1,0
336,112,7120,1,0
376,32,7307,1,0
464,32,7495,1,8
128,32,7870,5,0
304,96,8245,1,8
216,64,8620,1,0
392,128,8995,1,8
160,320,9370,5,4
248,296,9557,1,0
336,272,9745,1,8
384,200,9932,1,0
384,184,10026,1,0
384,168,10120,1,0
472,172,10307,1,0
472,260,10495,1,8
416,328,10682,6,0,B|328:352,2,90
360,256,11245,1,8
304,184,11432,1,0
248,112,11620,6,0,B|160:136,1,90,0|8
72,120,11995,1,8
88,32,12182,1,8
176,48,12370,1,0
432,80,12745,5,8
352,32,12932,1,0
352,120,13120,2,0,B|352:208,2,90,0|0|8
352,120,13682,6,0,B|272:80,2,90
432,160,14245,2,0,B|432:224|432:224|400:240|392:280,1,135,8|0
440,280,14620,2,0,B|344:280,1,90
304,360,14995,2,0,B|392:360,1,90,8|0
488,360,15370,1,0
336,208,15557,5,0
304,216,15932,1,0
272,224,16307,1,0
240,232,16682,1,0
116,64,17057,5,0
256,52,17245,1,8
196,164,17432,1,0
184,24,17620,1,0
264,128,17807,1,0
124,140,17995,1,8
24,224,18182,1,0
24,224,18276,1,0
24,224,18370,6,0,B|32:272|24:320,1,90
124,328,18745,2,0,B|108:288|112:240,1,90,8|0
200,224,19120,2,0,B|208:272|240:304,2,90,0|0|8
264,160,19682,6,0,B|296:192|340:208,1,90
432,220,20057,1,0
452,336,20245,2,0,B|420:304|376:288,1,90,8|0
288,272,20620,2,0,B|332:288|376:284|416:256,1,135
432,220,20995,2,0,B|444:132,1,90,8|0
408,48,21370,1,0
232,60,21557,5,0
292,76,21932,1,0
232,92,22307,1,0
292,112,22682,1,0
176,304,23057,5,0
336,264,23245,1,8
176,224,23432,1,0
336,184,23620,1,0
176,144,23807,2,0,B|88:128,1,90,0|8
24,192,24182,1,0
44,196,24276,1,0
64,200,24370,2,0,B|152:216,1,90,0|0
344,312,24745,5,8
424,276,24932,1,0
416,188,25120,1,0
328,168,25307,1,0
280,244,25495,1,8
424,276,25682,6,0,B|484:272|528:204|492:140,1,180
416,188,26245,2,0,B|376:164|372:112,1,90,8|0
372,92,26526,1,0
376,72,26620,1,0
464,56,26807,1,0
508,192,26995,2,0,B|504:244|464:268,1,90,8|0
280,244,27370,1,0
212,48,27557,5,0
300,336,27932,1,0
312,88,28307,1,0
200,296,28682,1,0
360,180,29057,5,0
420,244,29245,2,0,B|456:272|504:276,2,90,8|0|0
360,180,29807,2,0,B|324:152|276:148,1,90,0|8
188,164,30182,1,0
188,164,30276,1,0
188,164,30370,6,0,B|188:256,1,90
110,209,30745,2,0,B|190:255,1,90,8|0
110,299,31120,2,0,B|190:253,1,90
268,212,31495,1,8
352,180,31682,6,0,B|400:180|440:204,2,90
284,124,32245,2,0,B|260:164|268:212,1,90,8|0
184,176,32620,2,0,B|204:220|252:236,1,90
180,292,32995,2,0,B|224:288|260:256,1,90,8|0
320,188,33370,5,0
176,108,33557,1,0
392,228,33932,1,0
108,68,34307,1,0
456,268,34682,1,0
288,256,35057,5,0
264,88,35245,2,0,B|216:100|196:144,1,90,8|0
360,200,35620,2,0,B|368:152|344:112,1,90,0|0
212,224,35995,21,8
280,168,36182,1,0
280,168,36276,1,0
280,168,36370,1,4
288,256,36557,1,0
216,312,36745,1,8
300,344,36932,2,0,B|404:344|408:228,1,180,0|0
388,140,37495,1,8
256,88,37682,5,0
228,76,37776,1,0
200,72,37870,2,0,B|140:72|140:72|112:136|48:136,1,180,4|8
56,48,38432,2,0,B|120:56|156:124|120:184,1,180,0|0
152,268,38995,1,8
148,280,39088,1,0
144,292,39182,1,0
140,304,39276,1,0
136,316,39370,6,0,B|179:332|223:316,1,90,0|0
296,220,39745,2,0,B|252:203|208:219,1,90,8|0
180,364,40120,2,0,B|226:370|265:344,1,90,0|0
252,168,40495,2,0,B|205:161|166:187,1,90,8|0
360,344,41057,5,0
440,264,41245,1,8
328,264,41432,1,0
392,156,41620,1,0
272,200,41807,1,0
320,68,41995,1,8
208,152,42182,1,0
200,168,42276,1,0
192,184,42370,6,0,B|152:268,1,90,4|0
112,344,42745,1,8
60,280,42932,2,0,B|76:344|148:372|204:348,1,180,0|0
288,312,43495,1,8
356,252,43682,1,0
364,236,43776,1,0
372,220,43870,5,4
412,140,44057,1,0
456,56,44245,1,8
512,124,44432,2,0,B|496:60|424:32|368:56,1,180,0|0
284,88,44995,1,8
284,116,45088,1,0
284,144,45182,1,0
284,172,45276,1,0
284,200,45370,5,4
116,300,45745,1,4
280,376,46120,1,4
120,120,46495,1,4
200,252,46682,5,0
200,252,46776,1,0
200,252,46870,2,0,B|288:280,1,90
308,192,47245,2,0,B|396:200,1,90,8|0
364,116,47620,21,0
396,112,47807,1,0
424,100,47995,1,0
448,80,48182,1,0
256,192,48370,12,0,49682
184,104,50057,5,0
328,140,50245,2,0,B|420:140,1,90
184,176,50620,2,0,B|92:176,1,90
328,212,50995,2,0,B|420:212,1,90
184,248,51370,5,4
412,332,51745,1,8
372,100,52120,1,0
328,212,52307,1,0
328,212,52401,1,0
328,212,52495,1,8
308,300,52682,6,0,B|276:336|228:340,1,90
216,160,53057,1,0
232,248,53245,2,0,B|180:256|148:220,1,90,8|8
224,76,53620,1,0
304,36,53807,1,0
368,100,53995,1,8
324,180,54182,1,0
236,164,54370,5,4
84,352,54745,1,8
12,128,55120,1,0
104,224,55307,1,0
104,224,55401,1,0
104,224,55495,1,8
264,256,55682,6,0,B|300:224|308:176,2,90
180,188,56245,2,0,B|140:164|132:108,1,90,8|8
352,112,56620,2,0,B|396:88|412:36,1,90,0|0
124,48,56995,2,0,B|76:44|40:12,1,90,8|0
256,36,57370,5,4
376,232,57745,1,8
136,232,58120,1,0
256,192,58307,1,0
256,192,58401,1,0
256,192,58495,1,8
312,120,58682,6,0,B|356:104|400:120,2,90,0|0|0
212,276,59245,2,0,B|256:292|300:276,1,90,8|8
200,120,59620,2,0,B|168:92|108:92|76:120,1,135
64,132,59995,21,8
72,32,60182,1,0
136,184,60370,1,0
160,272,60557,2,0,B|184:296|184:296|208:272|208:272|232:296|232:296|256:272|256:272|280:296|280:296|304:272|304:272|328:296|328:296|352:272,1,270,0|0
400,48,61495,5,8
112,48,61870,1,0
112,336,62245,1,8
400,336,62620,1,0
256,192,62995,1,8
432,192,63370,5,4
344,136,63557,1,0
328,128,63651,1,0
312,120,63745,1,8
224,176,63932,1,0
240,184,64026,1,0
256,192,64120,1,0
256,292,64307,1,0
112,264,64495,1,8
96,124,64682,6,0,B|52:132|16:168,2,90,0|0|0
184,112,65245,2,0,B|228:104|264:68,1,90,8|8
336,120,65620,2,0,B|308:164|240:200|184:204,1,180,0|8
96,232,66182,1,0
128,316,66370,21,4
212,284,66557,1,0
224,288,66651,1,0
236,292,66745,1,8
96,232,66932,1,0
84,228,67026,1,0
72,224,67120,1,0
108,108,67307,1,0
232,88,67495,1,8
296,196,67682,6,0,B|316:236|360:256,2,90
304,104,68245,1,8
196,188,68432,1,8
88,108,68620,2,0,B|40:128|24:168,1,90,0|0
44,256,68995,2,0,B|92:236|108:196,1,90,8|0
88,108,69370,5,4
172,140,69557,2,0,B|184:92,2,45,0|0|8
264,136,69932,2,0,B|272:180,2,45
348,104,70307,1,0
384,20,70495,1,8
296,40,70682,5,0
272,64,70776,1,0
264,96,70870,1,0
264,128,70963,1,0
280,160,71057,1,0
304,184,71151,1,0
328,208,71245,2,0,B|348:256|332:296,1,90,8|8
224,316,71620,21,0
116,292,71807,1,0
84,188,71995,1,8
192,212,72182,1,0
256,192,72370,12,0,73307
216,168,73495,5,8
296,216,73682,1,0
196,200,73870,1,0
316,184,74057,1,0
200,232,74245,1,8
312,152,74432,1,0
304,268,74620,2,0,B|352:344,2,90,0|0|8
256,192,75182,1,0
256,192,75370,12,8,77995
420,224,78370,5,4
312,228,78557,1,0
208,256,78745,2,0,B|168:276|148:324,2,90,8|0|0
112,208,79307,2,0,B|93:253|53:273,2,90,0|8|0
200,144,79870,5,0
304,168,80057,1,0
336,264,80245,1,8
336,264,80338,1,0
336,264,80432,1,0
424,320,80620,2,0,B|456:272|432:224,1,90,8|0
424,128,80995,1,8
336,72,81182,1,0
240,32,81370,22,0,B|208:80|232:128,1,90,4|0
128,80,81745,2,0,B|150:133|117:175,1,90,8|0
232,184,82120,2,0,B|200:232|224:280,1,90,0|0
120,232,82495,2,0,B|142:285|109:327,1,90,8|0
224,344,82870,5,0
224,344,83057,1,0
224,344,83245,1,8
328,344,83432,2,2,B|320:336|320:336|336:328|336:328|320:320|320:320|336:312|336:312|320:304|320:304|336:296|336:296|320:288|320:288|336:280|336:280|320:272|320:272|336:264|336:264|328:256|328:256|328:152,1,270,0|8
128,80,84370,5,4
232,48,84557,1,0
336,72,84745,1,8
408,152,84932,1,0
376,256,85120,2,0,B|328:248|312:192,1,90,0|0
232,128,85495,2,0,B|208:168|224:240,1,90,8|0
296,296,85870,5,0
376,224,86057,1,0
344,120,86245,1,8
344,120,86338,1,0
344,120,86432,1,0
280,208,86620,2,0,B|256:168|208:156,1,90,8|0
120,184,86995,2,0,B|104:136|132:96,2,90,8|0|4
256,192,92057,12,4,93370
312,120,93745,5,8
400,136,93932,1,0
416,224,94120,2,0,B|440:264|488:280,2,90,0|0|8
336,264,94682,2,0,B|320:312|284:340,2,90,0|0|0
272,200,95245,1,8
188,172,95432,2,0,B|140:152|124:112,1,90,0|0
84,32,95807,1,0
60,48,95901,1,0
44,72,95995,2,0,B|24:116|44:160,1,90,8|0
100,232,96370,5,0
276,212,96557,1,0
140,328,96932,1,0
184,152,97307,1,0
260,316,97682,1,0
348,340,97870,6,0,B|388:316|404:268,1,90,0|0
332,216,98245,2,0,B|356:172|344:128,1,90,8|0
256,136,98620,2,0,B|240:88|204:64,1,90,0|0
128,116,98995,2,0,B|84:96|40:112,1,90,8|0
4,192,99370,5,4
84,232,99557,1,0
84,232,99651,1,0
84,232,99745,1,8
168,200,99932,2,0,B|232:212|288:180|308:116,1,180,0|0
312,104,100401,1,0
316,92,100495,1,8
260,24,100682,1,0
200,92,100870,22,0,B|192:152|232:208|304:224,1,180,4|8
368,168,101432,2,0,B|428:136|500:152|500:152|488:108,1,180,0|0
416,52,101995,1,8
389,54,102088,1,0
362,60,102182,1,0
337,70,102276,1,0
313,82,102370,1,4
244,140,102557,1,0
328,176,102745,6,0,B|340:216|312:264,1,90,8|0
264,336,103120,2,0,B|224:316|176:328,1,90,0|0
136,248,103495,1,8
64,192,103682,1,0
64,192,104057,5,0
176,104,104245,1,8
288,192,104432,1,0
176,280,104620,1,0
64,192,104807,1,0
152,192,104995,6,0,B|196:160|240:192|240:192|328:192,1,180,8|4
408,256,105557,2,0,B|400:320|344:320,1,90,0|8
408,128,105932,2,0,B|400:64|344:64,1,90,0|0
324,192,106307,1,0
324,192,106401,1,0
324,192,106495,1,8
236,192,106682,1,0
104,116,106870,5,4
192,116,107057,1,0
280,116,107245,1,8
324,192,107432,2,0,B|400:136|496:164,1,180
512,76,107995,1,8
424,256,108182,1,0
360,72,108370,5,4
136,88,108745,1,4
152,312,109120,1,4
376,296,109495,1,4
320,224,109682,2,0,B|288:166|183:175|176:268,1,180,0|0
261,290,110245,1,8
224,100,110620,5,0
224,100,110807,1,0
224,100,110995,1,0
224,100,111182,1,0
256,192,111370,12,0,112495
232,192,112682,6,0,B|192:144|256:76|320:144|280:192,1,180,0|0
256,280,113245,1,8
168,248,113432,1,0
256,280,113620,5,0
344,248,113807,1,0
256,280,113995,5,8
256,192,114182,1,0
256,280,114370,5,4
80,256,114745,1,8
192,112,115120,1,0
116,160,115307,1,0
116,160,115401,1,0
116,160,115495,1,8
196,196,115682,5,0
216,280,115870,2,0,B|264:280|280:216,1,90,0|0
368,216,116245,2,0,B|360:160|288:120,1,90,8|8
288,56,116620,2,0,B|224:64|224:152,1,90,0|0
144,152,116995,2,0,B|160:208|232:200,1,90,8|0
304,160,117370,5,4
144,72,117745,1,8
136,248,118120,1,0
304,160,118307,1,0
304,160,118401,1,0
304,160,118495,1,8
248,96,118682,6,0,B|224:48|160:32,1,90,0|0
152,128,119057,2,0,B|104:136|64:192,1,90,0|8
80,264,119432,2,0,B|128:256|168:200,1,90,8|0
240,184,119807,2,0,B|256:232|328:248,1,90,0|8
352,256,120088,1,0
400,248,120182,1,0
440,224,120276,1,0
464,184,120370,5,4
288,136,120745,1,8
320,312,121120,1,0
328,224,121307,1,0
328,224,121401,1,0
328,224,121495,1,8
368,144,121682,6,0,B|360:88|304:64,2,90,0|0|0
328,224,122245,2,0,B|376:216|408:252,1,90,8|8
344,316,122620,2,0,B|252:332|172:280,1,180,0|8
140,196,123182,1,0
256,192,123370,12,8,124495
176,48,124870,5,0
400,112,125245,1,0
336,336,125620,1,0
112,272,125995,1,0
256,88,126370,5,4
168,248,126745,1,8
344,248,127120,1,0
256,216,127307,2,0,B|256:168,2,45,0|0|8
256,352,127682,6,0,B|304:364|348:348,2,90
396,276,128245,2,0,B|432:252|456:208,1,90,8|8
408,88,128620,2,0,B|368:104|348:152,2,90,0|0|8
408,88,129182,1,0
320,64,129370,5,4
336,240,129745,1,8
168,168,130120,1,0
256,192,130307,1,0
256,192,130401,1,0
256,192,130495,1,8
288,108,130682,5,0
220,52,130870,1,0
132,72,131057,1,0
104,156,131245,1,8
172,216,131432,1,8
256,192,131620,2,0,B|332:144|432:168,1,180,0|8
256,296,132370,5,4
432,248,132745,1,8
304,120,133120,1,0
320,208,133307,1,0
320,208,133401,1,0
320,208,133495,1,8
232,208,133682,5,0
224,208,133776,1,0
216,208,133870,1,0
208,208,133963,1,0
200,208,134057,1,0
192,208,134151,1,0
184,208,134245,2,0,B|96:208,1,90,8|8
40,280,134620,2,0,B|80:308|128:296,2,90,0|0|8
94,208,135182,1,0
112,120,135370,6,0,B|152:80|208:104,1,90,0|0
328,48,135745,2,0,B|368:88|344:144,1,90,8|0
400,264,136120,2,0,B|360:304|304:280,1,90,0|0
184,336,136495,2,0,B|144:296|168:240,1,90,8|0
148,144,136870,5,0
304,84,137057,1,0
364,240,137245,1,8
208,300,137432,1,0
184,160,137620,5,0
296,128,137807,1,0
328,240,137995,1,8
216,272,138182,1,0
256,192,138370,12,0,140995
