osu file format v5

[General]
AudioFilename: Buzz_2006_Live_&_Acoustic_Disc_1-19-Reds_Go_Together-Rock.mp3
AudioLeadIn: 0
PreviewTime: -1
Countdown: 1
SampleSet: Normal
StackLeniency: 0.7
Mode: 0
EditorBookmarks: 11999,37806,43558,106249,119802,157046,169135

[Metadata]
Title:Reds Go Together
Artist:Buzz
Creator:minyeob
Version:Normal

[Difficulty]
HPDrainRate:5
CircleSize:5
OverallDifficulty:5
SliderMultiplier:1.4
SliderTickRate:1

[Events]
//Background and Video events
//Break Periods
2,37616,42846
2,106157,119187
2,157148,168228
//Storyboard Layer 0 (Background)
//Storyboard Layer 1 (Failing)
//Storyboard Layer 2 (Passing)
//Storyboard Layer 3 (Foreground)
//Storyboard Sound Samples
//Background Colour Transformations
3,100,163,162,255

[TimingPoints]
3000,389.990250243744,4,1,0,100

[HitObjects]
256,64,12457,1,0
256,128,12847,1,0
256,192,13237,1,0
256,256,13627,1,0
256,320,14017,1,0
256,64,15577,5,0
256,128,15967,1,0
256,192,16357,1,0
256,256,16747,1,0
256,320,17137,1,0
192,256,18697,6,0,B|352:256,3,140
384,192,20062,1,0
320,192,20257,2,0,B|160:192,3,140
128,192,21622,1,0
128,256,21817,2,0,B|288:256,3,140
320,256,23181,1,0
320,192,23376,2,0,B|320:32,3,140
256,64,24936,5,0
256,128,25326,1,0
256,192,25716,1,0
256,256,26106,1,0
256,320,26496,1,0
256,64,28056,5,0
256,128,28446,1,0
256,192,28836,1,0
256,256,29226,1,0
256,320,29616,1,0
480,320,30786,6,0,B|480:160,1,140
480,128,31566,1,0
416,128,31956,1,0
352,128,32346,1,0
288,128,32736,2,0,B|288:288,3,140
256,320,34296,5,0
256,256,34686,1,0
256,192,35076,1,0
256,128,35466,1,0
256,64,35856,1,0
256,192,37026,5,0
256,192,37416,1,0
256,64,44046,5,0
256,128,44436,1,0
256,192,44826,1,0
192,192,45216,2,0,B|96:192,1,70
122,192,45606,2,0,B|32:192,1,70
32,256,45996,2,0,B|192:256,1,140
256,256,46776,5,0
320,256,47166,1,0
384,256,47556,1,0
448,256,47946,1,0
448,192,48336,2,0,B|64:32,1,385
96,128,49798,6,0,B|96:288,3,140
160,256,51163,1,0
160,192,51358,2,0,B|160:32,3,140
256,64,52918,5,0
256,128,53308,1,0
256,192,53698,1,0
256,256,54088,1,0
256,320,54478,1,0
64,320,56038,5,0
128,320,56428,1,0
192,320,56818,1,0
256,320,57208,1,0
320,320,57598,2,0,B|320:224,1,70
320,192,57988,1,0
320,192,58183,1,0
416,192,59256,6,0,B|128:192,3,280
256,64,62278,5,0
256,128,62668,1,0
256,192,63058,1,0
256,256,63448,1,0
256,320,63838,2,0,B|160:320,2,70
320,320,64618,1,0
320,256,65008,1,0
384,192,65203,1,0
320,192,65398,2,0,B|32:192,3,280
32,192,68518,5,0
96,192,68908,1,0
160,192,69298,1,0
224,192,69688,1,0
288,192,70078,2,0,B|384:192,1,70
416,192,70663,1,0
256,352,71638,5,0
256,288,72028,1,0
256,224,72418,1,0
256,160,72808,1,0
256,96,73198,2,0,B|256:0,3,70
480,32,74758,6,0,B|128:320,1,420
32,352,76318,2,0,B|288:0,1,420
320,32,77878,2,0,B|320:192,3,140
256,192,79438,12,0,80705
256,192,81095,6,0,B|256:32,3,140
320,64,82655,1,0
320,128,83045,1,0
320,128,83240,1,0
256,160,83825,5,0
256,224,84215,2,0,B|256:384,2,140
192,224,85385,1,0
192,224,85580,1,0
128,224,85775,1,0
64,224,86067,1,0
64,224,86262,1,0
64,352,86847,5,0
64,288,87237,2,0,B|224:96,1,245
224,32,88407,1,0
224,32,88602,1,0
288,64,88797,2,0,B|288:160,1,70
288,192,89187,1,0
288,192,89382,1,0
256,96,90357,5,0
160,160,90747,1,0
192,256,91137,1,0
320,256,91527,1,0
352,160,91917,1,0
480,352,93087,5,0
416,288,93477,2,0,B|192:96,1,280
160,64,94647,1,0
160,64,94842,1,0
160,128,95037,2,0,B|160:352,1,210
32,352,96207,5,0
96,288,96597,2,0,B|320:96,1,280
352,64,97767,1,0
352,64,97962,1,0
352,128,98157,2,0,B|352:352,1,210
128,192,99717,6,0,B|416:192,3,280
256,64,102837,5,0
160,128,103227,1,0
192,224,103617,1,0
320,224,104007,1,0
352,128,104397,1,0
256,160,105567,5,0
256,160,105957,1,0
256,64,119997,5,0
256,128,120387,1,0
256,192,120777,1,0
256,256,121167,1,0
256,320,121557,1,0
256,64,123116,5,0
256,128,123506,1,0
256,192,123896,1,0
256,256,124286,1,0
160,320,124676,2,0,B|448:320,1,280
416,256,125846,5,0
416,256,126041,1,0
352,256,126236,2,0,B|192:256,3,140
160,256,127601,1,0
160,192,127796,2,0,B|160:32,3,140
224,64,129356,2,0,B|448:320,1,315
352,288,130819,2,0,B|192:288,3,140
160,288,132379,5,0
160,224,132769,1,0
160,160,133159,1,0
160,96,133549,1,0
160,32,134036,2,0,B|256:32,2,70
160,32,134621,1,0
256,32,135206,5,0
256,32,135401,1,0
256,96,135596,2,0,B|256:256,3,140
256,288,137156,2,0,B|416:288,3,140
480,288,138716,6,0,B|416:96|224:32,1,350
160,96,140081,2,0,B|160:352|160:352|384:352,1,455
352,352,141544,1,0
416,352,141836,2,0,B|416:64,3,280
256,32,144858,5,0
256,96,145248,1,0
256,160,145638,1,0
256,224,146028,1,0
256,288,146418,1,0
256,288,146613,1,0
256,352,147003,1,0
256,32,148076,5,0
256,96,148466,1,0
256,160,148856,1,0
256,224,149246,1,0
256,288,149636,1,0
256,288,149831,1,0
256,352,150221,1,0
192,192,151098,6,0,B|352:192,11,140
256,256,155778,5,0
256,256,155973,1,0
256,256,156168,1,0
256,256,156363,1,0
256,256,156558,1,0
256,256,156753,1,0
256,256,156948,1,0
256,32,169428,5,0
256,96,169818,1,0
256,160,170988,1,0
256,160,171183,1,0
256,224,171475,1,0
256,288,171768,1,0
256,288,171963,1,0
256,352,172548,5,0
256,288,172938,2,0,B|256:128,7,140
64,64,176058,6,0,B|160:64,1,70
192,64,176448,2,0,B|288:64,1,70
320,64,176838,2,0,B|416:64,1,70
448,64,177228,2,0,B|448:160,1,70
448,192,177618,2,0,B|352:192,1,70
378,192,178008,1,0
378,192,178203,1,0
256,288,179275,5,0
256,224,179665,1,0
256,160,180055,1,0
256,96,180445,1,0
256,32,180835,1,0
256,192,181908,5,0
256,192,182298,1,0
256,192,182688,12,0,184637
256,256,185027,1,0
256,192,185417,1,0
256,128,186685,1,0
256,128,186880,1,0
256,192,187075,1,0
256,256,187465,1,0
256,256,187660,1,0
256,320,188245,5,0
256,256,188635,2,0,B|256:96,3,140
256,64,190195,1,0
320,64,190487,1,0
320,64,190682,1,0
256,288,191365,5,0
256,224,191657,2,0,B|256:64,2,140
320,224,192827,1,0
320,224,193022,1,0
384,224,193217,1,0
448,224,193607,1,0
448,224,193802,1,0
256,96,194777,5,0
160,160,195167,1,0
192,256,195557,1,0
320,256,195947,1,0
352,160,196337,1,0
256,256,197897,6,0,B|256:160,12,70
256,288,200627,1,0
256,288,201017,6,0,B|160:288,1,70
186,288,201407,2,0,B|160:192,1,70
167,220,201797,2,0,B|192:128,1,70
185,152,202187,2,0,B|256:128,1,70
251,129,202577,2,0,B|320:160,1,70
314,157,202967,2,0,B|352:224,1,70
348,217,203357,2,0,B|288:288,1,70
256,288,203747,1,0
256,192,204137,12,0,207257
256,32,208037,2,0,B|256:320,1,280
256,160,209889,5,0
256,160,210377,1,0
256,192,210864,12,0,213692
