osu file format v5

[General]
AudioFilename: Buzz_2006_Live_&_Acoustic_Disc_1-19-Reds_Go_Together-Rock.mp3
AudioLeadIn: 0
PreviewTime: -1
Countdown: 1
SampleSet: Normal
StackLeniency: 0.7
Mode: 0
EditorBookmarks: 11999,37806,43558,106249,119802,157046,169135

[Metadata]
Title:Reds Go Together
Artist:Buzz
Creator:minyeob
Version:Hard

[Difficulty]
HPDrainRate:5
CircleSize:5
OverallDifficulty:5
SliderMultiplier:1.4
SliderTickRate:1

[Events]
//Background and Video events
//Break Periods
2,37616,42846
2,106157,118797
2,157148,168228
//Storyboard Layer 0 (Background)
//Storyboard Layer 1 (Failing)
//Storyboard Layer 2 (Passing)
//Storyboard Layer 3 (Foreground)
//Storyboard Sound Samples
//Background Colour Transformations
3,100,163,162,255

[TimingPoints]
3000,389.990250243744,4,1,0,100

[HitObjects]
256,64,12457,1,0
256,128,12847,1,0
256,192,13237,1,0
256,256,13627,1,0
256,320,14017,2,0,B|96:320,3,140
128,256,15577,5,0
128,192,15967,1,0
128,128,16357,1,0
128,64,16747,1,0
128,64,16942,1,0
192,64,17137,2,0,B|352:64,3,140
256,64,18697,5,0
256,128,19087,1,0
256,192,19477,1,0
256,192,19867,1,0
192,192,20257,1,0
192,192,20452,1,0
192,192,20647,1,0
192,192,20842,1,0
128,256,21817,6,0,B|224:256,1,70
192,256,22207,2,0,B|192:160,1,70
192,186,22597,2,0,B|192:96,1,70
192,116,22987,2,0,B|192:32,1,70
192,46,23376,1,0
256,192,24546,5,0
256,128,24936,1,0
256,128,25131,1,0
256,128,25326,1,0
256,128,25521,1,0
320,128,25716,2,0,B|416:128,1,70
448,128,26106,2,0,B|448:224,1,70
448,256,26496,2,0,B|224:256,1,210
238,256,27276,1,0
238,256,27471,1,0
238,256,27666,1,0
256,192,28056,6,0,B|96:192,2,140
256,128,29226,1,0
256,128,29421,1,0
256,64,29616,2,0,B|352:64,1,70
384,64,30006,1,0
384,64,30201,1,0
448,64,30786,5,0
384,128,31176,2,0,B|160:320,3,280
160,256,33711,1,0
160,256,33906,1,0
160,256,34101,1,0
160,192,34296,6,0,B|160:96,1,70
160,64,34686,2,0,B|256:64,1,70
288,64,35076,2,0,B|384:64,1,70
416,64,35466,2,0,B|288:160,1,140
304,148,36246,1,0
304,148,36636,1,0
256,192,37026,5,0
256,192,37416,1,0
256,96,44046,5,0
256,160,44436,1,0
256,224,44826,1,0
256,288,45216,2,0,B|160:288,1,70
192,224,45606,2,0,B|192:128,1,70
192,96,45996,2,0,B|288:96,1,70
262,96,46386,1,0
352,96,46776,5,0
352,160,47166,1,0
352,224,47556,1,0
352,224,47751,1,0
288,224,48043,2,0,B|224:160,1,70
192,128,48433,1,0
192,128,48628,1,0
128,160,48823,2,0,B|32:192,1,70
64,256,49408,5,0
64,256,49603,1,0
128,256,49798,2,0,B|224:256,1,70
256,256,50188,1,0
256,256,50383,1,0
256,192,50578,2,0,B|256:96,1,70
256,64,50968,1,0
352,64,51358,5,0
352,128,51553,1,0
416,128,51748,1,0
416,192,51943,1,0
416,256,52138,2,0,B|320:256,3,70
288,256,52918,1,0
256,320,53113,1,0
224,256,53308,1,0
192,320,53503,1,0
160,256,53698,2,0,B|128:192,1,70
128,128,54088,2,0,B|160:64,1,70
159,65,54478,1,0
224,64,54868,1,0
288,64,55258,1,0
256,128,55648,5,0
256,128,55843,1,0
256,128,56038,1,0
256,192,56428,1,0
256,256,56818,1,0
256,320,57208,1,0
192,320,57598,2,0,B|96:320,1,70
128,256,57988,1,0
128,256,58183,1,0
128,192,58768,5,0
128,192,58963,1,0
192,192,59158,2,0,B|352:192,3,140
384,192,60523,1,0
384,160,60718,2,0,B|384:0,3,140
320,32,62278,5,0
320,32,62473,1,0
320,32,62668,1,0
320,32,62863,1,0
320,32,63058,2,0,B|320:128,2,70
256,192,63935,12,0,65398
256,32,66958,2,0,B|256:320,1,280
160,160,68323,6,0,B|160:64,1,70
224,96,68713,2,0,B|224:192,1,70
288,160,69103,2,0,B|288:64,1,70
352,96,69493,2,0,B|352:192,1,70
384,224,70078,2,0,B|160:224,1,210
128,224,70858,1,0
128,224,71053,1,0
128,224,71248,1,0
64,224,71638,6,0,B|128:288,1,70
160,256,72028,2,0,B|96:192,1,70
160,192,72418,2,0,B|224:256,1,70
256,224,72808,2,0,B|192:160,1,70
160,128,73198,2,0,B|288:32,1,140
288,64,73978,2,0,B|288:224,1,140
416,288,74758,5,0
416,224,74953,1,0
352,224,75148,1,0
352,288,75343,1,0
288,288,75538,2,0,B|128:288,1,140
96,288,76318,5,0
96,224,76513,1,0
96,160,76708,1,0
160,160,76903,1,0
224,160,77098,2,0,B|384:160,1,140
256,192,77878,12,0,79438
256,192,80608,1,0
256,128,80998,2,0,B|96:128,2,140
320,128,82168,1,0
320,128,82363,1,0
384,128,82558,2,0,B|448:192,1,70
480,224,82948,2,0,B|416:288,1,70
384,288,83727,5,0
320,288,84117,2,0,B|160:288,2,140
320,224,85287,2,0,B|320:128,1,70
320,96,85677,2,0,B|224:96,1,70
192,96,86067,1,0
192,96,86262,1,0
128,96,86847,5,0
128,160,87237,2,0,B|128:256,7,70
128,288,88797,1,0
128,288,88992,1,0
128,288,89187,1,0
128,288,89382,1,0
224,96,90357,5,0
288,96,90747,1,0
288,160,91137,1,0
224,160,91527,1,0
256,224,91917,2,0,B|256:384,3,140
320,352,93477,6,0,B|320:64,1,280
256,64,94647,1,0
256,64,94842,1,0
192,128,95037,2,0,B|32:288,1,210
256,320,96207,5,0
256,256,96597,2,0,B|32:64,1,280
96,64,97767,1,0
160,64,97962,1,0
224,64,98157,2,0,B|320:64,1,70
352,64,98547,2,0,B|448:64,1,70
480,64,99327,5,0
416,128,99717,2,0,B|192:320,3,280
160,320,102447,1,0
160,256,102837,1,0
160,192,103227,1,0
160,128,103617,1,0
160,128,104007,1,0
224,128,104397,2,0,B|448:320,1,280
256,288,105567,1,0
256,192,105957,1,0
256,32,119997,5,0
256,96,120387,1,0
256,160,120777,1,0
256,224,121167,1,0
256,288,121557,1,0
256,288,121752,1,0
256,352,122142,1,0
96,192,123116,5,0
96,192,123311,1,0
160,192,123506,1,0
160,192,123701,1,0
224,192,123896,1,0
224,192,124091,1,0
288,192,124286,1,0
288,192,124481,1,0
288,192,124676,2,0,B|448:192,3,140
448,128,126236,6,0,B|160:128,1,280
128,192,127699,6,0,B|416:192,1,280
416,256,129356,1,0
352,256,129746,1,0
352,256,129941,1,0
288,256,130331,1,0
224,256,130721,1,0
160,256,132086,5,0
160,256,132281,1,0
160,192,132476,2,0,B|160:96,1,70
160,122,132866,2,0,B|160:32,1,70
160,52,133256,2,0,B|256:96,1,70
223,81,133646,2,0,B|288:128,1,70
288,128,134036,2,0,B|288:352,1,210
224,320,135206,6,0,B|128:320,1,70
160,256,135596,2,0,B|256:256,1,70
224,192,135986,2,0,B|128:192,1,70
96,192,136376,1,0
96,192,136571,1,0
96,128,137156,2,0,B|384:128,1,280
448,128,138326,5,0
448,128,138521,1,0
384,192,138716,2,0,B|256:288,1,140
272,276,139496,2,0,B|128:192,1,140
151,205,140276,2,0,B|256:96,1,140
320,96,141056,1,0
320,96,141251,1,0
320,96,141446,1,0
256,192,141836,12,0,144566
256,96,144956,5,0
256,96,145346,1,0
256,160,145736,1,0
256,160,146126,1,0
256,224,146516,2,0,B|160:224,1,70
192,288,146906,2,0,B|288:288,1,70
320,288,147296,1,0
320,288,147491,1,0
320,288,147686,1,0
320,224,148076,6,0,B|320:64,3,140
320,96,149538,2,0,B|160:96,1,140
128,96,150318,1,0
128,96,150513,1,0
128,96,150708,1,0
128,192,151098,5,0
160,160,151293,1,0
192,192,151488,1,0
224,160,151683,1,0
256,192,151878,1,0
288,160,152073,1,0
320,192,152268,1,0
384,160,152658,6,0,B|384:320,3,140
256,192,154218,12,0,157046
256,96,169428,1,0
256,160,169818,2,0,B|160:160,1,70
186,160,170208,2,0,B|96:160,1,70
116,160,170598,2,0,B|288:160,1,140
320,160,171378,1,0
320,224,171768,1,0
320,224,171963,1,0
256,320,172548,5,0
256,256,172938,2,0,B|352:256,1,70
326,256,173328,2,0,B|416:256,1,70
396,256,173718,2,0,B|224:256,1,140
192,256,174498,1,0
128,256,174888,1,0
128,256,175083,1,0
256,320,175668,5,0
256,256,176058,2,0,B|192:224,1,70
193,224,176448,2,0,B|128:160,1,70
143,174,176838,2,0,B|192:96,1,70
180,114,177228,2,0,B|256:64,1,70
238,75,177618,2,0,B|320:128,1,70
296,112,178008,2,0,B|352:192,1,70
336,169,178398,2,0,B|288:224,1,70
256,256,178788,1,0
128,320,179178,5,0
128,256,179373,1,0
128,192,179568,1,0
192,192,179763,1,0
256,192,179958,1,0
256,128,180153,1,0
256,64,180348,1,0
320,64,180543,1,0
384,64,180738,2,0,B|384:224,2,140
256,192,182395,12,0,184637
256,64,185417,6,0,B|256:224,2,140
320,64,186587,1,0
320,64,186782,1,0
384,64,186977,2,0,B|384:288,1,210
192,320,188537,5,0
192,256,188732,1,0
192,192,188927,1,0
192,128,189122,1,0
192,64,189317,1,0
192,64,189512,1,0
192,64,189707,1,0
320,64,190097,5,0
320,128,190292,1,0
320,192,190487,1,0
320,256,190682,1,0
320,320,190877,1,0
320,320,191072,1,0
320,320,191267,1,0
256,320,191657,5,0
256,320,191852,1,0
256,320,192047,1,0
256,320,192242,1,0
256,256,192437,2,0,B|256:96,1,140
192,64,193217,2,0,B|352:64,3,140
256,192,194777,12,0,196337
256,64,197897,1,0
256,128,198092,1,0
256,192,198287,1,0
192,192,198482,1,0
128,192,198677,1,0
128,256,198872,1,0
128,320,199067,1,0
192,320,199262,1,0
256,320,199457,2,0,B|416:320,3,140
448,288,201017,6,0,B|384:224,1,70
398,238,201407,2,0,B|320:192,1,70
337,202,201797,2,0,B|288:128,1,70
298,143,202187,2,0,B|256:64,1,70
265,81,202577,2,0,B|192:128,1,70
206,118,202967,2,0,B|128:160,1,70
144,151,203357,2,0,B|256:256,1,140
256,192,204137,12,0,207257
256,96,208037,6,0,B|256:256,2,140
192,96,209207,1,0
192,160,209597,1,0
192,224,209987,1,0
256,224,210377,1,0
256,192,210864,12,0,213692
