osu file format v5

[General]
AudioFilename: Buzz_2006_Live_&_Acoustic_Disc_1-19-Reds_Go_Together-Rock.mp3
AudioLeadIn: 0
PreviewTime: -1
Countdown: 1
SampleSet: Normal
StackLeniency: 0.7
Mode: 0
EditorBookmarks: 11999,37806,43558,106249,119802,157046,169135

[Metadata]
Title:Reds Go Together
Artist:Buzz
Creator:minyeob
Version:Easy

[Difficulty]
HPDrainRate:5
CircleSize:4
OverallDifficulty:5
SliderMultiplier:1.4
SliderTickRate:1

[Events]
//Background and Video events
//Break Periods
2,37616,42846
2,106157,119187
2,156856,168228
//Storyboard Layer 0 (Background)
//Storyboard Layer 1 (Failing)
//Storyboard Layer 2 (Passing)
//Storyboard Layer 3 (Foreground)
//Storyboard Sound Samples
//Background Colour Transformations
3,100,163,162,255

[TimingPoints]
3000,389.990250243744,4,1,0,100

[HitObjects]
256,192,12067,1,0
256,192,12457,1,0
128,192,14017,2,0,B|416:192,1,280
256,320,15187,5,0
256,256,15577,1,0
128,192,17137,2,0,B|416:192,1,280
256,64,18307,5,0
256,128,18697,1,0
192,192,20257,2,0,B|352:192,3,140
256,64,21817,5,0
256,192,22597,1,0
256,320,23376,1,0
256,64,24546,5,0
256,128,24936,1,0
128,192,26496,2,0,B|416:192,1,280
256,320,27666,5,0
256,256,28056,1,0
256,192,29616,2,0,B|256:32,3,140
256,256,31176,5,0
32,192,32736,2,0,B|480:192,1,420
256,64,34296,5,0
256,192,35076,1,0
256,320,35856,1,0
256,192,37026,5,0
256,192,37416,1,0
256,96,44046,5,0
256,96,44436,1,0
256,96,44826,1,0
256,160,45216,2,0,B|256:384,1,210
32,192,46776,6,0,B|64:128|128:64|256:32|362:64|362:64,1,350
416,64,48336,2,0,B|416:352,1,280
192,256,49798,6,0,B|352:256,3,140
352,192,51358,6,0,B|192:192,3,140
256,128,52918,6,0,B|416:128,3,140
448,32,54478,6,0,B|448:320,1,280
256,320,56038,5,0
256,192,56818,1,0
256,64,57598,1,0
128,192,59256,2,0,B|416:192,3,280
256,64,62278,5,0
256,128,62668,2,0,B|256:288,1,140
128,320,63838,2,0,B|416:320,3,280
256,320,66958,6,0,B|256:160,3,140
256,96,68518,5,0
256,96,68908,1,0
256,192,69298,1,0
256,192,69688,1,0
64,256,70078,2,0,B|512:256,1,420
256,32,71638,6,0,B|256:192,3,140
480,224,73198,2,0,B|32:224,1,420
64,288,74758,2,0,B|512:288,1,420
480,224,76318,6,0,B|32:224,1,420
64,160,77878,2,0,B|96:64|224:32|448:32,1,420
480,96,79438,2,0,B|96:288,1,420
96,192,80998,6,0,B|96:32,2,140
160,192,82168,1,0
224,192,82558,2,0,B|224:352,1,140
288,320,83337,2,0,B|288:160,1,140
288,128,84117,6,0,B|448:128,2,140
224,128,85287,1,0
96,128,85677,1,0
96,192,86067,2,0,B|96:288,1,70
32,256,86847,5,0
32,320,87237,2,0,B|320:320,1,280
384,320,88797,2,0,B|384:96,1,210
256,64,90357,5,0
256,192,91137,1,0
256,320,91917,1,0
32,352,93087,5,0
96,288,93477,2,0,B|320:64,1,280
352,96,95037,1,0
416,96,95622,1,0
480,352,96207,5,0
416,288,96597,2,0,B|192:64,1,280
160,96,98157,1,0
96,96,98742,1,0
256,352,99327,5,0
256,288,99717,2,0,B|256:0,3,280
64,192,102837,5,0
256,192,103617,1,0
448,192,104397,1,0
256,192,105567,5,0
256,192,105957,1,0
256,64,120387,5,0
256,128,120777,1,0
256,192,121167,1,0
256,256,121557,1,0
256,64,123116,5,0
256,192,123896,1,0
256,320,124676,1,0
32,192,126236,6,0,B|544:192,4,490
256,64,132476,5,0
256,192,133256,1,0
256,320,134036,1,0
128,192,135499,6,0,B|416:192,3,280
256,64,138716,6,0,B|256:352,5,280
192,352,143201,2,0,B|32:352|32:64,1,350
32,32,144566,5,0
96,32,144956,2,0,B|384:32,3,280
448,32,147978,6,0,B|448:320,3,280
384,288,151098,6,0,B|32:32,1,420
384,32,152658,2,0,B|32:288,1,420
160,352,154218,2,0,B|160:288|160:192|288:160|352:224|352:288|503:195,1,420
480,160,155778,5,0
256,160,156558,1,0
256,192,169428,5,0
256,192,169818,1,0
256,256,170988,1,0
192,320,171378,2,0,B|352:320,3,140
256,192,172938,5,0
256,128,174108,1,0
192,64,174498,2,0,B|352:64,3,140
416,64,176058,6,0,B|64:352,1,420
416,320,177618,2,0,B|64:32,1,420
160,64,179178,2,0,B|448:64,3,280
256,192,182298,12,0,184637
256,320,185417,2,0,B|256:32,3,280
256,64,188537,5,0
256,128,189317,1,0
256,192,190097,1,0
256,256,190877,1,0
128,192,191657,5,0
256,192,192437,1,0
256,64,193217,1,0
256,320,193997,1,0
384,192,194777,1,0
256,192,195557,1,0
256,192,196337,1,0
256,320,197507,5,0
256,256,197897,2,0,B|256:96,3,140
320,128,199457,2,0,B|480:128,3,140
480,192,201017,2,0,B|480:352,3,140
416,288,202577,2,0,B|288:192,3,140
256,192,204137,1,0
256,192,204624,12,0,207257
256,64,208037,2,0,B|256:352,1,280
256,128,209987,1,0
256,192,210377,1,0
256,192,210864,12,0,213692
