osu file format v5

[General]
AudioFilename: Twin_Spica_-_Venus_Say.mp3
AudioLeadIn: 0
PreviewTime: -1
Countdown: 1
SampleSet: Normal
StackLeniency: 0.7
Mode: 0
LetterboxInBreaks: 1

[Editor]
Bookmarks: 8202,106295
DistanceSpacing: 0.800000011920929
BeatDivisor: 2
GridSize: 32

[Metadata]
Title:Venus Say
Artist:Buzy
Creator:gfbrd
Version:Easy
Source:Twin Spica
Tags:Venus Say

[Difficulty]
HPDrainRate:4
CircleSize:3
OverallDifficulty:3
SliderMultiplier:1.1
SliderTickRate:1

[Events]
//Background and Video events
0,0,"3516331231_cc8b6b8379.jpg"
//Break Periods
2,68897,85957
//Storyboard Layer 0 (Background)
//Storyboard Layer 1 (Fail)
//Storyboard Layer 2 (Pass)
//Storyboard Layer 3 (Foreground)
//Storyboard Sound Samples
//Background Colour Transformations
3,100,163,162,255

[TimingPoints]
941,472.44094488189,4,1,0,60,1,0

[HitObjects]
32,64,8027,2,0,B|192:64,1,110
288,64,8972,1,0
288,64,9208,1,0
448,64,9444,2,0,B|448:160,1,55
447,269,10153,6,0,B|287:269,1,110
248,269,10862,1,0
209,258,11098,1,0
171,233,11334,1,0
152,189,11570,1,0
256,128,11807,2,2,L|96:128,3,110
32,128,14169,5,2
32,128,14405,1,8
32,288,14878,6,2,L|128:288,2,55
448,288,15822,6,2,L|448:192,2,55
384,96,16767,6,2,L|480:96,2,55
256,192,17712,6,2,L|256:288,2,55
256,64,18421,1,8
220,74,18657,1,8
180,98,18893,1,8
148,134,19129,1,8
134,177,19366,1,0
128,288,19838,1,0
256,288,20311,1,0
384,288,20783,1,0
384,160,21255,1,0
256,160,21728,1,0
256,160,21964,1,0
96,160,22893,5,2
96,128,23145,1,8
146,61,23381,2,0,L|58:63,2,55,2|8|0
256,64,24326,6,2,L|256:160,2,55,2|10|2
128,192,25271,6,0,L|224:192,6,55,2|8|2|8|2|8|2
384,192,27161,6,0,L|288:192,2,55,2|8|2
256,320,28106,6,0,B|256:224,2,55
128,320,29051,5,2
32,256,29287,1,8
128,192,29523,1,2
256,192,29759,2,0,L|352:192,2,55,2|8|2
256,320,30468,1,8
384,320,30941,5,2
480,224,31172,1,8
384,128,31403,1,2
256,128,31885,6,0,L|160:128,2,55,2|8|2
256,256,32830,5,2
160,256,33061,1,8
88,193,33291,1,2
84,96,33539,2,0,B|276:96,1,165
384,96,34720,5,2
384,128,34951,1,8
384,160,35182,1,2
384,256,35665,5,2
352,256,35896,1,8
320,256,36127,1,2
224,256,36610,5,2
160,192,36846,1,8
160,192,37082,1,2
224,96,37318,2,0,L|128:96,3,55,2|8|2|8
288,96,38263,1,2
288,96,38500,1,8
352,96,38736,5,2
379,127,38967,1,8
389,170,39203,1,2
390,209,39440,1,0
338,271,39676,2,0,L|434:271,4,55,2|8|2|8|2
228,272,40884,1,2
228,272,41120,1,8
96,64,41807,5,2
96,64,42038,1,8
256,64,42752,5,2
256,64,42988,1,8
416,128,43696,6,0,L|416:32,5,55,2|8|2|8|2|8
416,288,45586,5,2
416,288,45822,1,8
256,288,46531,5,2
256,288,46767,1,8
128,288,47476,5,2
64,224,47712,1,8
128,160,47948,1,2
256,160,48421,5,2
256,160,48657,1,8
416,160,49366,5,2
384,125,49602,1,8
351,104,49838,1,2
312,94,50074,1,8
272,94,50311,1,2
236,99,50547,1,8
199,110,50783,1,2
256,192,51019,12,0,52909
352,288,53145,5,2
352,288,53375,1,8
160,288,54090,5,2
160,288,54326,1,8
160,192,55035,5,2
160,160,55271,1,8
160,128,55507,1,2
215,49,55744,2,8,B|119:49,2,55
352,64,56950,5,2
352,64,57161,1,8
352,288,57870,5,2
352,288,58106,1,8
192,288,58815,6,0,L|288:288,5,55,2|8|2|8|2|8
64,288,60704,5,2
64,288,60941,1,8
64,96,61649,5,2
64,96,61885,1,8
192,96,62594,5,2
231,103,62830,1,8
256,137,63066,1,2
260,175,63303,1,8
232,211,63539,1,2
182,212,63775,1,8
67,216,64484,5,2
67,216,64715,1,8
192,224,65192,5,8
215,266,65429,1,2
260,285,65665,1,8
310,280,65901,1,10
342,247,66137,1,8
347,205,66374,1,8
332,171,66610,1,2
297,141,66846,1,4
256,192,67082,12,4,68697
416,64,87397,6,0,L|320:64,2,55,2|8|2
416,160,88342,5,0
416,160,88578,1,0
416,256,88815,1,0
416,256,89051,1,0
300,202,89523,6,0,L|300:298,2,55,2|8|2
299,122,90232,1,2
299,122,90468,1,8
56,119,91177,2,2,L|216:119,3,110,2|8|2|8
288,128,93066,1,8
416,128,93539,5,2
416,128,93775,1,8
352,256,94248,6,0,L|448:256,2,55,2|8|2
256,256,95192,5,2
218,253,95429,1,8
187,238,95665,1,2
160,214,95901,1,8
136,188,96137,1,2
121,151,96374,1,8
131,118,96610,1,2
320,96,97082,2,2,B|128:96,1,165
160,192,98027,1,2
160,224,98263,1,2
288,224,98736,6,0,B|512:128|512:224|384:320|320:128|288:96,1,440
192,64,101098,5,2
128,96,101334,1,8
192,128,101570,1,8
128,160,101806,1,8
192,192,102043,1,2
128,224,102279,1,8
128,320,102515,5,2
320,320,102988,5,2
320,192,103460,5,2
320,192,103696,1,8
320,160,103933,1,0
320,64,104405,1,0
160,64,105114,5,2
160,64,105350,1,8
160,256,106059,5,2
160,256,106296,1,8
256,192,106531,12,4,107948
