osu file format v9

[General]
AudioFilename: Buta-Otome - Machibito wa Kozu.mp3
AudioLeadIn: 0
PreviewTime: 56640
Countdown: 0
SampleSet: Normal
StackLeniency: 0.3
Mode: 0
LetterboxInBreaks: 1

[Editor]
DistanceSpacing: 1
BeatDivisor: 4
GridSize: 8

[Metadata]
Title:Machibito wa Kozu
Artist:Buta-Otome
Creator:l3lueskyiiz
Version:Lunatic
Source:Touhou
Tags:tatara kogasa beware the umbrella left there forever

[Difficulty]
HPDrainRate:6
CircleSize:4
OverallDifficulty:7
ApproachRate:8
SliderMultiplier:2
SliderTickRate:1

[Events]
//Background and Video events
Video,0,"Buta-Otome - Machi-bito wa Kitazu.flv"
0,0,"kogasa.jpg"
//Break Periods
2,81239,85726
2,93239,104289
2,174215,182265
//Storyboard Layer 0 (Background)
//Storyboard Layer 1 (Fail)
//Storyboard Layer 2 (Pass)
//Storyboard Layer 3 (Foreground)
//Storyboard Sound Samples
//Background Colour Transformations
3,100,128,223,255

[TimingPoints]
15039,375,4,1,1,50,1,0
15039,-200,4,2,1,21,0,0
25539,-100,4,1,1,40,0,0
27039,-100,4,1,1,50,0,1
27132,-100,4,1,1,40,0,0
39414,-100,4,1,1,30,0,0
55539,-100,4,1,1,0,0,0
56664,-100,4,1,1,20,0,0
57039,-100,4,1,1,40,0,1
79539,-100,4,1,1,0,0,1
81039,-100,4,1,1,40,0,0
117414,-100,4,1,1,30,0,0
133539,-100,4,1,1,0,0,0
134664,-100,4,1,1,20,0,0
135039,-100,4,1,1,39,0,1
157539,-100,4,1,1,0,0,1
159039,-200,4,1,1,30,0,0
164289,-100,4,1,1,41,0,0
170945,-100,4,1,2,40,0,0
173101,1500,4,1,1,31,1,0
174015,375,4,1,1,21,1,0
183015,-200,4,1,1,21,0,0
185452,-200,4,1,1,5,0,0
185640,-100,4,1,1,20,0,0
186015,-100,4,1,1,40,0,1
198039,-100,4,1,1,41,0,0

[Colours]
Combo1 : 0,146,253
Combo2 : 242,36,0

[HitObjects]
216,80,15039,2,0,B|64:112|200:264,1,200,0|2
256,192,16164,1,0
343,233,16539,2,0,B|448:120|296:88,1,200,0|2
256,192,17664,1,0
176,248,18039,2,0,B|96:336,1,100
336,248,18789,2,0,B|416:336,1,100,2|0
256,216,19539,2,0,B|256:376,2,150
200,136,21039,6,0,B|224:96|256:80|296:96|320:144,1,150
320,192,21789,2,0,B|299:233|259:249|227:233|203:193,1,150,2|0
256,304,22726,2,0,B|256:368,2,50
192,272,23289,1,2
256,208,23476,1,0
320,272,23664,1,0
376,176,24039,6,0,B|376:80|272:80,1,150
232,80,24789,2,0,B|140:79|140:175,1,150,2|0
168,272,25539,5,8
256,224,25726,1,0
256,216,25820,1,0
256,208,25914,1,0
336,272,26101,1,8
256,336,26289,1,0
256,344,26382,1,0
256,352,26476,1,0
256,248,26664,5,0
256,248,26851,1,0
256,248,27039,2,0,B|360:192|352:64,1,200,0|8
264,128,27601,1,0
216,40,27789,1,0
184,136,27976,1,0
104,72,28164,2,0,B|11:125|22:243,1,200,8|0
72,328,28726,5,0
136,248,28914,1,8
144,248,29007,1,0
152,248,29101,2,0,B|256:248,1,100,8|0
320,320,29476,2,0,B|192:320,1,100,0|8
344,232,29851,5,0
344,232,30039,2,0,B|440:176|440:64,2,200,0|8|0
296,128,30976,1,0
296,128,31164,2,0,B|224:48,1,100,8|0
128,168,31539,2,0,B|120:280,1,100
264,320,31914,2,0,B|376:360,1,100,8|0
416,224,32289,1,0
416,224,32476,1,0
376,128,32664,1,8
368,128,32757,1,0
360,128,32851,1,8
352,128,32945,1,0
344,128,33039,6,0,B|240:72|120:120,1,200,4|8
192,200,33601,1,0
288,224,33789,2,0,B|272:336|136:352,1,200,0|8
120,256,34351,2,0,B|16:256,1,100
72,168,34726,5,0
128,88,34914,1,8
224,88,35101,1,0
280,168,35289,1,0
224,248,35476,1,0
120,248,35664,1,8
176,168,35851,5,0
224,88,36039,2,0,B|320:32|448:56,1,200,0|8
392,144,36601,1,0
456,224,36789,2,0,B|424:328|304:336,1,200,0|8
224,208,37351,1,0
128,224,37539,1,0
192,296,37726,1,0
288,256,37914,5,8
296,248,38007,1,0
304,240,38101,2,0,B|360:200|320:112,1,100,8|0
256,88,38476,1,0
200,168,38664,1,8
192,176,38757,1,0
184,184,38851,2,0,B|128:224|168:312,1,100,8|4
352,320,39414,5,8
448,320,39601,1,2
504,232,39789,1,2
456,144,39976,1,0
352,144,40164,1,8
304,232,40351,1,0
408,232,40539,1,2
200,56,40914,5,8
104,56,41101,1,2
48,144,41289,1,2
96,232,41476,1,0
200,232,41664,1,8
248,144,41851,1,0
144,144,42039,1,2
400,296,42414,6,0,B|280:296,1,100,8|2
368,224,42789,2,0,B|480:224,1,100,2|0
400,152,43164,2,0,B|288:152,1,100,8|0
368,80,43539,1,2
280,32,43726,5,0
184,64,43914,1,8
184,72,44007,1,0
184,80,44101,2,0,B|184:192,1,100,8|0
224,272,44476,1,0
320,240,44664,1,8
320,232,44757,1,0
320,224,44851,2,0,B|320:96,1,100,8|4
152,232,45414,5,8
224,104,45601,1,2
360,168,45789,1,2
288,304,45976,1,0
256,208,46164,1,8
256,208,46351,1,0
256,208,46539,1,2
96,232,46914,5,8
224,48,47101,1,2
416,168,47289,1,2
288,352,47476,1,0
256,208,47664,1,8
256,208,47851,1,0
256,208,48039,1,2
392,64,48414,6,0,B|312:152,1,100,8|2
400,336,48789,2,0,B|304:256,1,100,2|0
112,336,49164,2,0,B|192:264,1,100,8|0
120,72,49539,2,0,B|208:160,1,100
328,136,49914,5,8
320,272,50101,1,2
184,272,50289,1,2
192,136,50476,1,0
256,208,50664,1,8
256,208,50757,1,0
256,208,50851,1,0
256,208,51039,1,4
392,64,51414,6,0,B|264:56,1,100,8|0
160,128,51789,2,0,B|272:136,1,100
144,232,52164,2,0,B|48:272,1,100,8|0
200,296,52539,2,0,B|312:352,1,100
376,216,52914,2,0,B|248:224,1,100,8|0
296,72,53289,2,0,B|374:133,1,100
224,144,53664,5,8
224,144,53757,1,0
224,144,53851,1,0
88,80,54039,1,4
256,192,54226,8,0,55539
360,288,56851,5,0
392,248,56945,1,0
408,200,57039,2,0,B|408:64|264:64,1,200,4|8
288,168,57601,1,0
200,120,57789,1,8
192,128,57882,1,8
184,136,57976,2,0,B|104:216,1,100,0|8
208,232,58351,2,0,B|208:360,1,100
112,304,58726,5,0
40,240,58914,1,8
40,232,59007,1,0
40,224,59101,2,0,B|16:168|56:104,1,100,8|0
128,80,59476,5,0
280,56,59664,1,8
168,160,59851,1,0
312,192,60039,5,8
320,200,60132,1,0
328,208,60226,2,0,B|376:248|376:320,1,100,8|8
224,288,60601,2,0,B|184:336|112:336,1,100
136,184,60976,2,0,B|88:144|88:72,1,100,0|8
240,88,61351,2,0,B|280:40|352:40,1,100
408,96,61726,5,0
368,192,61914,1,8
368,200,62007,1,0
368,208,62101,1,8
416,296,62289,1,0
272,272,62476,1,0
240,176,62664,1,8
232,168,62757,1,8
224,160,62851,1,8
216,152,62945,1,8
208,144,63039,6,0,B|96:112|-8:192,1,200,4|8
80,256,63601,2,0,B|80:360,1,100
160,296,63976,1,0
232,336,64164,1,0
240,336,64257,1,8
248,336,64351,1,0
248,232,64539,1,0
320,296,64726,2,0,B|408:360,1,100,0|8
392,256,65101,2,0,B|448:240|464:184,1,100
360,80,65476,5,0
216,128,65664,1,8
248,224,65851,1,0
200,312,66039,5,4
200,312,66226,2,0,B|56:312,1,100,0|8
168,240,66601,2,0,B|56:240,1,100,0|4
104,144,66976,6,0,B|104:32,1,100,0|8
176,112,67351,2,0,B|176:-8,1,100,0|4
256,72,67726,5,0
312,152,67914,1,8
312,160,68007,1,0
312,168,68101,1,8
408,136,68289,1,0
376,232,68476,1,0
472,248,68664,1,8
472,256,68757,1,8
472,264,68851,1,8
472,272,68945,1,8
472,280,69039,6,0,B|400:352|264:336,1,200,4|8
256,240,69601,1,0
184,312,69789,1,8
176,312,69882,1,0
168,312,69976,1,8
152,216,70164,2,0,B|48:216,1,100,8|0
80,120,70539,1,8
80,112,70632,1,0
80,104,70726,2,0,B|192:16,1,100,0|8
158,42,71101,1,0
256,72,71289,5,0
208,216,71476,1,0
336,128,71664,1,8
184,128,71851,1,0
304,216,72039,1,8
312,224,72132,1,0
320,232,72226,2,0,B|408:304,1,100,0|8
440,208,72601,5,0
400,112,72789,1,8
392,104,72882,1,0
384,96,72976,2,0,B|256:96,1,100,0|8
200,152,73351,5,0
160,256,73539,1,8
152,264,73632,1,0
144,272,73726,1,8
136,280,73820,1,0
128,288,73914,1,8
72,208,74101,5,0
112,64,74289,1,0
184,192,74476,1,0
272,312,74664,1,8
368,192,74851,1,0
256,88,75039,6,0,B|384:24,1,100,4|0
424,168,75414,2,0,B|320:128,1,100,8|0
376,272,75789,2,0,B|296:344,1,100
184,240,76164,2,0,B|304:224,1,100,8|0
168,128,76539,5,0
168,128,76726,1,0
48,216,76914,1,8
48,216,77101,1,0
104,304,77289,2,0,B|224:352,2,100,0|0|8
232,224,77851,1,0
104,304,78039,1,4
96,304,78132,1,0
88,304,78226,1,8
256,192,78414,8,0,79539
256,192,79632,8,4,81039
256,88,86476,5,0
256,192,86664,1,8
256,192,86757,1,0
256,192,86851,1,8
256,296,87039,1,4
400,256,87320,5,0
400,256,87414,1,8
464,184,87601,2,0,B|464:80,1,100
376,32,87976,1,0
376,32,88070,1,0
376,32,88164,1,8
376,128,88351,1,0
376,128,88539,1,0
120,40,88820,5,0
120,40,88914,1,8
56,112,89101,2,0,B|56:216,1,100
144,264,89476,1,0
144,264,89570,1,0
144,264,89664,1,8
200,184,89851,1,0
424,208,90039,6,0,B|488:320,1,100
328,336,90414,2,0,B|200:336,1,100,8|0
104,256,90789,2,0,B|64:128,1,100
192,64,91164,1,8
272,192,91351,5,0
272,192,91445,1,0
272,192,91539,2,0,B|344:96,1,100,4|0
368,80,91820,2,0,B|448:232,1,150,4|0
456,256,92195,1,4
328,336,92476,5,0
302,335,92570,1,0
287,315,92664,1,8
262,315,92757,1,0
247,294,92851,1,8
222,294,92945,1,0
201,284,93039,1,4
88,216,105039,6,0,B|104:104|224:48,1,200,4|8
208,160,105601,1,0
280,232,105789,1,8
280,240,105882,1,0
280,248,105976,1,8
320,160,106164,2,0,B|424:192|464:304,1,200,8|0
360,304,106726,2,0,B|264:360,1,100,0|8
192,296,107101,2,0,B|104:352,1,100
72,256,107476,1,0
112,168,107664,6,8,B|328:168,2,200,8|8|8
160,80,108601,1,0
264,80,108789,2,0,B|176:0,1,100
288,16,109164,2,0,B|368:80,1,100,8|0
448,136,109539,1,0
448,232,109726,1,0
344,232,109914,1,8
344,136,110101,1,0
488,184,110289,5,0
400,272,110476,1,0
304,184,110664,1,8
392,96,110851,1,0
344,232,111039,2,0,B|296:320|152:328,1,200,4|8
184,224,111601,5,0
80,224,111789,2,0,B|32:112,2,100,0|0|8
184,224,112351,1,0
144,136,112539,1,8
152,136,112632,1,0
160,136,112726,2,0,B|208:112|224:48,1,100,0|8
368,48,113101,5,0
280,168,113289,1,0
424,128,113476,1,0
280,80,113664,1,8
368,200,113851,1,0
392,296,114039,6,0,B|488:352,2,100,0|0|8
304,256,114601,1,0
224,320,114789,1,8
216,320,114882,1,0
208,320,114976,2,0,B|88:320,1,100,0|8
160,232,115351,1,0
256,104,115539,6,0,B|256:-8,1,100
328,136,115914,2,0,B|448:136,1,100,8|0
296,216,116289,2,0,B|392:312,1,100
224,216,116664,1,8
224,216,116757,1,0
224,216,116851,1,0
184,136,117039,1,4
424,320,117414,6,0,B|424:200,1,100,8|2
328,248,117789,2,0,B|328:120,1,100,2|0
400,72,118164,1,8
400,72,118351,1,0
400,72,118539,1,2
104,64,118914,6,0,B|104:184,1,100,8|2
200,144,119289,2,0,B|200:272,1,100,2|0
112,288,119664,1,8
112,288,119851,1,0
112,288,120039,1,2
352,112,120414,5,8
304,24,120601,1,2
200,24,120789,1,2
256,112,120976,1,0
152,112,121164,1,8
200,200,121351,1,0
304,200,121539,1,2
400,344,121914,6,0,B|312:264,1,100,8|2
256,344,122289,2,2,B|256:224,1,100,2|8
112,344,122664,2,0,B|200:264,1,100,8|2
256,208,123039,1,4
256,8,123414,6,0,B|256:112,1,100,8|2
352,80,123789,2,0,B|432:176,1,100,2|0
160,80,124164,2,0,B|96:168,1,100,8|0
120,256,124539,5,2
200,320,124726,1,0
304,320,124914,1,8
384,264,125101,1,2
256,240,125289,2,0,B|256:128,2,100,2|0|8
256,240,125851,1,0
352,208,126039,6,0,B|424:88|288:32,1,200,2|8
208,40,126601,2,0,B|93:86|165:206,1,200,2|0
256,240,127164,1,8
336,152,127351,1,0
256,64,127539,1,2
176,152,127726,1,0
368,248,127914,5,8
368,40,128101,1,2
144,40,128289,1,2
144,248,128476,1,0
256,152,128664,5,8
256,152,128757,1,0
256,152,128851,1,8
256,256,129039,2,0,B|272:320|368:328,1,100,4|0
400,192,129414,2,0,B|464:176|472:80,1,100,8|0
328,64,129789,2,0,B|312:0|216:-8,1,100
136,88,130164,2,0,B|72:104|64:200,1,100,8|0
128,272,130539,5,0
168,152,130726,1,0
256,248,130914,1,8
344,152,131101,1,0
400,272,131289,1,0
256,328,131476,5,0
256,320,131570,1,0
256,312,131664,1,8
256,304,131757,1,0
256,296,131851,1,0
256,288,131945,1,0
256,280,132039,1,4
256,192,132226,8,0,133539
352,296,134851,5,0
304,296,134945,1,0
256,296,135039,2,0,B|144:280|104:160,1,200,4|8
208,168,135601,1,0
152,88,135789,1,8
160,88,135882,1,0
168,88,135976,2,0,B|216:64|272:96,1,100,0|8
368,88,136351,1,0
424,168,136539,2,0,B|472:296,1,100
384,328,136914,5,8
384,328,137101,1,0
320,256,137289,1,8
312,256,137382,1,0
304,256,137476,2,0,B|200:256,1,100,0|8
128,328,137851,1,0
72,248,138039,1,8
64,240,138132,1,0
56,232,138226,2,0,B|16:176|88:104,1,100,0|8
160,144,138601,6,0,B|203:181|163:237,1,100
16,232,138976,2,0,B|-24:176|48:104,1,100,0|8
200,144,139351,2,0,B|243:181|203:237,1,100
112,112,139726,5,0
112,264,139914,1,8
112,80,140101,1,0
112,296,140289,1,0
8,192,140476,5,0
208,192,140664,1,8
8,192,140851,1,0
208,192,141039,6,0,B|320:152|360:56,1,200,4|8
408,152,141601,1,0
464,232,141789,1,8
456,240,141882,1,0
448,248,141976,2,0,B|360:328,1,100,8|8
304,240,142351,1,0
232,312,142539,2,0,B|152:232,2,100,0|0|8
304,240,143101,1,0
360,96,143289,5,0
216,128,143476,1,0
304,240,143664,1,8
328,336,143851,5,0
232,312,144039,2,0,B|120:312,1,100,4|0
184,224,144414,1,8
184,216,144507,1,0
184,208,144601,1,0
104,144,144789,6,0,B|104:280,1,100,4|0
8,216,145164,1,8
16,216,145257,1,0
24,216,145351,1,0
48,312,145539,2,0,B|152:352,1,100,4|0
280,280,145914,2,0,B|152:288,1,100,8|0
160,136,146289,2,0,B|112:240,1,100
264,184,146664,1,8
280,168,146757,1,0
304,176,146851,1,8
320,160,146945,1,0
344,168,147039,6,0,B|440:112|416:-24,1,200,0|8
336,48,147601,1,0
240,64,147789,1,8
232,72,147882,1,0
224,80,147976,2,0,B|168:112|168:200,1,100,8|8
88,216,148351,2,0,B|120:272|208:272,1,100
256,216,148726,1,0
344,168,148914,2,0,B|304:288,1,100,8|0
408,248,149289,2,0,B|336:336,1,100
248,336,149664,5,8
120,256,149851,1,0
224,144,150039,1,8
216,136,150132,1,0
208,128,150226,2,0,B|128:40,1,100,0|8
112,152,150601,1,0
112,152,150695,1,0
112,152,150789,2,0,B|168:272,1,100
154,242,151164,1,8
304,272,151351,5,0
304,272,151539,2,0,B|184:328,1,100
213,314,151914,1,8
248,168,152101,1,0
248,168,152289,2,0,B|368:112,1,100
339,126,152664,1,8
208,56,152851,1,0
339,126,153039,6,0,B|440:176|472:296,1,200,4|8
368,256,153601,1,0
304,336,153789,1,8
296,336,153882,1,0
288,336,153976,2,0,B|160:336,1,100,8|8
240,248,154351,2,0,B|112:248,1,100
168,152,154726,5,0
72,168,154914,1,8
136,248,155101,1,0
168,152,155289,2,0,B|96:40,2,100,0|0|8
248,96,155851,2,0,B|320:200,1,100,0|4
312,184,156132,1,0
320,192,156226,1,8
256,192,156414,8,0,157539
256,192,157632,8,4,159039
176,304,160539,6,0,B|256:336|344:304,2,150
224,256,161851,1,0
224,256,162039,2,0,B|184:200|232:152,1,100
288,168,162601,2,0,B|320:208|288:264,1,100
289,261,163164,5,0
400,192,163539,1,0
256,56,163914,1,0
112,192,164289,1,0
176,272,164476,1,0
72,272,164664,1,8
64,280,164757,1,0
56,288,164851,1,8
48,296,164945,1,0
40,304,165039,1,4
208,200,165414,6,0,B|168:88,1,100,8|0
174,105,165789,1,0
264,72,165976,1,0
272,80,166070,1,0
280,88,166164,1,8
368,136,166351,5,0
408,280,166539,1,0
480,152,166726,1,0
352,232,166914,5,8
288,312,167101,2,0,B|176:312,1,100
128,232,167476,2,0,B|72:192,2,50,0|0|8
160,136,167851,1,0
256,24,168039,5,4
384,104,168226,1,0
384,256,168414,1,8
256,336,168601,1,0
128,256,168789,1,0
128,104,168976,1,0
256,184,169164,5,8
256,184,169351,2,0,B|256:80,1,100
256,184,169726,2,0,B|256:288,1,100,0|8
256,184,170101,2,0,B|144:184,1,100
256,184,170476,2,0,B|368:184,1,100,0|8
256,184,170851,1,0
184,56,171039,5,2
336,56,171226,1,2
256,344,171601,2,2,B|144:320|112:200,1,200
256,344,172351,2,2,B|368:320|400:200,1,200
256,72,173101,1,2
256,72,173265,2,0,B|256:208,1,100,0|4
208,192,183015,6,0,B|160:176|144:128,2,75,2|0|2
304,192,183765,2,0,B|352:176|368:128,2,75,2|0|2
256,144,184515,2,0,B|256:56,2,75,2|0|2
256,144,185265,1,0
256,192,185452,5,0
168,240,185640,1,0
256,288,185827,1,0
344,240,186015,6,0,B|440:192,1,100,4|0
336,168,186390,2,0,B|392:72,1,100,8|0
168,240,186765,2,0,B|72:192,1,100
176,168,187140,2,0,B|120:72,1,100,8|0
224,96,187515,5,0
256,192,187702,1,0
288,96,187890,1,8
256,192,188077,1,0
256,296,188265,1,8
256,304,188358,1,0
256,312,188452,1,0
152,312,188640,5,8
80,248,188827,1,0
80,144,189015,1,0
72,144,189108,1,8
64,144,189202,1,0
200,64,189390,1,8
312,64,189577,1,0
432,144,189765,1,0
440,144,189858,1,8
448,144,189952,1,0
432,240,190140,1,8
360,312,190327,1,0
256,272,190515,5,8
240,248,190608,1,0
264,232,190702,1,8
240,224,190796,1,0
264,208,190890,1,8
160,144,191077,1,0
240,56,191265,1,0
336,128,191452,1,0
184,216,191640,5,8
144,64,191827,1,0
336,40,192015,2,0,B|440:72|464:192,1,200,4|8
432,280,192577,5,0
432,280,192765,2,0,B|312:280,1,100
408,344,193140,2,0,B|288:344,1,100,8|0
72,344,193515,6,0,B|192:344,1,100
96,280,193890,2,0,B|216:280,1,100,8|0
208,184,194265,5,0
256,40,194452,1,0
304,184,194640,1,8
184,96,194827,1,0
336,96,195015,5,8
344,96,195108,1,0
352,96,195202,1,8
432,160,195390,1,8
392,248,195577,1,8
400,248,195671,1,0
408,248,195765,1,8
344,320,195952,1,8
352,320,196046,1,0
360,320,196140,1,8
256,288,196327,1,0
168,320,196515,5,8
160,320,196608,1,0
152,320,196702,1,8
120,248,196890,1,8
112,160,197077,1,8
104,160,197171,1,0
96,160,197265,1,8
184,96,197452,1,0
256,168,197640,1,8
256,168,197733,1,0
256,168,197827,1,8
256,168,197921,1,0
256,168,198015,1,4
