osu file format v9

[General]
AudioFilename: Buta-Otome - Machibito wa Kozu.mp3
AudioLeadIn: 0
PreviewTime: 56640
Countdown: 0
SampleSet: Normal
StackLeniency: 0.3
Mode: 0
LetterboxInBreaks: 1

[Editor]
DistanceSpacing: 1
BeatDivisor: 4
GridSize: 8

[Metadata]
Title:Machibito wa Kozu
Artist:Buta-Otome
Creator:l3lueskyiiz
Version:Hard
Source:Touhou
Tags:tatara kogasa beware the umbrella left there forever

[Difficulty]
HPDrainRate:4
CircleSize:4
OverallDifficulty:5
ApproachRate:6
SliderMultiplier:1.8
SliderTickRate:1

[Events]
//Background and Video events
Video,0,"Buta-Otome - Machi-bito wa Kitazu.flv"
0,0,"kogasa.jpg"
//Break Periods
2,81239,91989
2,117239,127614
2,159239,163614
2,174214,181965
//Storyboard Layer 0 (Background)
//Storyboard Layer 1 (Fail)
//Storyboard Layer 2 (Pass)
//Storyboard Layer 3 (Foreground)
//Storyboard Sound Samples
//Background Colour Transformations
3,100,128,223,255

[TimingPoints]
15039,375,4,1,1,50,1,0
15039,-200,4,2,1,21,0,0
25515,-100,4,1,1,40,0,0
27015,-100,4,1,1,40,0,1
27108,-100,4,1,1,40,0,0
39390,-133.333333333333,4,1,1,30,0,0
55515,-100,4,1,1,0,0,0
56640,-100,4,1,1,20,0,0
57015,-100,4,1,1,40,0,1
61515,-100,4,1,1,0,0,1
61608,-100,4,1,1,40,0,1
79515,-100,4,1,1,0,0,1
81015,-100,4,1,1,40,0,0
93015,-200,4,2,0,21,0,0
105015,-100,4,1,1,41,0,1
105108,-100,4,1,1,41,0,0
133515,-100,4,1,1,0,0,0
134640,-100,4,1,1,20,0,0
135015,-100,4,1,1,39,0,1
139515,-100,4,1,1,0,0,1
139608,-100,4,1,1,41,0,1
151515,-100,4,1,1,0,0,1
151608,-100,4,1,1,40,0,1
157515,-100,4,1,1,0,0,1
159015,-200,4,1,1,30,0,0
164265,-100,4,1,1,41,0,0
170921,-100,4,1,2,40,0,0
173265,1500,4,1,1,31,1,0
174015,375,4,1,1,21,1,0
183015,-200,4,1,1,21,0,0
185452,-200,4,1,1,5,0,0
185640,-100,4,1,1,20,0,0
186015,-100,4,1,1,40,0,1
196515,-100,4,1,1,0,0,1
198015,-100,4,1,1,41,0,0

[Colours]
Combo1 : 0,146,253
Combo2 : 242,36,0

[HitObjects]
176,144,15039,2,0,B|168:64|256:24|360:64|336:176,1,270
344,232,16539,2,0,B|352:304|256:352|160:312|176:216,1,270
256,216,18039,2,0,B|256:120,2,90
256,216,19164,1,0
168,232,19539,2,0,B|160:312|256:352|360:312|336:216,1,270
384,160,21039,6,0,B|352:96|264:88,1,135
232,88,21789,2,0,B|155:94|123:158,1,135
192,216,22726,2,0,B|192:280,1,45
256,288,23101,1,0
320,264,23289,2,0,B|320:200,1,45
256,192,23664,2,0,B|256:96,2,90
256,192,24601,5,0
208,240,24789,2,0,B|200:272|256:296|320:272|304:224,1,135
305,241,25539,1,8
328,152,25726,2,0,B|368:96,2,45
256,96,26101,1,8
184,152,26289,2,0,B|144:96,2,45
208,240,26664,5,8
256,96,26851,1,8
305,241,27039,2,0,B|424:240|440:360,1,180,4|8
436,340,27601,1,0
344,336,27789,2,0,B|232:336,1,90
208,256,28164,2,0,B|112:256,1,90,8|0
48,192,28539,6,0,B|48:80|184:80,1,180,0|8
162,80,29101,1,0
208,160,29289,2,0,B|344:32,1,180
336,32,29851,1,0
408,88,30039,6,0,B|408:272,1,180,0|8
456,344,30601,1,0
504,272,30789,2,0,B|504:88,1,180,0|8
456,16,31351,1,0
408,88,31539,1,0
352,160,31726,2,0,B|352:272,1,90,0|8
272,208,32101,1,0
272,120,32289,2,0,B|272:24,2,90,0|0|8
352,160,32851,1,0
272,208,33039,6,0,B|272:328|160:328,1,180,4|8
136,240,33601,1,0
104,328,33789,2,0,B|0:328|0:208,1,180,0|8
64,144,34351,2,0,B|64:40,2,90
64,144,34914,5,8
136,88,35101,1,0
208,144,35289,1,0
136,200,35476,1,0
136,288,35664,2,0,B|240:288,1,90,8|0
296,352,36039,6,0,B|408:352|408:232,1,180,0|8
407,240,36601,1,0
320,264,36789,2,0,B|176:144,1,180,0|8
181,148,37351,1,0
88,144,37539,2,0,B|88:264,1,90
181,148,37914,2,0,B|184:48,1,90,8|8
280,144,38289,6,0,B|280:240,2,90,0|0|8
280,144,38851,1,8
280,56,39039,1,4
440,200,40164,6,0,B|432:280|344:312,1,134.999995976687,8|2
320,248,40726,2,0,B|184:248,2,134.999995976687,2|2|0
320,248,41664,1,8
320,184,41851,1,0
376,144,42039,2,0,B|464:144|464:48,1,134.999995976687,0|2
392,64,42601,6,0,B|208:16|168:200,1,269.999991953373,2|8
176,232,43539,1,2
256,336,43914,1,2
336,232,44289,1,0
336,232,44476,2,0,B|416:232,1,67.4999979883433,8|8
256,336,45039,5,4
256,200,45414,2,0,B|256:128,2,67.4999979883433,8|2|2
144,272,46164,1,8
80,152,46539,1,2
80,152,46726,2,0,B|104:80|208:80,2,134.999995976687,2|0|0
144,272,47851,5,0
144,272,48039,2,0,B|208:336|280:256,1,134.999995976687,0|2
304,328,48601,2,0,B|392:272|392:152|280:96,1,269.999991953373,2|0
256,56,49539,2,0,B|104:56,2,134.999995976687,0|0|2
256,192,50664,5,8
256,192,50851,1,8
256,192,51039,2,0,B|256:344,1,134.999995976687,4|0
368,248,51789,2,0,B|368:384,1,134.999995976687,8|0
144,248,52539,2,0,B|144:384,1,134.999995976687
256,192,53289,6,0,B|256:40,1,134.999995976687,0|8
256,57,53851,1,8
256,57,54039,1,8
256,192,54132,12,0,55539
72,64,56851,6,0,B|144:64,1,45
160,64,57039,2,0,B|272:64|272:208,1,180,4|8
184,184,57601,2,0,B|96:184,2,90
272,184,58164,1,8
232,264,58351,1,0
272,344,58539,6,0,B|392:344|392:208,1,180,0|8
480,240,59101,2,0,B|480:120|344:120,1,180,0|0
288,96,59664,2,0,B|288:8,2,90,8|0|0
288,184,60226,1,0
256,192,60320,12,0,61539
216,336,61914,5,0
304,336,62101,1,0
304,256,62289,2,0,B|344:304|288:344,1,90
216,336,62664,2,0,B|176:296|219:256,1,90
256,176,63039,6,0,B|192:96|328:112|232:0,2,180,4|8|0
336,136,63976,1,0
416,184,64164,2,0,B|352:264|488:248|392:360,2,180,8|0|8
336,136,65101,1,0
296,216,65289,6,0,B|192:216,2,90,0|0|8
296,216,65851,1,0
256,296,66039,1,0
128,168,66414,5,8
120,80,66601,1,0
200,120,66789,1,4
376,152,67164,5,8
464,144,67351,1,0
424,224,67539,1,4
256,280,67914,6,0,B|160:280,1,90,8|8
256,280,68289,2,0,B|192:368,1,90
256,280,68664,2,0,B|320:368,1,90,8|0
256,280,69039,6,0,B|384:280|384:144,1,180,4|8
376,88,69601,1,0
304,144,69789,2,0,B|208:144,3,90,0|0|8|0
144,88,70539,2,0,B|56:144|56:272,1,180,0|8
56,328,71101,1,0
192,208,71476,5,0
256,272,71664,1,8
320,208,71851,1,0
384,272,72039,2,0,B|440:272,2,45
320,208,72414,2,0,B|368:120|304:24,1,180,8|0
256,104,72976,1,0
200,40,73164,2,0,B|136:128|200:224,2,180,8|0|8
256,208,74289,5,0
168,360,74664,1,8
256,328,74851,1,0
344,360,75039,1,4
168,360,75414,2,0,B|64:328|64:184,1,180,8|0
344,360,76164,2,0,B|448:328|448:184,1,180,8|0
256,240,76914,1,8
256,64,77289,6,0,B|256:160,4,90,0|0|8|0|0
256,192,78132,12,0,79539
256,192,79632,12,4,81039
304,112,93039,6,0,B|384:104|424:192|384:296|288:280,1,270,4|0
216,280,94539,2,0,B|135:294|95:190|135:102|215:110,1,270
256,192,96039,2,0,B|344:192,3,90
424,240,97539,2,0,B|424:328,1,90
504,288,98289,2,0,B|504:376,1,90
424,328,99039,6,0,B|336:328|320:248,1,135
320,216,99789,2,0,B|344:144|432:144,1,135
440,232,100726,1,0
440,232,100914,2,0,B|440:296,2,45
440,184,101476,1,0
440,136,101664,1,0
360,176,102039,6,0,B|344:112|248:96,1,135
252,98,102789,2,0,B|168:112|152:176,1,135
152,175,103539,1,0
256,192,103632,12,4,105039
256,128,105414,6,0,B|256:16,2,90,8|0|0
168,128,105976,1,0
104,184,106164,2,0,B|104:304|248:304,2,180,8|0|8
168,128,107101,2,0,B|168:16,1,90
256,64,107476,2,0,B|256:160,1,90,0|8
256,154,107851,1,0
336,184,108039,6,8,B|520:184,2,180,0|8|0
448,320,109164,2,0,B|232:320,1,180,8|0
96,264,109914,1,8
176,232,110101,1,0
160,320,110289,1,0
96,152,110664,6,0,B|96:32|240:32,2,180,8|4|8
184,128,111601,1,0
184,128,111789,2,0,B|368:128,1,180,0|8
364,128,112351,1,0
304,296,112726,2,0,B|400:296,2,90,0|8|0
216,296,113289,2,0,B|128:296,2,90,0|0|8
304,136,114039,6,0,B|379:128|448:192|416:280|296:272,1,270,0|0
216,272,114789,2,0,B|140:279|72:216|104:128|224:136,1,270,0|0
256,56,115539,1,0
256,192,115632,12,4,117039
176,176,128664,6,0,B|72:176,2,90,8|8|4
352,176,129414,2,0,B|448:176,2,90,0|0|8
192,264,130164,6,0,B|128:336,2,90,0|0|8
296,112,130914,2,0,B|368:16,2,90,0|0|8
320,256,131664,5,8
256,192,131851,1,8
184,136,132039,1,4
256,192,132132,12,0,133539
256,192,135039,5,4
112,88,135414,2,0,B|112:176,1,90,8|0
40,232,135789,2,0,B|40:336|192:336,1,180,0|8
168,248,136351,1,0
256,280,136539,2,0,B|472:280,1,180,0|8
440,192,137101,6,0,B|440:80|320:80,1,180
328,80,137664,1,8
328,168,137851,1,0
328,168,138039,2,0,B|256:168,2,45
256,192,138320,12,0,139539
192,272,139914,5,8
256,208,140101,1,0
320,272,140289,1,0
256,336,140476,1,0
256,208,140664,2,0,B|256:96,2,90,8|0|4
408,112,141414,5,8
408,112,141601,2,0,B|408:0|288:0,1,180
208,0,142164,2,0,B|96:0|96:111,1,180,8|0
256,192,142914,1,8
120,304,143289,2,0,B|40:224,2,90,0|0|8
208,304,143851,1,0
160,224,144039,1,4
256,72,144414,6,0,B|256:176,2,90,8|0|4
344,232,145164,2,0,B|424:152,2,90,8|0|4
480,344,145914,2,0,B|368:344,2,90,8|0|0
480,344,146476,1,0
432,264,146664,2,0,B|336:264,1,90,8|8
248,264,147039,6,0,B|136:264|112:128,1,180,4|8
120,72,147601,1,0
200,112,147789,1,0
376,72,148164,1,8
376,72,148351,1,0
448,128,148539,2,0,B|448:240|336:264,1,180,0|8
349,260,149101,1,0
168,256,149476,6,0,B|80:256,2,90,0|8|0
256,256,150039,1,0
256,168,150226,1,0
256,192,150320,12,0,151539
168,136,151914,6,0,B|168:248,1,90,8|0
256,192,152289,2,0,B|256:72,1,90
344,136,152664,2,0,B|344:240,2,90,8|0|4
168,136,153414,5,0
168,136,153601,2,0,B|168:56|256:16|352:56|344:152,1,270,0|8
344,134,154351,1,0
256,168,154539,2,0,B|256:264,2,90,0|0|8
112,272,155289,5,0
184,328,155476,1,0
256,272,155664,1,8
320,328,155851,1,0
400,272,156039,1,8
256,192,156132,12,0,157539
256,192,157632,12,4,159039
208,112,164664,5,8
256,32,164851,1,8
304,112,165039,1,4
168,224,165414,6,0,B|72:224,2,90,8|0|0
352,224,166164,2,0,B|480:224,2,90,8|0|0
200,328,166914,1,8
256,256,167101,1,0
312,328,167289,1,0
256,256,167476,2,0,B|256:144,1,90,0|8
256,166,167851,5,0
256,166,168039,1,4
256,80,168226,1,0
88,144,168601,2,0,B|8:224|88:304,1,180
426,301,169351,2,0,B|504:224|424:144,1,180
256,200,170101,1,0
256,200,170289,1,0
256,200,170664,1,8
304,376,171039,5,2
216,376,171226,1,2
144,216,171601,2,2,B|144:104|264:104,1,180
256,104,172351,2,2,B|368:104|368:216,1,180
367,214,173101,1,2
256,232,173265,2,0,B|256:352,1,90,0|4
208,192,183015,6,0,B|136:192,2,67.5
232,160,183765,2,0,B|200:96,2,67.5
280,160,184515,2,0,B|312:96,2,67.5,0|0|0
312,192,185265,2,0,B|384:192,2,67.5
256,264,186015,5,4
80,264,186390,2,0,B|24:360,2,90,8|0|0
80,88,187140,1,8
80,176,187327,1,0
160,136,187515,2,0,B|368:136,1,180,0|8
296,216,188077,2,0,B|496:216,1,180
476,216,188640,5,8
440,296,188827,1,0
360,336,189015,2,0,B|304:336,2,45
360,336,189390,1,8
192,264,189765,1,0
192,264,189952,2,0,B|72:264|72:152,1,180
160,176,190515,2,0,B|288:40,2,180,0|8|0
160,176,191452,1,0
72,176,191640,5,8
72,264,191827,1,0
160,264,192015,1,4
328,320,192390,1,8
328,320,192577,2,0,B|456:320|456:184,1,180
360,216,193140,1,8
256,64,193515,1,0
160,216,193890,1,8
256,368,194265,5,0
176,328,194452,2,0,B|208:272|312:272|344:344,1,180
256,160,195202,1,0
256,160,195390,1,0
256,192,195483,12,0,196515
256,192,196608,12,4,198015
